#TITLE:Utopia;
#SUBTITLE:;
#ARTIST:=);
#TITLETRANSLIT:;
#SUBTITLETRANSLIT:;
#ARTISTTRANSLIT:;
#CREDIT:DukAmok;
#BANNER:Utopia.png;
#BACKGROUND:Utopia-bg.png;
#LYRICSPATH:;
#CDTITLE:!duktitle.png;
#MUSIC:Utopia.mp3;
#OFFSET:1.370;
#SAMPLESTART:37.500;
#SAMPLELENGTH:10.000;
#SELECTABLE:YES;
#BPMS:0.000=166.000,328.000=148.540,328.500=144.360,329.000=134.180,329.500=130.000,330.000=120.000,330.500=110.000,331.000=98.600,331.500=88.000;
#STOPS:;
#BGCHANGES:;
// cache tags:
#FIRSTBEAT:4.000;
#LASTBEAT:332.000;
#SONGFILENAME:Songs/IzzySM Keyboard Mega Pack/Utopia/Utopia.sm;
#HASMUSIC:1;
#HASBANNER:1;
#MUSICLENGTH:124.585;
// end cache tags

//---------------dance-single - Heavy----------------
#NOTES:
     dance-single:
     Heavy:
     Hard:
     11:
     0.827,1.000,0.714,0.064,0.474,624.000,89.000,8.000,112.000,0.000:
0000
0000
0000
0000
,
0000
0000
0000
0000
,
0000
0000
0000
0000
,
0000
0000
0000
0000
,
0000
0000
0000
0000
,
1001
0001
0010
0100
1000
0010
0100
0101
,
0000
0000
0001
0000
0000
0000
0010
0100
0010
0000
0100
0000
1100
0000
1000
0000
,
1001
0001
0100
0010
1000
0010
0100
0101
,
0000
0011
0010
0100
1100
1000
1010
0010
,
1001
1000
0100
0010
0001
0100
0010
1010
,
0000
0000
1000
0000
0000
0000
0100
0010
0100
0000
0010
0000
0001
0000
1000
0000
,
1001
0001
0100
1000
0100
0001
0010
1010
,
0000
0010
0001
0100
0010
1000
0010
0100
,
1100
0100
0001
0010
0100
1000
0100
1100
,
0000
0000
0010
0000
0000
0000
0010
0001
0010
0000
0100
0000
1000
0000
0001
0000
,
0011
0010
0100
0001
0100
1000
0010
0110
,
0000
0000
0100
0000
1000
0000
0100
0000
0001
0000
0000
0100
0001
0000
0010
0100
,
1000
0001
1000
0100
0010
0001
0010
0011
,
0000
0100
1000
0100
0010
0001
0100
0010
,
1010
1000
0010
1000
0010
0100
0001
0101
,
0000
0000
0001
0000
0010
0000
0100
0010
0000
0000
0000
0100
1000
0000
0001
0000
,
0010
0000
0100
0000
1000
0000
0100
0010
,
0001
0000
0000
0000
0100
0000
0000
0000
1000
0000
0000
0100
0001
0000
0100
0001
,
0100
0000
0010
0000
1000
0000
0100
0010
,
0100
0000
0000
0000
0010
0000
0000
0000
0001
0000
0000
0100
0001
0000
0100
0010
,
0100
0000
0000
0010
1000
0000
0000
1000
0100
0000
0000
0100
0010
0000
0001
0010
,
0100
1000
0000
1000
0010
0000
0000
0010
0100
0000
0000
0001
0100
0000
0000
0000
,
0001
0000
0000
0100
0001
0000
0000
0001
0010
0000
0100
0010
0100
0000
1000
0100
,
0010
0001
0000
0001
0100
0000
0010
1000
0100
0000
0000
0010
0001
0000
0000
0000
,
0011
MMMM
1200
M000
0310
0110
MMMM
1001
,
M001
0000
0101
MMMM
0100
0110
MMMM
0010
,
1010
MMMM
0120
0M00
0130
0110
MMMM
1001
,
100M
0010
0110
1001
,
1100
MMMM
0021
000M
0130
0110
MMMM
1001
,
100M
0000
1010
MMMM
0010
0110
0110
MMMM
,
0101
MMMM
0210
00M0
0310
0110
MMMM
1001
,
M001
0000
0100
0000
0010
0000
0000
1000
0100
0000
0010
0001
0010
0000
0100
1000
,
0100
MMMM
0021
000M
0130
0110
MMMM
1001
,
100M
0000
1010
MMMM
0010
0110
MMMM
0100
,
0101
MMMM
0210
00M0
0310
0110
MMMM
1001
,
M001
0100
0110
1001
,
0011
MMMM
1200
M000
0310
0110
MMMM
1001
,
M001
0000
0101
MMMM
0100
0110
0110
MMMM
,
1010
MMMM
0120
0M00
0130
0110
MMMM
1001
,
100M
0000
0001
0000
0100
0000
0000
0001
0010
0000
0100
0000
1000
0000
0010
0000
,
0100
0000
0000
0000
0001
0010
0001
0000
0100
0000
0000
0000
0010
0000
0000
0000
,
1000
0000
0100
0000
0010
0001
0010
0100
,
1000
0000
0010
0000
0100
0001
0010
0100
,
1000
0000
0000
0000
0100
0000
0000
0000
0001
0000
0100
1000
0010
1000
0100
0000
,
0010
0000
0000
0000
0001
1000
0100
0000
1000
0000
0000
0000
0001
0010
0000
0000
,
0100
0000
0000
0000
0001
0000
0000
0000
0100
0000
1000
0000
0010
0100
0010
0000
,
0100
0000
0100
0010
0100
0001
0100
1000
,
0100
0001
0100
0010
1000
0001
0100
0000
0010
1000
0100
0010
0001
1000
0100
0010
,
0100
1000
0100
0010
0001
0010
0100
1000
0100
0010
0001
0010
0100
1000
0100
0010
,
0001
0100
0001
1000
0010
1000
0001
0100
0001
1000
0010
1000
0001
0100
0001
1000
,
0100
0010
0100
1000
0001
1000
0010
0100
0010
1000
0001
1000
0100
0010
0100
1000
,
0001
0010
0100
1000
0010
0100
0001
0010
0100
1000
0010
0100
0001
0010
0100
0010
,
0001
1000
0001
0010
0100
0010
0001
1000
0001
0100
0010
0100
0001
1000
0001
0100
,
0001
0010
0001
1000
0100
1000
0001
0100
0001
1000
0010
1000
0001
0010
0001
1000
,
0001
1000
0001
0100
0010
0100
0001
1000
0001
0100
0001
0100
0010
1000
0010
0100
,
0001
0010
0100
1000
0010
0100
0001
0010
0100
0010
0001
1000
0010
1000
0001
0000
,
1001
0000
0001
0000
0100
0000
0010
0100
0010
0000
1000
0000
0100
0000
0000
0000
,
0010
0000
0001
0000
0100
0000
0000
0010
1000
0000
0000
0000
0110
0000
0000
0000
,
1001
1000
0100
0010
0001
0100
0010
1010
,
0000
0000
1000
0000
0000
0000
0100
0010
0100
0000
0010
0000
0011
0000
0001
0000
,
1001
1000
0010
0100
0001
0100
0010
1010
,
0000
1100
0100
0010
0011
0001
0101
0100
,
1001
0001
0010
0100
1000
0010
0100
0101
,
0000
0000
0001
0000
0000
0000
0010
0100
0010
0000
0100
0000
1000
0000
0001
0000
,
1001
1000
0010
0001
0010
1000
0100
0101
,
0000
0100
1000
0010
0100
0001
0100
0010
,
0011
0010
1000
0100
0010
0001
0010
0011
,
0000
0000
0100
0000
0000
0000
0100
1000
0100
0000
0010
0000
0001
0000
1000
0000
,
1100
0100
0010
1000
0010
0001
0100
0110
,
0000
0000
0010
0000
0001
0000
0010
0000
1000
0000
0000
0010
1000
0000
0100
0010
,
0001
1000
0001
0010
0100
1000
0100
1100
,
0000
0010
0001
0010
0100
1000
0010
0100
,
0101
0001
0100
0001
0100
0010
1000
1010
,
0000
0000
1000
0000
0100
0000
0010
0100
0000
0000
0000
0010
0001
0000
1000
0000
,
0100
1000
0010
0100
0001
0010
1000
1010
,
0000
0000
0010
0000
0001
0000
0100
0001
1000
0000
0010
0000
0100
0000
0001
0000
,
0101
0100
1000
0100
0010
1000
0100
0110
,
0000
0000
0010
0000
0001
1000
0010
0000
0100
0000
1000
0000
0010
0000
0001
0000
,
1001
0000
0000
0000
;

//---------------dance-single - Challenge----------------
#NOTES:
     dance-single:
     Challenge:
     Challenge:
     11:
     1.000,1.000,1.000,0.056,0.646,729.000,198.000,7.000,0.000,0.000:
0000
0000
0000
0000
,
2000
0100
0001
0100
0010
0100
0001
3200
,
0000
0000
1000
0000
0000
0000
0010
0001
0010
0000
1000
0000
0001
0000
1000
0000
,
0320
1000
0001
0100
1000
0100
1000
0032
,
0000
0100
1000
0100
0010
1000
0100
0010
,
0203
1000
0001
1000
0010
1000
0001
2300
,
0000
0000
0100
0000
0000
0000
0010
0001
0010
0000
0100
0000
0001
0000
0100
0000
,
3020
0100
0001
1000
0100
1000
0100
0031
,
1100
0010
0100
0001
1010
0100
1010
0001
,
0101
0010
1100
0100
1010
0010
0110
0101
,
0000
0000
1001
0000
0000
0000
0010
0100
0010
0000
0100
0000
1001
0000
0011
0000
,
0110
0001
1100
0100
1001
0001
0101
0110
,
0000
1010
1100
0001
0011
0100
1010
0011
,
1010
0100
0011
0010
0101
0100
0110
1010
,
0000
0000
1001
0000
0000
0000
0100
0010
0100
0000
0010
0000
1001
0000
1100
0000
,
0110
1000
0011
0010
1001
1000
1010
0110
,
0000
0000
0101
0000
0011
0000
1000
0000
1100
0000
0010
0001
0010
0000
0100
1000
,
0011
1000
0011
0010
1100
0010
1001
1100
,
0000
0010
0101
0010
0110
1000
1010
0100
,
0101
0001
1100
0001
0101
0010
0011
1010
,
0000
0000
1000
0000
0100
0000
0010
0100
0000
0000
0000
0010
0001
0000
1000
0000
,
1100
0000
0110
0000
0011
0000
0101
0100
,
0110
0000
0000
0000
1010
0000
0000
0000
1001
0000
0000
0010
1000
0000
0010
1000
,
0101
0000
0011
0000
0110
0000
1100
0010
,
1001
0000
0000
0000
1010
0000
0000
0000
0101
0000
0000
0010
1000
0000
0010
0100
,
1001
0000
0000
0100
0001
0000
0000
0001
0010
0000
0000
0010
0100
0000
1000
0100
,
0010
0001
0000
0001
0100
0000
0000
0100
0010
0000
0000
1000
0010
0000
1000
0000
,
1000
0000
0000
0010
1000
0000
0000
1000
0100
0000
0010
0100
0010
0000
0001
0010
,
0100
1000
0000
1000
0010
0000
0100
0001
0010
0100
0000
0100
1000
0000
0000
0000
,
1100
0000
1000
0000
0011
0000
0010
0100
0010
0000
0110
0000
0000
0000
1001
0000
,
1000
0000
0000
0000
1010
0000
0000
0100
0010
0000
0110
0000
0001
0000
0100
0000
,
0101
0000
0000
0000
0110
0000
0000
0100
0010
0000
0110
0000
0000
0000
1001
0000
,
0001
0100
0010
0100
0001
1000
0010
0000
0100
0001
0100
0010
1000
0000
0100
0000
,
0011
0000
0001
0000
1100
0000
0100
0010
0100
0000
0110
0000
0000
0000
1001
0000
,
0001
0000
0000
0000
0101
0000
0000
0010
0100
0000
0110
0000
1000
0000
0010
0000
,
1010
0000
0000
0000
0110
0000
0000
0010
0100
0000
0110
0000
0000
0000
1001
0000
,
1000
0010
0100
0000
0001
0000
0000
1000
0100
0010
0001
0010
0001
0000
0100
0000
,
1010
0000
0010
0000
1100
0000
0100
0001
0100
0000
0101
0000
0000
0000
1010
0000
,
0010
0000
0000
0000
0110
0000
0000
0001
0100
0000
0101
0000
1000
0000
0001
0000
,
1001
0000
0000
0000
0101
0000
0000
0001
0100
0000
0101
0000
0000
0000
1010
0000
,
1000
0001
0100
0000
1010
0000
1000
0001
0010
0001
0100
0010
1000
0000
0101
0000
,
1100
0000
1000
0000
0011
0000
0001
0100
0001
0000
0101
0000
0000
0000
1010
0000
,
1000
0000
0000
0000
1001
0000
0000
0100
0001
0000
0101
0000
0010
0000
0100
0000
,
0110
0000
0000
0000
0101
0000
0000
0100
0001
0000
0101
0000
0000
0000
1010
0000
,
0010
0100
0001
0100
0010
0000
1000
0000
0010
1000
0100
0010
0001
1000
0100
0000
,
0011
0000
0000
0000
1000
0100
1000
0000
1010
0000
0000
0000
0110
0000
0000
0000
,
0101
0000
1010
0000
1100
1000
0110
0010
,
1001
0000
0110
0000
1010
1000
1100
0010
,
0101
0000
0000
0000
0110
0000
0000
0000
1100
0000
0010
0001
0000
0001
0010
0000
,
1100
0000
0000
0000
1000
0001
0010
0000
0011
0000
0000
0000
1000
0100
0000
0000
,
0011
0000
0000
0000
1010
0000
0000
0000
0110
0000
0001
0000
0100
0010
0100
0000
,
1001
0000
0011
0100
0110
1000
1010
0001
,
0010
1000
0010
0100
0001
1000
0010
0000
0100
0001
0010
0100
1000
0001
0010
0100
,
0010
0001
0010
0100
1000
0100
0010
0001
0010
0100
1000
0100
0010
0001
0010
0100
,
1000
0010
1000
0001
0100
0001
1000
0010
1000
0001
0100
0001
1000
0010
1000
0001
,
0010
0100
0010
0001
1000
0001
0100
0010
0100
0001
1000
0001
0010
0100
0010
0001
,
1000
0100
0010
0001
0100
0010
1000
0100
0010
0001
0100
0010
1000
0100
0010
0100
,
1000
0001
1000
0100
0010
0100
1000
0001
1000
0010
0100
0010
1000
0001
1000
0010
,
1000
0100
1000
0001
0010
0001
1000
0010
1000
0001
0100
0001
1000
0100
1000
0001
,
1000
0001
1000
0010
0100
0010
1000
0001
1000
0010
1000
0010
0100
0001
0100
0010
,
1000
0100
0010
0001
0100
0010
1000
0100
0010
0100
1000
0001
0100
0001
1000
0000
,
1001
0000
1000
0000
0010
0000
0100
0010
0100
0000
0001
0000
0010
0000
0000
0000
,
1100
0000
1000
0000
0010
0000
0000
0010
0101
0000
0000
0000
0110
0000
0000
0000
,
0011
0000
0001
0000
1100
0000
0100
0010
0100
0000
0110
0000
0010
0000
1001
0000
,
0001
0000
1000
0000
0101
0000
0001
0010
0100
0000
0110
0000
1000
0000
0010
0000
,
1010
0000
0100
0000
0110
0000
0100
0001
1000
0000
1010
0000
0010
0000
1001
0000
,
0001
0010
1100
0000
0011
0000
0100
1000
0010
0100
1001
0000
0101
0000
0010
0000
,
1100
0000
1000
0000
0011
0000
0010
0100
0010
0000
0110
0000
0100
0000
1001
0000
,
1000
0000
0001
0000
1010
0000
1000
0100
0010
0000
0110
0000
0001
0000
0100
0000
,
0101
0000
0010
0000
0110
0000
0010
1000
0001
0000
0101
0000
0100
0000
1001
0000
,
1000
0100
0011
0000
1100
0000
0010
0001
0100
0010
1001
0000
1100
0000
0001
0010
,
1100
0100
0011
0010
0101
0100
0110
1010
,
0000
0000
1001
0000
0000
0000
0100
0010
0100
0000
0010
0000
1001
0000
1100
0000
,
0110
1000
0011
0010
1001
1000
1010
0110
,
0001
0010
0100
0000
0011
0000
1000
0010
0100
0001
0010
0000
0110
0000
1100
0000
,
0101
0010
1100
0100
1010
0010
0110
0101
,
0000
0001
0011
0010
1100
0001
1001
0011
,
0110
0001
1100
0100
1001
0001
0101
0110
,
0001
0010
0100
0000
1100
0000
0001
0000
0001
0010
0100
1000
0100
0010
0001
0100
,
1010
0001
0010
0100
1000
0010
0100
0011
,
0000
0000
0001
0000
0000
0000
1000
0010
0100
0000
0001
0000
0010
0000
0001
0000
,
1001
1000
0010
0100
0001
0010
1000
0101
,
0000
0000
0001
0000
0010
0001
0010
0000
0100
0000
1000
0000
0010
0000
0100
0000
,
1001
0000
0000
0000
;
