#TITLE:MAX.;
#SUBTITLE:-Period- (Digital Wipeout Mix);
#ARTIST:2MB vs. XP;
#TITLETRANSLIT:;
#SUBTITLETRANSLIT:;
#ARTISTTRANSLIT:;
#CREDIT:;
#BANNER:MAX. -Period- (Digital Wipeout Mix).png;
#BACKGROUND:MAX. -Period- (Digital Wipeout Mix)-bg.png;
#LYRICSPATH:;
#CDTITLE:;
#MUSIC:MAX. -Period- (Digital Wipeout Mix).mp3;
#OFFSET:-0.180;
#SAMPLESTART:20.180;
#SAMPLELENGTH:12.000;
#SELECTABLE:YES;
#BPMS:0.000=300.000,208.000=180.000,252.000=300.000,316.000=599.995,440.000=150.000;
#STOPS:208.000=1.320
;
#BGCHANGES:;
// cache tags:
#FIRSTBEAT:16.000;
#LASTBEAT:490.000;
#SONGFILENAME:Songs/Tales of Genji/MAX. -Period- (Digital Wipeout Mix)/MAX. -Period- (Digital Wipeout Mix).sm;
#HASMUSIC:1;
#HASBANNER:1;
#MUSICLENGTH:103.374;
// end cache tags

//---------------dance-single - ----------------
#NOTES:
     dance-single:
     :
     Challenge:
     12:
     0.768,1.000,0.648,0.329,0.121,455.000,67.000,34.000,0.000,1.000:
0000
0000
0000
0000
,
0000
0000
0000
0000
,
0000
0000
0000
0000
,
0000
0000
0000
0000
,
1001
0000
0000
0000
0000
0000
0000
0000
0000
0000
0000
0000
0000
0000
0000
0000
0110
0000
0000
0000
0000
0000
0000
0000
0000
0000
0000
0000
0000
0000
0000
0000
0000
0000
0000
0000
0000
0000
0000
1100
0000
0000
0000
0000
0000
0000
0000
0000
0000
0000
0000
0000
0000
0000
0000
0101
0000
0000
0000
0000
0000
0000
0000
0000
,
0000
0000
0000
0000
0000
0000
0000
0011
0000
0000
0000
0000
0000
0000
0000
0000
0000
0000
0000
0000
0000
0000
0000
1010
0000
0000
0000
0000
0000
0000
0000
0000
0000
0000
0000
0000
0000
0000
0000
1100
0000
0000
0000
0000
0000
0000
0000
0000
0000
0000
0000
0000
0000
0000
0000
0101
0000
0000
0000
0000
0000
0000
0000
0000
,
0000
0000
0000
0000
0000
0000
0000
0011
0000
0000
0000
0000
0000
0000
0000
0000
0000
0000
0000
0000
0000
0000
0000
1010
0000
0000
0000
0000
0000
0000
0000
0000
0000
0000
0000
0000
0000
0000
0000
0000
1100
0000
0000
0000
0000
0000
0000
0000
0000
0000
0000
0000
0000
0000
0000
0000
0101
0000
0000
0000
0000
0000
0000
0000
,
1001
0110
1001
0110
,
1000
0000
1000
0000
1000
0001
0000
1000
,
0001
0000
0001
0000
0001
1000
0000
0001
,
1000
0000
1000
0000
1000
0001
0000
1000
,
0001
1000
0110
0000
,
0001
0000
0001
0000
0001
1000
0000
0001
,
1000
0000
1000
0000
1000
0001
0000
1000
,
0001
0000
0001
0000
0001
1000
0000
0001
,
1000
0001
0110
0000
,
1000
0100
0010
0000
0001
0010
0100
0000
,
1000
0010
0100
0000
0001
0100
0010
0000
,
0010
0100
0010
0000
0100
0010
0100
0000
,
1001
0110
1001
0000
,
1001
0010
0100
0010
,
1001
0100
0010
0100
,
1001
0100
0010
0000
1001
0010
0100
0000
,
0010
0100
0010
0100
1000
0001
1000
0001
,
0110
0000
0110
0000
0000
1100
0000
0011
,
1000
0100
0010
0001
,
1000
0100
0010
0001
,
1000
0100
0010
0001
,
1001
0000
0000
0000
0000
0000
0000
0000
0000
0000
0000
0000
0000
0000
0000
0000
1001
0000
0000
0000
0000
0000
0000
0000
0000
0000
0000
0000
0000
0000
0000
0000
0000
0000
0000
0000
0000
0000
0000
1010
0000
0000
0000
0000
0000
0000
0000
0000
0000
0000
0000
0000
0000
0000
0000
0011
0000
0000
0000
0000
0000
0000
0000
0000
,
0000
0000
0000
0000
0000
0000
0000
0101
0000
0000
0000
0000
0000
0000
0000
0000
0000
0000
0000
0000
0000
0000
0000
1100
0000
0000
0000
0000
0000
0000
0000
0000
0000
0000
0000
0000
0000
0000
0000
1010
0000
0000
0000
0000
0000
0000
0000
0000
0000
0000
0000
0000
0000
0000
0000
0011
0000
0000
0000
0000
0000
0000
0000
0000
,
0000
0000
0000
0000
0000
0000
0000
0101
0000
0000
0000
0000
0000
0000
0000
0000
0000
0000
0000
0000
0000
0000
0000
1100
0000
0000
0000
0000
0000
0000
0000
0000
0000
0000
0000
0000
0000
0000
0000
0000
1010
0000
0000
0000
0000
0000
0000
0000
0000
0000
0000
0000
0000
0000
0000
0000
0011
0000
0000
0000
0000
0000
0000
0000
,
1001
1001
0110
1001
,
0011
0000
1100
0000
0000
0020
0000
0130
,
2000
3200
0320
0032
,
0023
0230
2300
3200
,
0320
0032
0023
0230
,
2300
0000
0000
0000
0000
0000
0000
0000
0000
0000
0000
0000
0000
0000
0000
0000
3200
0000
0000
0000
0000
0000
0000
0000
0000
0000
0000
0000
0000
0000
0000
0000
0300
0000
0000
0000
0000
0000
0000
2000
0000
0000
0000
0000
0000
0000
0000
0000
0000
0000
0000
0000
0000
0000
0000
0100
0000
0000
0000
0000
0000
0000
0000
0000
,
0000
0000
0000
0000
0000
0000
0000
0010
0000
0000
0000
0000
0000
0000
0000
0000
0000
0000
0000
0000
0000
0000
0000
0001
0000
0000
0000
0000
0000
0000
0000
0000
0000
0000
0000
0000
0000
0000
0000
0010
0000
0000
0000
0000
0000
0000
0000
0000
0000
0000
0000
0000
0000
0000
0000
0100
0000
0000
0000
0000
0000
0000
0000
0000
,
0000
0000
0000
0000
0000
0000
0000
0010
0000
0000
0000
0000
0000
0000
0000
0000
0000
0000
0000
0000
0000
0000
0000
3001
0000
0000
0000
0000
0000
0000
0000
0000
0000
0000
0000
0000
0000
0000
0000
0000
1001
0000
0000
0000
0000
0000
0000
0000
0000
0000
0000
0000
0000
0000
0000
0000
0110
0000
0000
0000
0000
0000
0000
0000
,
1000
0000
0001
0000
1000
0001
1000
0000
,
2000
0100
0010
0100
,
0010
3100
0002
0100
,
0010
1000
0100
0000
0010
0000
0103
0000
,
1001
0000
0110
0000
1001
0000
0010
0100
,
0010
1100
0011
0101
,
1010
0002
0023
0230
,
2300
0001
0100
0000
0010
0000
0100
0000
,
0010
3100
0001
0010
,
0100
1000
0010
0100
,
0012
0100
1000
0100
,
0010
1000
0013
0000
2000
0000
0100
0000
,
0010
0001
0010
3100
,
2002
3003
0000
0000
0000
0000
0000
0000
0000
0000
0000
0000
0000
0000
0000
0000
0000
0000
0000
0000
0000
0000
0000
0000
0000
0000
0000
0000
0000
0000
0000
0000
0000
0000
0000
0000
0000
0000
0000
0000
0000
0000
0000
0000
0000
0000
0000
0000
0000
0000
0000
0000
0000
0000
0000
0000
0000
0000
0000
0000
0000
0000
0000
0000
,
0000
0000
0000
0000
1000
0000
1000
0001
,
0000
0000
0000
0000
,
0002
0000
0000
0000
0010
0000
0000
0100
0000
0000
0013
0000
0000
0000
0000
0000
,
2002
0000
3003
0000
,
0000
0000
0000
0000
0011
0000
1100
1100
,
0000
0000
0000
0000
,
0000
0000
0000
0000
0000
1001
0000
0110
,
0000
0000
0000
0000
,
1001
0000
0000
0000
0001
0000
0001
1000
,
0000
1000
0000
0000
0000
0000
0000
0000
,
1000
0100
0010
0001
0010
0000
0100
1000
,
0100
0010
0000
0000
0001
0010
0100
1000
,
0100
0000
0010
0001
0010
0000
0000
0100
,
1000
0100
0010
0001
0000
0010
0000
0100
,
1000
0100
0000
0010
0000
0001
0010
0100
,
0000
1000
0100
0000
0010
0001
0010
0000
,
0100
0000
1000
0100
0000
0010
0001
0010
,
0100
0000
1000
0100
0010
0000
0001
0010
,
0000
0100
0000
1000
0000
0000
0100
0010
,
0001
0010
0100
0000
1000
0100
0000
0010
,
0001
0010
0100
0000
1000
0100
0010
0000
,
0001
0010
0100
0000
1000
0000
0100
0010
,
0001
0000
0000
0010
0000
0000
0100
1000
,
0000
0100
0010
0001
0000
0000
0010
0000
,
0100
1000
0100
0000
0010
0000
0001
0000
,
1000
0001
1000
0001
0010
0100
0010
0100
,
0020
0100
1000
0100
,
0001
0100
1000
0100
,
0001
1000
0100
1000
,
0001
0100
1000
0001
,
0100
1000
0100
0001
,
0100
0001
0001
1000
,
1000
0100
0100
1000
,
0001
0001
1000
0100
,
0001
1000
1000
0100
,
0100
0001
0001
0100
,
1000
1000
0100
0001
,
0001
0100
0100
1000
,
0100
0001
0100
1000
,
0100
0001
0100
1000
,
0100
0001
0100
1000
,
0100
0001
0100
1000
,
1000
1000
1000
0001
,
0001
0001
0001
0100
,
0100
0100
0100
1000
,
0001
0100
0100
0100
,
0100
1000
0100
0001
,
0100
0001
0100
1000
,
0100
0001
0100
1000
,
0100
1000
0100
0001
,
0100
1000
0001
1000
,
0001
1000
0001
1000
,
0001
1000
0001
1000
,
0001
0100
0100
0100
,
0100
0100
0100
0100
,
0130
0010
0100
0010
0100
0010
0100
0010
,
0100
0010
0100
0010
0100
0010
0100
0010
,
2002
0000
0000
0000
,
0000
0000
0000
0000
,
0000
0000
0000
0000
,
0000
0000
0000
0000
,
0000
0000
0000
0000
,
0000
0000
0000
0000
,
0000
0000
0000
0000
,
0000
0000
0000
0000
,
0000
0000
0000
0000
,
0000
0000
0000
0000
,
0000
0000
0000
0000
,
0000
0000
0000
0000
,
0000
3223
0330
0000
;
