#TITLE:Jeh Jeh Rocket;
#SUBTITLE:Sonic Rush (2005);
#ARTIST:長沼英樹;
#TITLETRANSLIT:;
#SUBTITLETRANSLIT:;
#ARTISTTRANSLIT:Hideki Naganuma;
#CREDIT:;
#BANNER:Jeh Jeh Rocket.jpg;
#BACKGROUND:Jeh Jeh Rocket-bg.jpg;
#LYRICSPATH:;
#CDTITLE:!tsuka.png;
#MUSIC:Jeh Jeh Rocket.mp3;
#OFFSET:-0.486;
#SAMPLESTART:42.748;
#SAMPLELENGTH:12.000;
#SELECTABLE:YES;
#BPMS:0.000=141.970;
#STOPS:;
#BGCHANGES:;
// cache tags:
#FIRSTBEAT:0.000;
#LASTBEAT:311.500;
#SONGFILENAME:Songs/VGMP 3/Jeh Jeh Rocket (Tsuka)/Jeh Jeh Rocket.sm;
#HASMUSIC:1;
#HASBANNER:1;
#MUSICLENGTH:132.362;
// end cache tags

//---------------dance-single - ----------------
#NOTES:
     dance-single:
     :
     Hard:
     12:
     1.000,1.000,1.000,0.416,1.000,909.000,278.000,55.000,0.000,19.000:

1001
0000
0100
0000
0000
0010
0000
1000
0010
0000
0001
1000
0000
0000
0000
0001
,
0000
0000
0010
0000
0000
0100
0000
0001
0100
0000
1000
0010
0000
0000
0000
1000
,
0000
0000
0001
0000
0000
0100
0000
0010
1000
0000
0100
0010
0000
0000
0000
0001
,
0000
0000
1000
0000
0000
0001
0000
0100
1000
0000
0010
0100
0000
0000
0000
0010
,
1000
0000
0001
0100
0001
0100
0010
1000
0100
0000
0010
0001
0100
0001
0100
0010
,
1000
0000
0100
0010
0100
0010
1000
0001
0100
0000
0010
1000
0010
1000
0001
0100
,
0010
0000
1000
0001
1000
0001
0100
0010
1000
0000
0001
0100
0001
0100
0010
1000
,
0100
0000
0010
0100
0010
0100
0001
1000
0010
0000
0100
0001
0100
0001
1000
0010
,
1001
0000
0000
0102
0000
0003
1010
0000
0110
0000
0000
0021
0000
0030
1100
0000
,
0101
0000
0000
0210
0000
0300
1001
0000
0011
0000
0000
2100
0000
3000
0110
0000
,
0110
0000
0001
0000
1001
0010
0000
1000
0101
0000
0001
1000
0110
0001
0100
0001
,
1100
0000
0010
0000
1001
0100
0000
0001
0110
0000
1000
0010
0101
1000
0010
1000
,
0110
0000
0001
0000
1010
0100
0000
0010
1001
0000
0100
0010
1100
0001
0010
0001
,
0110
0000
0001
0000
1010
0001
0000
0100
1001
0000
0010
0100
0011
1000
0100
0010
,
1100
0000
1000
0000
0110
1000
0000
0001
1010
0000
1000
0001
0110
1000
0010
1000
,
0011
0000
0100
0000
1001
0010
0000
1000
0110
0000
0001
0100
1010
0001
0100
0001
,
0110
0000
1000
0000
0101
0010
0000
0100
0011
0000
1000
0000
0101
0010
0000
0100
,
0011
0000
1000
0001
0110
0000
1000
0001
0110
0000
1000
0001
0110
0000
0101
0000
,
1010
0000
0001
0100
1001
0020
0130
1000
0101
0000
0001
1000
0110
0001
0100
0001
,
1100
0000
0010
0100
1001
0200
0310
0001
0110
0000
1000
0010
0101
1000
0010
1000
,
0110
0000
0001
0100
1010
0200
0301
0010
1001
0000
0100
0010
1100
0001
0010
0001
,
0110
0000
0001
0100
1010
0002
0013
0100
1001
0000
0010
0100
0011
1000
0101
0010
,
1100
0000
1000
0001
0110
2000
3001
0100
1010
0000
1000
0001
0110
1000
0010
1000
,
0011
0000
0100
0010
1001
0020
0130
1000
0110
0000
0001
0100
1010
0001
0100
0001
,
0110
0000
0001
0100
1010
0001
0100
0001
0110
0000
0001
0100
1010
0001
0100
0001
,
0110
0000
0001
0100
1010
0000
0001
0100
1010
0000
0001
0100
1010
0100
1010
0100
,
1001
0001
0000
0010
0100
0000
0001
0000
0001
0000
0020
0000
0200
0000
0330
0001
,
0000
0001
0000
0010
0100
0000
0001
0000
0001
0000
0020
0000
0200
0000
0330
0000
,
1000
0001
0000
0010
0100
0000
0001
0000
0001
0000
0100
0000
0010
0000
0100
0010
,
0000
0000
0100
1000
0100
0000
0001
0000
0001
0000
0020
0000
0200
0000
0330
0000
,
1010
0001
0100
0010
1100
0000
0001
0000
1001
0000
0120
0000
1130
0000
0010
0001
,
1010
0001
0100
0010
1100
0000
0001
0000
1001
0000
0120
0000
1130
0000
0010
0000
,
1010
0001
0100
0010
1100
0000
0001
0000
1001
0000
0110
0000
0011
0000
0100
0010
,
1001
0000
0110
1000
0110
0000
0001
0000
1001
0000
0110
0000
1100
0000
0001
0000
,
1001
0000
0010
0000
0101
0010
0001
1000
0110
0000
0001
0010
1100
0010
0001
1000
,
0101
0000
0010
0000
1001
0100
0010
0001
0110
0000
0001
0010
1100
0010
0001
1000
,
0101
0000
0010
0000
1001
0100
0001
0010
1100
0000
0010
0100
1010
0100
0001
0010
,
0101
0000
1000
0000
0110
0001
1000
0100
1001
0000
0010
0100
1010
0100
0001
0010
,
1001
0000
0100
0000
1010
0100
0001
0010
1001
0000
0100
0000
1010
0100
0001
0010
,
1001
0000
0100
0000
1010
0100
0001
0010
1001
0000
0100
0001
1010
0100
0001
0010
,
1001
0000
0100
0000
1010
0100
0001
0010
1001
0000
0110
0000
1010
0000
1100
0001
,
0110
0000
0101
1000
0110
0000
0011
0000
1001
0000
0110
0000
1001
0000
0120
0000
,
1130
0000
0000
0100
1001
0020
0130
0000
0011
0000
0100
0001
1010
0100
0010
1000
,
0011
0000
0100
0010
1100
0002
0013
0000
1001
0000
0010
0100
1010
0100
0011
0100
,
1001
0000
0010
0100
0011
2000
3100
0000
1010
0000
0100
0010
1001
0100
0001
0100
,
1010
0000
0100
0010
0101
0020
1030
0000
0110
0000
1000
0001
1100
0010
0101
0010
,
1001
0000
0100
0010
1100
0002
0103
0000
0011
0000
1000
0010
0101
0010
1000
0100
,
0011
0000
1000
0010
0101
0010
1000
0100
0011
0000
1000
0010
0101
0010
1000
0100
,
1001
0000
0000
0012
0000
0003
1010
0000
1001
0000
0000
0120
0000
0030
1100
0000
,
0110
0000
0000
0201
0000
0300
1010
0000
0011
0000
0000
2001
0000
3000
0110
0000
,
1001
0000
0100
0001
0100
0010
0001
1000
0010
0000
0001
1000
0100
1000
0010
0001
,
0100
0000
0010
1000
0001
0100
0010
0001
0100
0000
1000
0010
0100
0001
1010
0100
,
1001
0000
0010
1000
0001
0010
1000
0001
1000
0000
0100
0010
1000
0100
1000
0001
,
0100
0000
0010
1000
0001
0010
1000
0001
1000
0000
0100
0010
1000
0100
1000
0010
,
1100
0000
0001
0100
1001
0200
0310
1000
0101
0000
0010
0001
1100
0001
0100
0010
,
1001
0000
0100
0010
1100
0020
1030
0001
0110
0000
0010
1000
0011
1000
0001
0100
,
1010
0000
1000
0001
1100
0002
0103
0010
1100
0000
0001
0100
1001
0100
0010
1000
,
0101
0000
0010
0100
0011
0000
0010
0100
0011
0000
0010
0100
0011
0000
0010
0100
,
1001
0100
0000
0010
1100
0000
0010
0000
0101
0000
0001
1000
0110
0001
0100
0001
,
1100
0010
0000
0010
1001
0100
0010
0001
0110
0000
1000
0010
0101
1000
0010
1000
,
0110
0001
0000
0001
1010
0000
0100
0010
1001
0000
0100
0010
1100
0001
0010
0001
,
0110
0000
1000
0100
1010
0000
0001
0000
1001
0000
0020
1000
0131
0000
0100
0010
,
1100
0001
0000
0001
0110
1000
0001
0100
1010
0000
0020
0100
1031
0100
0010
1000
,
0011
0100
0000
0100
1001
0000
0010
0000
1100
0000
0020
1000
0131
0010
0100
0001
,
0110
1000
0000
1000
0101
0010
1000
0000
0011
0000
1000
0010
0101
0010
1000
0100
,
0011
0000
1000
0100
1001
0010
0100
0010
0101
0000
0010
0000
1100
0000
0020
0001
,
1130
0000
0001
0100
1001
0020
0130
1000
0101
0000
0001
1000
0110
0001
0200
0001
,
1310
0000
0010
0100
1001
0200
0310
0001
0110
0000
1000
0010
0101
1000
0020
1000
,
0131
0000
0010
0100
1010
0200
0301
0010
1001
0000
0100
0010
1100
0001
0200
0001
,
1310
0000
0001
0100
1010
0002
0013
0100
1001
0000
0010
0100
1010
0100
0020
0100
,
1031
0000
1000
0001
0110
2000
3020
0100
1031
0000
1000
0001
0110
2000
3020
0100
,
1031
0000
1000
0001
0110
2000
3020
0100
1031
0000
1000
0001
0110
2000
3020
0100
,
1031
0000
0020
0100
1031
0000
0020
0100
1031
0000
0020
0100
1031
0000
0020
0100
,
1031
1001
1001
1001
1001
1001
1001
1001
,
1001
0001
0001
0001
0001
0001
0001
0001
,
1010
0001
1010
0001
1010
0001
1010
0001
,
1010
0100
0011
0001
1010
0100
0011
0001
,
1010
0100
0011
0001
1010
0100
0011
0001
;

//---------------dance-solo - ----------------
#NOTES:
     dance-solo:
     :
     Hard:
     1:
     0.119,0.099,0.196,0.000,0.147,80.000,26.000,0.000,0.000,4.000:









010000
000000
000000
000000
000100
000000
000000
000000
000000
000000
000000
001000
000010
000000
000000
000000
010000
000000
000000
000000
000000
000000
000000
000000
000001
000000
000000
000000
000000
000000
000000
000000
,
010001
000000
001000
000010
000000
000000
000000
000000
010001
100000
001010
000000
100010
000000
101000
000000
,
001001
010000
000000
000000
001001
000100
000000
000010
001001
010000
000000
001000
100001
000000
000100
000000
,
111000
000001
000001
000000
000000
000001
000000
000001
001000
100000
001100
000010
000000
000010
011000
100000
,
000000
010000
000000
000010
000010
000000
100000
011000
000000
100000
000000
001100
000000
000010
000001
000000
,
100101
000000
001000
000010
000000
000000
000000
010000
001001
100000
001010
000000
100010
000000
010100
000000
,
001001
010000
000000
000000
001001
000100
000000
000010
001001
010000
000000
001000
100001
000000
000100
000000
,
101010
000001
000001
000000
000000
000001
000000
000001
011010
100000
000000
001000
000000
001000
010010
000001
,
000000
000000
001000
000100
000000
100000
000000
000000
000000
100000
000000
000000
001000
000000
000000
000000
;
