#TITLE:A Path Less Taken;
#SUBTITLE:;
#ARTIST:Silent Hill 2006;
#TITLETRANSLIT:;
#SUBTITLETRANSLIT:;
#ARTISTTRANSLIT:;
#CREDIT:;
#BANNER:A Path Less Taken BN.jpg;
#BACKGROUND:A Path Less Taken BG.jpg;
#LYRICSPATH:;
#CDTITLE:;
#MUSIC:A Path Less Taken.mp3;
#OFFSET:-15.020;
#SAMPLESTART:100.050;
#SAMPLELENGTH:12.000;
#SELECTABLE:YES;
#BPMS:0.000=130.000,218.688=200.000,219.938=300.000;
#STOPS:;
#BGCHANGES:;
// cache tags:
#FIRSTBEAT:0.000;
#LASTBEAT:261.688;
#SONGFILENAME:Songs/Fog's StupidStream Pack/[Fogfactor] A Path Less Taken/A Path Less Taken.sm;
#HASMUSIC:1;
#HASBANNER:1;
#MUSICLENGTH:126.515;
// end cache tags

//---------------dance-single - Copied from----------------
#NOTES:
     dance-single:
     Copied from:
     Hard:
     9:
     1.000,1.000,1.000,0.000,1.000,881.000,202.000,0.000,0.000,59.000:
1100
0000
0000
0000
,
0000
0000
0000
0000
0000
0000
0000
0000
0000
0000
0000
0000
0000
0000
0000
0000
0000
0000
0000
0000
0000
0000
0000
0000
0000
0000
0000
0000
0000
0000
0000
0101
,
0000
0000
0000
0000
,
0000
0000
0000
0000
0000
0000
0000
0000
0000
0000
0000
0000
0000
0000
0000
0000
0000
0000
0000
0000
0000
0000
0000
0110
,
0000
0000
0000
0000
,
0000
0000
0000
0000
0000
0000
0000
0000
0000
0000
0000
1100
,
0000
0000
0000
0000
,
0000
0000
0000
0000
0000
0000
0000
0000
0000
0000
0000
0000
0000
0000
0000
0000
0000
0000
0000
0000
0000
0000
0000
0000
0000
0000
0000
0000
0000
1100
0000
0000
,
0100
1100
0001
1010
0000
0011
0000
0110
,
0000
0110
0000
1010
0000
0110
0000
0011
,
1010
0000
0000
0000
0010
0000
0000
0000
1100
0000
0000
0100
0000
0000
0000
0000
0000
0000
0000
0110
0000
0000
0000
0000
0000
0000
0101
0000
0000
0000
0000
0000
,
0000
0000
0000
0000
0000
0000
0000
0000
0000
0000
0000
0000
0000
0000
0000
0000
0000
0000
0110
0000
0000
0000
0000
0000
0000
0000
0000
0000
0000
0000
0000
0000
0000
0000
0000
0000
0000
0000
0000
0000
0000
0000
0000
0000
0000
0000
0000
0000
0000
0000
0000
0000
0000
0000
0000
0000
0000
0000
0000
0000
0000
0000
0000
0000
0000
0000
1010
0000
0000
0000
0000
0000
0000
0000
0000
0000
0000
0000
0000
0000
0000
0000
0000
0000
0000
0000
0000
0000
0000
0000
0000
0000
0000
0000
0000
0000
0000
0000
0000
0000
0000
0000
0000
0000
0000
0000
0000
0000
0110
0000
0000
0000
0000
0000
0000
0000
0000
0000
0000
0000
0000
0000
0000
0000
0000
0000
0000
0000
0000
0000
0000
0000
0000
0000
0000
0000
0000
0000
0000
0000
0000
0000
0000
0000
0000
0000
0000
0000
0000
0000
0000
0000
0000
0000
0000
0000
1101
0000
0000
0000
0000
0000
0000
0000
0000
0000
0000
0000
0000
0000
0000
0000
0000
0000
0000
0000
0000
0000
0000
0000
0000
0000
0000
0000
0011
0000
0000
0000
0000
0000
0000
0000
,
0000
0100
0000
0100
0000
1001
0000
0000
0000
0101
0000
0000
0000
1100
0000
0000
,
0000
0110
0000
0000
0000
1010
0000
0000
0000
0101
0000
0000
0000
1110
0000
0101
,
0000
0000
0000
1001
0000
0000
0000
0000
0000
1100
0000
0000
0000
0000
0000
0011
0000
0000
0000
0000
0000
0000
0000
0000
0000
0000
0000
1100
0000
0000
0000
0000
0000
0000
0000
0000
0000
0000
1001
0000
0000
0000
0000
0000
0000
0000
0000
0000
,
0011
0000
0000
0000
0000
0000
0000
1010
0000
0000
0000
0000
0011
0000
0000
0000
0000
0000
1101
0000
0000
0000
0000
0000
,
0110
1001
0011
1001
,
0110
1001
1010
1101
,
1010
0000
0000
0000
0000
0000
1010
0000
0000
0000
0000
0000
0011
0000
0000
0000
0000
0000
0101
0000
0000
0000
0000
1100
,
0000
0000
0000
0000
0000
1100
0000
0000
0000
0000
0110
0000
0000
0000
0000
0000
0000
1011
0000
0000
0000
0000
0000
0101
,
0000
0000
0000
0000
0000
0000
0000
0000
0000
0000
1001
0000
0000
0000
0000
0000
0000
0000
0000
0000
0000
0101
0000
0000
0000
0000
0000
0000
0000
0000
0000
0000
0000
0101
0000
0000
0000
0000
0000
0000
0000
0000
0000
0000
0000
1100
0000
0000
,
0000
0000
0000
0000
0000
0000
0000
0000
0000
0000
0011
0000
0000
0000
0000
0000
0000
0000
0000
0000
0000
0110
0000
0000
0000
0000
0000
0000
0000
0000
0000
0000
0000
0111
0000
0000
0000
0000
0000
0000
0000
0000
0000
0000
0000
1010
0000
0000
,
0000
0000
0000
0000
0000
0000
0000
0000
0000
1100
0000
0000
0000
0000
0000
0000
0000
0000
1010
0000
0000
0000
0000
0000
0000
0000
0000
0000
0000
0000
0000
0000
0011
0000
0000
0000
0000
0000
0000
0000
0000
0000
0000
0000
1001
0000
0000
0000
,
0000
0000
0000
0000
1100
0000
0000
0000
0000
0110
0000
0000
0000
0000
0000
1011
0000
0000
0000
0000
0000
1100
0000
0000
,
0000
0101
0000
0011
0000
0011
0000
0110
,
0000
1010
0000
1010
0000
1110
0000
0101
,
0000
0000
0000
0000
0000
0000
1010
0000
0000
0000
0000
0000
0000
0000
0000
0000
0000
0000
1100
0000
0000
0000
0000
0000
0000
0000
0000
0000
0000
0000
1010
0000
0000
0000
0000
0000
0000
0000
0000
0000
0000
0110
0000
0000
0000
0000
0000
0000
,
0000
0000
0000
0000
0000
0000
0000
0000
0000
0000
0000
0000
0000
0000
0000
0000
0000
0000
0110
0000
0000
0000
0000
0000
0000
0000
0000
0000
0000
0000
0000
0000
0000
0000
0000
0000
0000
0000
0000
0000
0000
0000
0000
0000
0000
0000
0000
0000
0000
0000
0000
0000
0000
0000
0000
0000
0000
0000
0000
0000
0000
0000
0000
0000
0000
0000
0000
0000
1010
0000
0000
0000
0000
0000
0000
0000
0000
0000
0000
0000
0000
0000
0000
0000
0000
0000
0000
0000
0000
0000
0000
0000
0000
0000
0000
0000
0000
0000
0000
0000
0000
0000
0000
0000
0000
0000
0000
0000
0000
0000
0000
0000
1011
0000
0000
0000
0000
0000
0000
0000
0000
0000
0000
0000
0000
0000
0000
0000
0000
0000
0000
0000
0000
0000
0000
0000
0000
0000
0000
0000
0101
0000
0000
0000
0000
0000
0000
0000
0000
0000
0000
0000
0000
0000
0000
0000
0000
0000
0000
0000
1001
0000
0000
0000
0000
0000
0000
0000
0000
0000
0000
0000
0000
0000
0000
0000
0000
0000
0000
0000
0000
0000
0000
0000
0000
0000
0000
0000
0000
0000
0000
0000
,
0000
1010
0000
0000
0000
1001
0000
0000
0000
1010
0000
0000
0000
1100
0000
0000
,
0000
0000
0000
1100
0000
0000
0000
0000
0000
0000
0000
0000
0000
0000
0110
0000
0000
0000
0000
0000
0000
0000
0000
0000
0000
0000
0000
0111
0000
0000
0000
0000
0000
0000
0000
0000
0000
0000
0000
1100
0000
0000
0000
0000
0000
0000
0000
0000
,
0000
0000
0000
1001
0000
0000
0000
0000
0000
0000
0000
0000
0000
0000
0110
0000
0000
0000
0000
0000
0000
0000
0000
0000
0000
0000
1100
0000
0000
0000
0000
0000
0000
0000
0000
0000
0000
0000
1010
0000
0000
0000
0000
0000
0000
0000
0000
0000
,
0000
0000
0101
0000
0000
0000
0000
0000
0000
0000
0000
0000
0000
1010
0000
0000
0000
0000
0000
0000
0000
0000
0000
0000
0000
1101
0000
0000
0000
0000
0000
0011
0000
0000
0000
0000
1100
0000
0000
0000
0000
0000
0110
0000
0000
0000
0000
0000
,
1010
0000
0000
0000
0000
0000
0000
0000
0000
0000
0000
0000
1001
0000
0000
0000
0000
0000
0000
0000
0000
0000
0000
0000
0101
0000
0000
0000
0000
0000
0000
0000
0000
0000
0000
0000
0110
0000
0000
0000
0000
0000
0000
0000
0000
0000
0000
1010
,
0000
0000
0000
0000
0000
0000
0000
0000
0000
0000
0000
0011
0000
0000
0000
0000
0000
0000
0000
0000
0000
0000
0000
0101
0000
0000
0000
0000
0000
0101
0000
0000
0000
0000
0000
0000
0101
0000
0000
0000
0000
0000
0011
0000
0000
0000
0000
0000
,
1100
0000
0000
0000
0000
0000
0000
0000
0000
0000
0000
0101
0000
0000
0000
0000
0000
0000
0000
0000
0000
0000
0000
1100
0000
0000
0000
0000
0000
0000
0000
0000
0000
0101
0000
0000
0000
0000
0000
0000
0000
0000
0000
0000
0000
0000
0000
0110
,
0000
0000
0000
0000
0000
0000
0000
0000
0000
0000
0101
0000
0000
0000
0000
0000
0000
0000
0000
0000
0000
0000
0000
1011
0000
0000
0000
0000
0000
0000
0000
0000
0000
0000
0011
0000
0000
0000
0000
0000
0000
0000
0000
0000
0000
0000
1110
0000
,
0000
0000
0000
1010
0000
0000
0000
1101
0000
0000
0000
0101
0000
0000
0000
1101
,
0000
0000
0000
1010
0000
0000
0000
1101
0000
0000
0000
0110
0000
0000
0000
1011
,
0000
0000
0000
0110
0000
0000
0000
1110
0000
0000
0000
0101
0000
0000
0000
1011
,
0000
0000
0110
0000
0000
1110
0000
0000
0011
0000
0000
1011
,
0000
0000
0000
0000
0000
0000
0000
0000
0000
0000
0000
0000
0000
0000
0000
0000
0000
0000
0000
0000
0000
0000
0000
0000
0000
0000
0000
0000
0000
0000
0000
0000
0011
0000
0000
0000
0000
0000
0000
0000
0000
0000
0000
0000
0000
0000
0000
0000
0000
0000
0000
0000
0000
0000
0000
0000
0000
0000
0000
0000
0000
0000
0000
0000
0000
0000
0000
0000
0000
0000
0000
0000
0000
0000
0000
0000
0000
0000
0000
0000
1110
0000
0000
0000
0000
0000
0000
0000
0000
0000
0000
0000
0000
0000
0000
0000
0000
0000
0000
0000
0000
0000
0000
0000
0000
0000
0000
0000
0000
0000
0000
0000
0000
0000
0000
0000
0000
0000
0000
0000
0000
0000
0000
0000
0000
0000
0101
0000
0000
0000
0000
0000
0000
0000
0000
0000
0000
0000
0000
0000
0000
0000
0000
0000
0000
0000
0000
0000
0000
0000
0000
0000
0000
0000
0000
0000
0000
0000
0000
0000
0000
0000
0000
0000
0000
0000
0000
0000
0111
0000
0000
0000
0000
0000
0000
0000
0000
0000
0000
0000
0000
0000
0000
0000
0000
0000
0000
0000
0000
0000
0000
0000
,
0000
1100
0000
1011
0000
0011
0000
1011
,
0000
0000
0000
0000
0101
0000
0000
0000
0000
0000
0000
0000
1011
0000
0000
0000
0000
0000
0000
0000
1100
0000
0000
0000
0000
0000
0000
1101
0000
0000
0000
0000
,
0000
0000
0000
0011
0000
0000
0000
0000
0000
0000
0111
0000
0000
0000
0000
0000
0000
0000
0101
0000
0000
0000
0000
0000
0000
0000
1110
0000
0000
0000
0000
0000
,
0000
1100
0000
0000
0000
1101
0000
0000
0000
0110
0000
0000
0000
1110
0000
0000
,
0000
0101
0000
0000
0000
1011
0000
0000
0000
0011
0000
0000
0000
1011
0000
0000
,
0000
1100
0000
0000
0000
1011
0000
0000
0000
1001
0000
0010
0010
1011
0001
1100
,
1000
0000
1111
0000
0010
0001
0000
0000
0000
1111
0000
0000
0000
0000
0000
0000
0000
0101
0000
0000
0000
0000
0000
0000
1101
0000
0000
0000
0000
0000
0000
0000
,
0101
1101
0011
0111
,
0110
1101
0011
1011
,
1010
1110
0011
1110
,
0000
0000
0000
1111
0000
0000
0000
0111
0000
0000
0000
0111
0000
0000
0000
1011
,
0000
0000
0000
1011
0000
0000
0000
1101
0000
0000
0000
1101
0000
0000
0000
1110
,
0000
0000
0000
1011
0000
0000
0000
0111
0000
0000
0000
0111
0000
0000
0000
0111
,
0000
0000
0000
1110
0000
0000
0000
1110
0000
0000
0000
0000
0000
0000
0000
0000
,
0010
0001
1000
0010
1000
0010
0100
0010
0001
1000
0001
0010
0001
0010
0001
0010
0001
0100
1000
0001
0010
1000
0010
0001
0010
0001
0010
0100
0010
0100
0010
0001
0100
0001
0010
0100
1000
0010
0001
0010
0100
1000
0010
0100
0010
0001
1000
0100
0010
0001
0010
0001
0100
0010
1000
0100
0010
0001
1000
0100
0010
0001
0010
1000
,
0100
0010
0100
1000
0100
1000
0100
0001
0010
0100
1000
0100
0001
1000
0001
0100
0010
0001
0100
1000
0100
1000
0010
0100
0010
1000
0100
0010
1000
0010
0001
0100
0001
1000
0010
0100
0001
1000
0100
1000
0010
0100
0010
1000
0100
0001
0010
0100
0010
0100
0010
0001
0100
0010
0100
0001
0010
0100
0001
0010
0100
1000
0100
0010
,
1000
0001
0100
0010
0001
0010
0100
0010
1000
0010
0100
1000
0010
0001
1000
0100
0010
0001
0010
1000
0010
0001
0010
0100
0010
0100
0010
0001
0100
0010
0100
0010
0100
1000
0001
0010
0001
0100
0010
0100
0010
0100
0001
1000
0010
1000
0100
0001
0100
0001
0100
0010
0100
0010
0100
0010
0100
0001
0010
0001
0010
0100
0010
0001
,
0010
0001
0010
0100
0010
1000
0100
0010
0001
0100
1000
0010
0001
0010
0001
0010
0100
0001
0010
0001
0100
1000
0010
0100
1000
0001
1000
0100
0010
0100
0001
1000
0001
0010
0001
0010
0001
0010
0100
0001
1000
0100
1000
0010
0100
0001
0100
1000
0100
1000
0010
0001
0010
0001
0100
1000
0010
0100
0010
0001
0100
0010
1000
0010
,
0001
1000
0010
1000
0001
0010
0001
0010
0100
0010
1000
0100
1000
0001
0100
0010
1000
0100
0001
1000
0100
0010
0001
0010
0100
0010
1000
0100
0001
0010
0100
1000
0010
1000
0100
1000
0100
0100
0001
0010
0001
0100
1000
0010
0100
0010
0001
0100
1000
0010
1000
0100
0010
0100
0010
0100
0010
0001
0010
1000
0100
1000
0010
0100
,
1000
0010
0100
1000
0100
0010
1000
0100
0001
0100
0010
0001
1000
0100
0010
0001
1000
0100
0010
0100
0001
0010
0100
0001
0010
0100
0001
1000
0100
1000
0001
0100
0001
1000
0010
0100
0001
1000
0010
0100
0010
0001
1000
0100
0001
1000
0100
0001
1000
0100
1000
0100
0010
0001
1000
0001
0010
1000
0100
0001
0100
0010
0100
0001
,
0100
1000
0010
0100
0001
0100
0010
0100
0010
1000
0001
0010
0001
0010
0001
0100
0001
0100
1000
0100
0001
1000
0001
0010
0001
0010
1000
0100
0010
0100
0010
0100
0010
0100
0010
0001
1000
0010
0100
1000
0001
0010
0100
1000
0100
0010
0100
1000
0010
0001
0010
0001
0010
0100
0001
0100
1000
0010
1000
0001
0010
0100
0001
0010
,
1000
0100
1000
0100
0010
1000
0010
0100
0001
1000
0100
0010
0001
0100
0001
0100
0010
0001
0100
0010
0001
1000
0001
0010
0001
0100
0001
0100
1000
0010
0100
0010
0001
0010
0100
0001
1000
0010
0001
0010
0100
0001
0010
0100
0010
0001
0100
1000
0010
0100
0010
0001
1000
0010
0100
1000
0010
0100
0010
0100
1000
0001
1000
0100
,
0010
0001
1000
0100
0010
0100
0010
0100
1000
0010
1000
0100
0001
0100
0010
0001
0010
1000
0100
1000
0100
0010
0100
0001
0100
1000
0001
0010
0001
1000
0001
0010
0100
0001
0010
1000
0100
0010
0100
0001
0100
1000
0100
0010
0001
1000
0010
0001
0100
0001
1000
0010
0100
0010
0001
1000
0100
0010
0100
1000
0010
0001
0010
1000
,
0001
0100
1000
0010
0001
0100
0010
1000
0001
0100
1000
0010
0001
1000
0100
0010
0100
1000
0100
0001
0010
0001
0010
0100
1000
0010
1000
0010
0001
1000
0010
0100
0001
0010
0100
1000
0010
0001
0010
0100
1000
0100
0001
0100
0010
0100
0010
0100
0001
0100
0010
1000
0001
0100
1000
0010
0001
0010
0001
1000
0100
0010
0100
1000
,
0010
1000
0010
0001
0100
0010
0001
0010
0001
0100
1000
0100
0001
1000
0001
0100
1000
0010
1000
0001
0010
0001
0010
0100
0010
1000
0100
1111
0000
0000
0000
0000
0000
0000
0000
0000
0000
0000
0000
0000
0000
0000
0000
0000
0000
0000
0000
0000
0000
0000
0000
0000
0000
0000
0000
0000
0000
0000
0000
0000
0000
0000
0000
0000
;
