#TITLE:Disco Tiger;
#SUBTITLE:;
#ARTIST:Pampero;
#TITLETRANSLIT:;
#SUBTITLETRANSLIT:;
#ARTISTTRANSLIT:;
#CREDIT:;
#BANNER:Ban.png;
#BACKGROUND:techno.png;
#LYRICSPATH:;
#CDTITLE:KOMBO.png;
#MUSIC:Disco Tiger - Pampero.mp3;
#OFFSET:0.320;
#SAMPLESTART:26.980;
#SAMPLELENGTH:13.600;
#SELECTABLE:YES;
#BPMS:0.000=154.003;
#STOPS:;
#BGCHANGES:;
// cache tags:
#FIRSTBEAT:8.000;
#LASTBEAT:239.000;
#SONGFILENAME:Songs/Definitive Keyboard Megapack/Disco Tiger [KOMBO]/Disco Tiger.sm;
#HASMUSIC:1;
#HASBANNER:1;
#MUSICLENGTH:96.574;
// end cache tags

//---------------dance-single - ----------------
#NOTES:
     dance-single:
     :
     Hard:
     12:
     1.000,1.000,1.000,0.642,1.000,702.000,157.000,62.000,0.000,42.000:

0000
0000
0000
0000
,
0000
0000
0000
0000
,
0011
0100
0001
1000
0101
0000
0100
0000
1100
0010
1000
0001
2000
0000
0000
0000
,
3011
1000
0100
1000
0101
0000
0010
0000
1100
0010
0001
0000
2000
0000
0000
0000
,
3101
0010
0100
0010
1100
0000
0010
0000
1100
0001
0010
0001
1020
0000
0000
0000
,
1130
0000
0000
0001
0000
0000
0100
0000
0000
1000
0000
0000
0100
0000
0000
0000
0000
0000
2000
0000
0000
0000
0000
0000
3202
0000
0000
0000
0000
0000
2323
0000
0000
0000
0000
0000
3232
0000
0000
0000
0000
0000
2323
0000
0000
0000
0000
3030
,
1100
0010
1000
0001
1010
0000
0010
0000
0011
0100
0001
1000
0002
0000
0000
0000
,
1103
0001
0010
0001
1010
0000
0100
0000
0011
0100
1000
0000
0002
0000
0000
0000
,
1013
0100
0010
0100
0011
0000
0100
0000
0011
1000
0100
1000
0201
0000
0000
0000
,
0311
1000
0010
0001
0010
0000
0001
0000
0010
0100
0010
0100
0010
0100
0010
0100
,
0011
0100
0001
1000
0101
0000
0100
0000
1100
0010
1000
0001
2000
0000
0000
0000
,
3011
1000
0100
1000
0101
0000
0010
0000
1100
0010
0001
0000
2000
0000
0000
0000
,
3101
0010
0100
0010
1100
0000
0010
0000
1100
0001
0010
0001
1020
0000
0000
0000
,
1130
0000
0000
0001
0000
0000
0100
0000
0000
1000
0000
0000
0100
0000
0000
0000
0000
0000
2000
0000
0000
0000
0000
0000
3202
0000
0000
0000
0000
0000
2323
0000
0000
0000
0000
0000
3232
0000
0000
0000
0000
0000
2323
0000
0000
0000
0000
3030
,
1100
0010
1000
0001
1010
0000
0010
0000
0011
0100
0001
1000
0002
0000
0000
0000
,
1103
0010
1000
0100
1010
0000
0100
0000
0011
0100
1000
0000
0002
0000
0000
0000
,
1013
0100
0010
0100
0011
0000
0100
0000
0011
1000
0100
1000
0201
0000
0000
0000
,
0311
1000
0010
0001
0010
0000
0001
0000
0100
0010
0100
0010
0100
0010
0100
0010
,
1100
0010
0001
0100
0011
0000
0010
0000
0101
1000
0100
0010
0200
0000
0000
0000
,
1310
0100
0001
0100
0011
0000
1000
0000
0101
1000
0010
0000
0200
0000
0000
0000
,
0311
1000
0001
1000
0101
0000
1000
0000
0101
0010
1000
0010
2100
0000
0000
0000
,
3101
0000
0000
0010
0000
0000
0001
0000
0000
0100
0000
0000
0001
0000
0000
0000
0000
0000
0200
0000
0000
0000
0000
0000
0322
0000
0000
0000
0000
0000
2233
0000
0000
0000
0000
0000
3322
0000
0000
0000
0000
0000
2233
0000
0000
0000
0000
3300
,
0101
1000
0100
0010
1100
0000
1000
0000
1010
0001
0010
0100
0020
0000
0000
0000
,
0131
0010
1000
0010
1100
0000
0001
0000
1010
0001
0100
0000
0020
0000
0000
0000
,
1130
0001
1000
0001
1010
0000
0001
0000
1010
0100
0001
0100
0012
0000
0000
0000
,
1013
0100
1000
0010
1000
0000
0001
0000
1000
0001
1000
0001
1000
0001
1000
0001
,
1010
0100
1000
0100
1001
0100
0010
0100
1001
0100
0010
0001
1010
0100
0010
0100
,
1010
0100
0001
0010
1100
0010
0100
1000
0011
1000
0100
0010
0101
0010
0100
0010
,
1100
0010
0001
0100
1001
0100
0010
0100
0011
1000
0100
0010
1001
0100
0010
0100
,
1001
0010
0100
1000
0101
0010
0001
0010
0101
1000
0010
1000
0011
0100
0001
0010
,
1100
0001
0010
0100
0011
0100
1000
0100
0011
0100
0010
0001
1010
0100
1000
0100
,
0011
0100
0010
0001
1010
0100
1000
0010
1001
0010
0100
1000
0011
1000
0100
0010
,
1100
0010
0001
0010
1100
0010
0100
0001
1010
0100
1000
0010
0101
1000
0010
0100
,
1010
0000
0100
0000
1000
0000
0010
0000
0101
0000
1000
0000
0010
0000
0100
0000
1010
0000
0100
0000
0010
0000
0100
0000
0010
0000
0100
0000
1000
0100
0010
0001
,
1110
0000
1000
0100
1000
0100
0000
0000
0010
0100
0010
0100
0000
0000
0000
0000
,
0000
0000
0001
0010
0001
0010
0000
0000
0100
1000
0100
1000
0000
0000
0000
0000
,
0000
0000
0010
1000
0010
1000
0000
0000
0010
0100
0010
0100
0000
0000
0000
0000
,
0000
0000
0100
0010
0100
0010
0000
0000
0010
0100
0010
0100
0000
0000
0000
0000
,
0000
0000
0100
0010
0001
0010
0000
0000
0100
1000
0100
0010
0000
0000
0000
0000
,
0000
0000
0001
0010
0100
0010
0000
0000
1000
0100
0010
0100
0000
0000
0000
0000
,
0000
0000
0001
1000
0100
0010
0000
0000
1000
0001
0010
0100
0000
0000
0000
0000
,
0000
0000
0010
0100
0010
0001
0000
0000
0100
1000
0100
1000
0100
1000
0100
1000
,
0111
0000
0100
0001
1010
0100
0000
0000
1001
0010
0100
1000
0201
0000
0000
0000
,
1301
0000
0100
0010
1100
0010
0000
0000
1001
0100
0010
1000
0021
0000
0000
0000
,
0131
0000
0000
0000
0010
0000
0100
0000
1010
0000
0001
0000
0000
0000
0000
0000
0101
0000
0010
0000
1000
0000
0010
0000
1000
0100
0010
0001
0010
0100
1000
0100
,
0010
0000
0010
0100
1001
0010
0000
0000
0101
0010
0100
0001
1220
0000
0000
0000
,
0331
0000
0010
1000
0110
0001
0000
0000
1010
0100
0010
1000
0221
0000
0000
0000
,
1330
0000
0100
0010
1001
0100
0000
0000
0011
0100
1000
0001
2210
0000
0000
0000
,
3301
0000
0010
1000
0110
1000
0000
0000
0011
1000
0100
0001
2120
0000
0000
0000
,
3031
0000
0000
0000
0100
0000
0001
0000
1010
0000
0100
0000
0000
0000
0000
0000
1100
0000
0010
0000
0100
0000
1000
0000
0011
0000
0000
0000
0001
0100
0010
1000
,
0110
0001
0010
0100
0010
0100
0010
0100
0010
0001
0010
0100
1000
0100
0010
0100
,
1000
0000
0100
0000
1000
0000
0100
0000
0010
0000
0100
0000
0010
0000
0100
0000
0001
0000
0010
0000
0100
0000
0010
0000
0100
0000
0010
0000
0100
1000
0001
0010
,
1100
0010
0100
0010
0100
1000
0100
0010
0001
0010
0001
0010
0100
0010
0100
0010
,
0100
0000
0001
0000
0100
0000
0001
0000
0100
0000
0010
0000
1000
0000
0010
0000
1000
0000
0010
0000
1000
0000
0010
0000
0100
0000
0001
0000
1000
0100
0001
0010
,
1100
0110
1001
0110
1010
0110
0101
0110
,
1001
1010
0110
0101
1010
0110
0101
0011
,
0001
0010
0100
1000
0100
0010
0001
0010
0100
0010
1000
0100
0010
0100
0010
0100
1000
0100
0010
0001
0010
0100
1000
0100
,
0010
0000
0000
0000
0000
0000
0000
0000
0001
0000
0000
0000
0000
0000
0000
0000
0010
0000
0000
0000
0000
0000
0000
0000
0100
0000
0000
0000
0000
0000
0000
0000
1000
0000
0000
0000
0000
0000
0000
0000
0100
0000
0000
0000
0000
0000
0000
0000
0010
0000
0000
0000
0000
0000
0000
0000
0100
0000
0000
0000
0000
0000
0000
0000
0010
0000
0000
0000
0000
0000
0000
0000
0001
0000
0000
0000
0000
0000
0000
0000
0010
0000
0000
0000
0000
0000
0000
0000
0100
0000
0000
0000
0000
0000
0000
0000
1000
0000
0000
0000
0000
0000
0000
0000
0100
0000
0000
0000
0000
0000
0000
0000
0010
0000
0000
0000
0000
0000
0000
0000
0100
0000
0000
0000
0000
0000
0000
0000
1000
0000
0000
0000
0000
0000
0000
0000
0100
0000
0000
0000
0000
0000
0000
0000
1000
0000
0000
0000
0000
0000
0100
0000
0000
0000
0000
0000
0010
0000
0000
0000
0000
0000
0001
0000
0000
0000
0000
0000
1000
0000
0000
0000
0000
0000
0100
0000
0000
0000
0000
0000
0010
0000
0000
0000
0000
0000
0001
0000
0000
0000
0000
0000
,
2200
3300
0000
0000
0220
0330
0000
0000
,
2200
0000
0000
0000
3300
0000
0000
0000
0001
0100
0010
1000
0001
0100
0010
1000
0001
0100
0020
0000
0000
0000
0000
0000
0030
0000
0000
0000
0000
0000
0000
0000
;
