#TITLE:oblivious;
#SUBTITLE:Kara no Kyoukai 1st chapter Theme;
#ARTIST:Kalafina;
#TITLETRANSLIT:;
#SUBTITLETRANSLIT:;
#ARTISTTRANSLIT:;
#CREDIT:ALICE_;
#BANNER:oblivious.png;
#BACKGROUND:Oblivious.jpg;
#LYRICSPATH:;
#CDTITLE:cdtitle.png;
#MUSIC:oblivious.mp3;
#OFFSET:-0.430;
#SAMPLESTART:204.720;
#SAMPLELENGTH:12.000;
#SELECTABLE:YES;
#BPMS:0.000=125.000;
#STOPS:;
#BGCHANGES:;
// cache tags:
#FIRSTBEAT:0.000;
#LASTBEAT:532.000;
#SONGFILENAME:Songs/alice 4th complete step/oblivious/oblivious.sm;
#HASMUSIC:1;
#HASBANNER:1;
#MUSICLENGTH:263.036;
// end cache tags

//---------------dance-single - ----------------
#NOTES:
     dance-single:
     :
     Challenge:
     15:
     1.000,1.000,0.890,0.186,1.000,1629.000,234.000,49.000,0.000,22.000:
2002
0000
3203
0000
,
2320
0000
0032
0000
,
3223
0000
0000
0030
0002
0000
0000
0300
,
2000
0000
0000
0003
0020
0000
0000
3030
,
0202
0000
0000
2300
0000
0000
0000
3003
,
2020
0000
0000
0032
0000
0000
3203
0000
,
0320
0000
0000
2000
0000
0000
0032
0000
,
3023
0000
0230
0320
,
1031
0000
0100
0000
0010
0000
0001
0000
1000
0100
1000
0010
1000
0100
1000
0010
,
0100
0000
0001
0000
1000
0000
0010
0000
1000
0100
0010
0001
0001
0010
0100
1000
,
0010
0001
1000
0010
0100
0001
1000
0100
,
0010
0000
0001
0000
1000
0000
0010
0000
1000
0100
0010
0001
0001
0010
0100
1000
,
0011
0000
0100
0000
0001
0000
1000
0000
0010
0001
0010
0100
0010
0001
0010
0100
,
1000
0000
0001
0000
0100
0000
0010
0000
0001
0100
0010
1000
1000
0010
0100
0001
,
1000
0100
0001
0100
1000
0010
0001
0100
,
1002
0000
0100
1000
0000
0100
0010
0000
1000
0100
1003
0000
0101
0000
1010
0000
,
1001
0000
0100
1000
0011
0000
0100
0000
1010
0100
0001
0010
1001
0100
0010
0100
,
1001
0000
0010
0001
1100
0000
0010
0000
0101
1000
0010
0100
0001
1000
0010
0100
,
1001
0000
0100
0011
1000
0000
0110
0000
1000
0100
0001
0100
1000
0010
0001
0010
,
0101
0000
0001
1100
0010
0000
1001
0000
0100
1000
0010
0001
0110
1000
0001
0010
,
0101
0000
1000
0010
0101
0010
1000
0000
0011
1000
0100
0010
0010
0100
1000
0100
,
1010
0000
0001
0100
1010
0100
0001
0000
1002
0100
0010
0100
2003
0000
0010
0000
,
3220
0000
0000
0000
,
0000
0000
0000
0000
0000
0330
0000
0100
0010
0100
0010
0100
0000
1000
0001
0100
,
1001
0010
0100
0001
1000
0100
0010
0100
1000
0010
0001
0010
0100
0001
1000
0010
,
0100
1000
0100
0010
1000
0001
0100
0010
1000
0001
0010
0001
0100
1000
0010
0001
,
1000
0100
1000
0010
1000
0100
0010
0001
0100
0010
1000
0010
0001
1000
0010
0100
,
1000
0001
0100
0010
1000
0100
0010
1000
0001
0010
0001
1000
0010
0100
0010
1000
,
0100
0001
0010
1000
0001
0010
0001
0100
1000
0010
0001
0100
0001
1000
0100
0010
,
1000
0100
1000
0001
0100
0010
1000
0001
0010
0100
1000
0100
0001
0010
0100
0010
,
1000
0001
0100
0001
1000
0001
0100
1000
0010
0100
0001
0010
1000
0001
0100
0010
,
1000
0000
0001
0000
1000
0000
0001
0000
0010
0000
0001
0000
0100
0000
0010
0000
1001
0100
0000
0000
0000
0000
0000
0000
1010
0101
0000
0000
0000
0000
0000
0000
,
1001
0010
0100
0001
1010
0100
0001
1000
0010
0001
0010
0100
0010
0001
0010
1000
,
0100
0001
0100
0001
0100
0010
0100
0010
1000
0100
1000
0010
0100
0001
1000
0010
,
1100
0001
1000
0100
1001
0100
0010
1000
0001
0100
0001
0010
0100
1000
0010
1000
,
0100
0001
0100
1000
0010
1000
0100
0010
0001
0100
0010
1000
0001
0010
0100
1000
,
0011
0100
0001
1000
0110
1000
0001
0010
0100
1000
0100
0001
0100
1000
0100
0010
,
1000
0001
0100
0001
0010
0001
1000
0010
0001
0010
1000
0001
0100
0010
1000
0100
,
1001
0010
0100
0001
1010
0100
0001
1000
0010
0001
0010
0100
0001
1000
0010
0100
,
1000
0001
1000
0001
0100
0001
0100
0001
1000
0010
0100
0001
1000
0100
0010
0100
,
1001
0000
0010
0010
1100
0000
0010
0000
0101
1000
0001
0100
1001
0100
0001
1000
,
0011
0100
0001
0100
0010
1000
0001
1000
0100
0010
0100
0010
1000
0100
0001
0100
,
1000
0010
0101
1000
0010
0001
1000
0010
0001
1000
0010
0001
1000
0010
0001
1000
,
0010
0001
1000
0010
0001
1000
0010
1000
0100
1000
0010
0100
0001
1000
0001
0010
,
1100
0000
0010
0000
0101
0000
0010
0000
1000
0100
0001
0010
1000
0001
0010
0100
,
0001
0010
1000
0001
0010
0100
0001
0010
1000
0001
0010
0100
0001
1000
0100
1000
,
0010
0100
0010
0100
0011
1000
0001
0100
0010
1000
0001
0100
0001
0010
0100
1000
,
0010
0001
0001
0010
0100
0001
1000
0010
0100
0001
0100
0001
1000
0010
1000
0001
,
1001
0000
0100
0010
1010
0000
0100
0000
1001
0100
1000
0100
0010
1000
0001
0100
,
0010
0001
0010
0100
0001
1000
0010
0100
0001
1000
0100
1000
0010
0001
0100
1000
,
0101
0000
0010
0001
0101
0000
0010
0000
1001
0100
0010
0100
1000
0001
0100
0010
,
0001
1000
0010
0100
0001
0010
0100
0001
1000
0100
1000
0001
0100
0010
0100
0001
,
1010
0000
0100
0011
1000
0000
0101
0000
1001
0100
1000
0010
0100
0001
0010
0100
,
0001
0010
0001
1000
0010
0100
0001
1000
0100
0010
0001
0010
1000
0100
0010
0100
,
1001
0000
0010
1100
0001
0000
1010
0000
0110
0001
1000
0100
0010
1000
0010
0100
,
0001
0000
1000
0000
0001
0000
1000
0000
0100
0000
1000
0000
0010
0000
0100
0000
1001
0010
0000
0000
0000
0000
0000
0000
0101
1010
0000
0000
0000
0000
0000
0000
,
1001
0100
0010
1000
0101
0010
1000
0001
0100
1000
0100
0010
0101
1000
0100
0001
,
0010
1000
0010
1000
0011
0100
0010
0100
1001
0010
0001
0100
0010
1000
0001
0100
,
0011
1000
0001
0010
1001
0010
0100
0001
1100
0010
1000
0100
1010
0001
0100
0001
,
0010
1000
0010
0001
0100
0001
0010
0100
1001
0010
0100
0001
1001
0100
0010
0001
,
1100
0010
1000
0001
0110
0001
1000
0100
1010
0001
0010
0100
1000
0010
0001
0010
,
0101
1000
0010
1000
0100
1000
0001
0100
1000
0100
0001
1000
0010
0100
0001
0010
,
1001
0100
0010
1000
0101
0010
1000
0001
0110
1000
0100
0010
1100
0001
0100
0010
,
0101
1000
0001
1000
0110
1000
0010
1000
0001
0100
0010
1000
0001
0010
0100
0010
,
1001
0000
0000
0000
,
0100
0000
0000
0000
,
0010
0000
0000
0000
,
0001
0000
0000
0000
,
1000
0000
0001
0001
0100
0000
0001
0000
1000
0100
1000
0010
1000
0100
1000
0010
,
0100
0000
0001
0001
1000
0000
0010
0000
0001
0100
0001
0010
0001
0100
0001
0010
,
0001
0000
1000
1000
0010
0000
0100
0000
1000
0100
0001
1000
0001
0100
1000
0001
,
0100
0000
0010
0010
1000
0000
0001
0000
0100
0010
0001
1000
0010
0100
0001
0010
,
2100
0000
0010
0001
0000
0100
0001
3000
0100
1000
0100
0010
1000
0001
0100
0010
,
1002
0000
0100
1000
0000
0010
1000
0003
0100
0010
0001
0010
0001
1000
0010
0100
,
1001
0000
0100
0010
0000
1000
0010
0000
0100
0001
1000
0100
0001
1000
0010
0100
,
1001
0000
0001
0010
0000
0100
0010
0000
1000
0001
0010
0100
0001
1000
0100
0010
,
1002
0000
0100
0010
0000
1000
0013
0000
1000
0100
0001
0100
1000
0010
0001
0010
,
2100
0000
0001
0010
0000
0001
3100
0000
0001
0010
1000
0010
0001
0100
1000
0100
,
2010
0000
0001
0100
0000
0001
3010
0000
0100
1000
0001
0010
1000
0001
0100
0010
,
1002
0000
0000
0000
0100
0000
0010
0000
0000
0000
1000
0000
0013
0000
0100
0010
0100
0000
1000
0000
0001
0000
0100
0000
0010
0000
1000
0000
1000
0000
0010
0000
,
0101
1000
0111
1000
1001
0000
1011
0000
,
1100
0000
0001
0000
1110
0000
0001
0000
0110
0000
0000
1010
0000
0000
0101
0000
,
1001
0010
1100
0010
0101
0000
1100
0000
,
1001
0000
0100
0000
0011
0000
0100
0000
1010
0000
0000
0011
0000
0000
1100
0000
,
1001
0010
1101
0010
0101
0000
1100
0000
,
1001
0000
0100
0000
1011
0000
0100
0000
1010
0000
0000
0011
0000
0000
0110
0000
,
1001
0100
1011
0100
0110
0000
0101
0000
,
1100
0000
0010
0000
1101
0000
0110
0000
1001
0000
0000
0110
0000
0000
1001
0000
,
1100
0000
0010
1000
0101
0000
0010
0000
1001
0000
0100
0001
1010
0000
0100
0000
,
0011
0000
0100
1000
0110
0000
1000
0000
0101
0010
1000
0100
0010
0100
0010
0100
,
0001
0000
0000
1000
0000
0000
0001
0000
0000
1000
0000
0000
0100
0000
0000
1000
0000
0000
0001
0000
0000
1000
0000
0000
0010
0000
0000
0100
0000
0000
0010
0000
0000
0100
0000
0000
0001
0000
1000
0000
0001
0000
1000
0000
0001
0000
1000
0000
,
0110
0000
0000
1000
0000
0000
0001
0000
0000
0100
0000
0000
0010
0000
0000
1000
0000
0000
0001
0000
0000
0100
0000
0000
0010
0000
0000
1000
0000
0000
0100
0000
0000
0010
0000
0000
0001
0000
0010
0000
0100
0000
0001
0000
0010
0000
0100
0000
,
1000
0000
0000
0001
0000
0000
0010
0000
0000
0001
0000
0000
1100
0000
0000
0001
0000
0000
0010
0000
0000
0100
0000
0000
0001
0000
0000
0010
0000
0000
1000
0000
0000
0100
0000
0000
0001
0000
1000
0000
0010
0000
0100
0000
1000
0000
0010
0000
,
0200
0000
0000
0000
0000
0000
0301
0000
0000
0010
0000
0000
1000
0000
0000
0001
0000
0000
0220
0000
0000
0300
0000
0000
1030
0000
0000
0100
0000
0000
1000
0000
0000
0010
0000
0000
0001
0000
0010
0000
0001
0000
0100
0000
0010
0000
0100
0000
,
0001
0000
1000
0100
0010
0001
0100
0010
1000
0001
0100
0010
1000
0000
0200
0000
0000
0000
1300
0000
0012
0000
0000
0000
0103
0000
0001
0000
0010
0000
1000
0000
,
0120
0000
0000
0000
0000
0000
0000
0000
0000
0000
0000
0000
0000
0000
0000
0000
0000
0000
0000
0000
0000
0000
0000
0000
0130
0000
0000
0000
0000
0000
0000
0000
0000
0000
0000
0000
1000
0000
0000
0000
0000
0000
0000
0000
0000
0000
0000
0000
0010
0000
0000
0000
0000
0000
0000
0000
0000
0000
0000
0000
0001
0000
0000
0000
0000
0000
0000
0000
0000
0000
0000
0000
0100
0000
0000
0000
0000
0000
0000
0000
0000
0000
0000
0000
0010
0000
0000
0000
0000
0000
0000
0000
0000
0000
0000
0000
1000
0000
0000
0000
0000
0000
0000
0000
0100
0000
0000
0000
0000
0000
0000
0000
0010
0000
0000
0000
0000
0000
0000
0000
1000
0000
0000
0000
0000
0000
0000
0000
0100
0000
0000
0000
0000
0000
0000
0000
0010
0000
0000
0000
0000
0000
0000
0000
1000
0000
0000
0000
0000
0000
0100
0000
0000
0000
0000
0000
0010
0000
0000
0000
0000
0000
0001
0000
0000
0000
0000
0000
1000
0000
0000
0000
0000
0000
0100
0000
0000
0000
0000
0000
0010
0000
0000
0000
0000
0000
0001
0000
0000
0000
0000
0000
,
0200
0000
0000
0000
0000
0000
0010
0000
0000
0010
0000
0000
1001
0000
0000
0000
0000
0000
0010
0000
0000
0000
0000
0000
1000
0000
0000
0000
0000
0000
0010
0000
0000
0300
0000
0000
0001
0000
1000
0000
0010
0000
1000
0000
0010
0000
0100
0000
,
0001
0000
1000
0000
0010
0000
1010
0000
0100
0000
1000
0000
0001
0000
1000
0000
0100
0000
0010
0000
0010
1000
0100
0000
0001
0000
1000
0000
0021
0000
0000
0000
,
0132
0000
0000
0000
1003
0000
1100
0000
0011
0000
0000
0000
0100
0000
0010
0000
1000
0000
0001
0010
0100
0000
1000
0000
0001
0000
0100
0000
0010
0000
1000
0000
,
0001
0010
1000
0010
0100
1000
0001
0100
1000
0010
1000
0001
1000
0100
1000
0010
,
1001
0100
0010
1000
0011
0100
1000
0010
0100
1000
0001
1000
0010
1000
0100
0010
,
0001
0000
1000
0000
0010
0000
0100
0001
2000
0000
0000
0000
0010
0000
0000
0000
0101
0000
0000
0000
0010
0000
0000
0000
0011
0000
0000
0000
3100
0000
0000
0000
,
0220
0000
0000
0000
,
0330
0000
0000
0000
,
0000
0000
0000
0000
,
0000
0000
0000
0000
,
0000
0000
0000
0000
0000
0000
0000
0000
0000
0000
0000
0000
0000
0000
0000
0000
0101
0010
0000
0000
0000
0000
0000
0000
1010
0101
0000
0000
0000
0000
0000
0000
,
1001
0010
0100
0001
1010
0100
0001
1000
0110
0001
0010
0100
1010
0001
0010
1000
,
0110
0001
0100
0001
1100
0010
0100
0010
1001
0100
1000
0010
0100
0001
1000
0010
,
1100
0001
1000
0100
1001
0100
0010
1000
0001
0100
0001
0010
0100
1000
0010
1000
,
0100
0001
0100
1000
0010
1000
0100
0010
0001
0100
0010
1000
0001
0010
0100
1000
,
0011
0100
0001
1000
0110
1000
0001
0010
0101
1000
0100
0001
0110
1000
0100
0010
,
1100
0001
0100
0001
0110
0001
1000
0010
0101
0010
1000
0001
1100
0010
1000
0100
,
1001
0010
0100
0001
1010
0100
0001
1000
0110
0001
0010
0100
1001
0100
0010
1000
,
0101
0000
0001
0000
1000
0000
0001
0000
0010
0000
0001
0000
0100
0000
0001
0000
1010
0101
0000
0000
0000
0000
0000
0000
1001
0110
0000
0000
0000
0000
0000
0000
,
1001
0100
0010
1000
0101
0010
1000
0001
0110
1000
0100
0010
0101
1000
0100
0001
,
1010
0100
0010
1000
0011
0100
0010
0100
1001
0010
0001
0100
0011
1000
0001
0100
,
1010
0100
0001
0010
1001
0010
0100
0001
1100
0010
1000
0100
1010
0001
0100
0001
,
0110
1000
0010
0001
1100
0001
0010
0100
1001
0010
0100
0001
1001
0100
0010
0100
,
1100
0010
1000
0001
0110
0001
1000
0100
1010
0001
0010
0100
1001
0010
0001
0100
,
0101
1000
0010
1000
0110
1000
0001
0100
1010
0100
0001
1000
0110
0100
0001
0010
,
1001
0100
0010
1000
0101
0010
1000
0001
0110
1000
0100
0010
1100
0001
0100
0010
,
0101
0000
1000
0000
0001
0000
1000
0000
0110
0000
1000
0000
0010
0000
1000
0100
1000
0000
0010
0000
0100
0000
0001
0000
1000
0000
0010
0000
0001
0000
0100
0000
,
1001
0000
0010
1000
0101
0000
0010
0000
0100
1000
0010
0001
0100
0010
1000
0100
,
0011
1000
0001
1000
0110
0001
1000
0100
0001
1000
0100
0010
0001
0010
0100
1000
,
0011
0100
0001
1000
1100
0010
0001
1000
0100
0010
0100
1000
0010
0001
0010
0100
,
1010
0001
0010
0001
1100
0001
0100
0010
1000
0100
0001
0100
1000
0010
0100
0010
,
0101
0000
0000
0000
0000
0000
1000
0000
0000
0010
0000
0000
1001
0000
0000
0100
0000
0000
0010
0000
0000
1000
0000
0000
0101
0000
0000
0010
0000
0000
0001
0000
0000
0010
0000
0000
1100
0000
0010
0000
0001
0000
0100
0000
0000
0010
0000
0000
,
1000
0000
0000
0000
0000
0000
0000
0000
0100
0000
0000
0000
0000
0000
0000
0000
0001
0000
0000
0000
0000
0000
0000
0000
1000
0000
0000
0000
0000
0000
0000
0000
0100
0000
0000
0000
0000
0000
0000
0000
0010
0000
0000
0000
0000
0000
0000
0000
1000
0000
0000
0000
0000
0000
0000
0000
0100
0000
0000
0000
0000
0000
0000
0000
0010
0000
0000
0000
0000
0000
0000
0000
0001
0000
0000
0000
0000
0000
0000
0000
0100
0000
0000
0000
0000
0000
0000
0000
0010
0000
0000
0000
0000
0000
0000
0000
0100
0000
0000
0000
0000
0000
0000
0000
0000
0000
0000
0000
0001
0000
0000
0000
0000
0000
1000
0000
0000
0000
0000
0000
0001
0000
0000
0000
0000
0000
1000
0000
0000
0000
0000
0000
0001
0000
0000
0000
0000
0000
0000
0000
0000
0000
0000
0000
0100
0000
0000
0000
0000
0000
0000
0000
0000
0000
0000
0000
0010
0000
0000
0000
0000
0000
0000
0000
0000
0000
0000
0000
1000
0000
0000
0000
0000
0000
0000
0000
0000
0000
0000
0000
0100
0000
0000
0000
0000
0000
0000
0000
0000
0000
0000
0000
,
0011
1000
0001
1000
0110
1000
0010
0100
0010
0001
0010
1000
0100
0001
0100
1000
,
0100
0010
1000
0001
0100
0010
1000
0010
0001
0100
0001
0100
1010
0100
0001
1000
,
2002
0000
0000
0000
,
0000
0000
0000
0000
,
3003
0000
0000
0000
;
