#TITLE:Of course you Need and nEed and neEd and neeD and NEED ME;
#SUBTITLE:;
#ARTIST:t+pazolite;
#TITLETRANSLIT:;
#SUBTITLETRANSLIT:;
#ARTISTTRANSLIT:;
#CREDIT:;
#BANNER:../fallback - bn.png;
#BACKGROUND:../fallback - bg.png;
#LYRICSPATH:;
#CDTITLE:;
#MUSIC:Of course you Need and nEed and neEd and neeD and NEED ME.ogg;
#OFFSET:0.140;
#SAMPLESTART:44.058;
#SAMPLELENGTH:12.000;
#SELECTABLE:YES;
#BPMS:0.000=240.000;
#STOPS:;
#BGCHANGES:;
// cache tags:
#FIRSTBEAT:1.000;
#LASTBEAT:557.000;
#SONGFILENAME:Songs/Beast Aoreo BEAST!/Of course you Need and nEed and neEd and neeD and NEED ME - [Aoreo]/Of Course.sm;
#HASMUSIC:1;
#HASBANNER:1;
#MUSICLENGTH:142.535;
// end cache tags

//---------------dance-single - J. Nero----------------
#NOTES:
     dance-single:
     J. Nero:
     Challenge:
     16:
     1.000,1.000,0.842,0.112,0.902,1070.000,120.000,16.000,2.000,1.000:
0000
0000
0000
0000
1001
0000
0001
0000
1000
0000
0001
1000
0001
0000
1000
0000
,
0001
0000
0010
0000
0100
0000
1000
0000
0010
0000
1000
0010
1000
0000
0010
0000
,
0200
0000
0301
0000
0010
0000
0100
0000
1000
0000
0010
0100
0010
0000
0100
0000
,
0001
0000
0010
0000
0100
0000
1000
0000
0001
0000
0100
0001
0100
0000
0001
0000
,
0101
0000
0000
0000
1010
0000
0000
0000
1000
0000
0100
0010
0001
0000
0010
0000
,
0001
0000
0100
0000
0010
0000
1000
0000
0100
0000
1000
0001
1000
0000
0001
0000
,
0200
0000
0310
0000
0100
0000
0001
0000
0010
0000
0100
1000
0100
0000
1000
0000
,
0010
0100
0001
0010
0100
1000
1100
0000
,
0100
0000
0110
0010
0001
0100
0010
1000
,
0001
1000
0100
1000
0001
0100
0001
1000
,
0100
1000
0100
1000
0100
1000
0100
1000
0100
0010
0100
0010
0001
0010
0001
0010
,
0001
0100
0001
0100
0001
0100
0010
1000
0010
1000
0010
1000
0010
1000
0010
1000
,
0100
1000
0100
1000
0100
0010
0001
1000
0100
0010
0001
0010
0100
1000
0100
1000
,
0100
1000
0001
1000
0001
1000
0001
0100
0001
0100
0001
0100
0001
1000
0001
1000
,
0001
0010
0001
0010
0100
1000
0010
1000
0010
1000
0010
1000
0010
1000
0010
1000
,
0100
1000
0100
1000
0100
1000
0100
0010
0001
1000
0100
0010
0001
1000
0100
0010
,
0001
1000
0100
0010
0001
0000
0000
0000
0011
0000
0000
0000
1100
0000
0000
0000
,
1010
0000
0000
0000
0110
0000
0000
0000
0101
0000
0000
0000
0001
1000
0001
0000
,
1001
0000
1000
0000
1100
0000
0000
0000
0100
0000
0000
0000
1000
0010
1000
0000
,
0010
0000
0100
0000
0001
0000
0000
0000
1001
0000
0000
0000
0100
0001
0100
0000
,
0101
0000
0001
0000
1001
0000
0000
0000
1100
0000
0000
0000
1000
0010
1000
0000
,
0010
0000
0100
0000
0101
0000
0000
0000
1001
0000
0000
0000
1000
0100
1000
0000
,
1001
0000
0000
0000
0101
0000
0000
0000
0110
0000
0000
0000
0010
1000
0010
0000
,
1000
0000
0001
0000
0011
0000
0000
0000
0110
0000
0000
0000
0100
1000
0100
0000
,
1000
0000
0010
0000
0110
0000
0000
0000
0101
0000
0000
0000
0001
1000
0001
0000
,
1000
0100
1000
0000
0010
0000
0000
0000
0100
0000
0001
0000
1000
0100
1000
0000
,
0002
0000
2003
0000
3101
0000
0000
0000
0110
0000
0000
0000
0010
1000
0010
0000
,
1000
0001
1000
0000
0001
0000
0000
0000
0101
0000
0000
0000
0100
0010
1000
0000
,
0010
0000
1000
0000
1001
0000
0000
0000
0011
0000
0000
0000
0010
0100
0010
0000
,
0100
1000
0100
0000
1000
0000
0100
0000
0010
0000
0001
0000
0100
0001
0100
0000
,
0101
0000
0000
0000
1001
0000
0000
0000
1010
0000
0000
0000
0010
0100
0010
0000
,
0100
0001
0100
0000
0001
0000
0010
0000
0100
0000
1000
0000
1010
0000
0000
0000
,
0110
0000
0100
0001
0010
0100
1000
0010
,
0100
0001
1000
0100
1000
0010
0110
0000
,
0101
0000
0001
0010
0100
1000
0010
0100
,
0001
0000
1000
0000
0100
0000
1000
0001
1000
0000
0001
0000
0100
0001
0100
0000
,
0101
0000
0001
0010
0100
1000
0100
1000
,
0010
0100
0101
0000
1001
0000
1100
0000
,
1001
0001
0101
0100
0010
1000
0001
0100
,
0001
1000
0001
1000
0001
0000
0100
0000
0001
0000
0010
0000
0200
0000
2300
0000
,
3000
0010
0110
0100
0010
1000
0001
0010
,
0100
1000
0001
0100
0010
1000
1010
0000
,
0101
0000
0001
0100
0010
1000
0100
1000
,
0001
0000
0100
0000
0010
0000
0100
0001
0100
0000
0001
0000
1000
0001
1000
0001
,
1000
0100
1000
0100
1000
0100
0010
0001
0010
0001
0010
0001
0010
0100
1000
0001
,
1000
0001
1000
0001
1000
0100
0010
0001
0010
0100
1000
0010
1000
0010
0100
0001
,
0100
0001
1000
0001
1000
0010
0100
0001
0010
0100
1000
0100
1000
0001
0100
0001
,
0100
0001
0010
0100
1000
0001
1000
0001
1000
0001
1000
0001
1000
0001
1000
0001
,
1000
0001
1000
0001
2000
0000
0000
0000
0000
0000
0000
0000
0000
0000
0000
0000
,
0000
0000
0000
0000
,
0000
0000
0000
0000
,
0000
0000
0000
0000
,
0000
3020
0000
0000
,
0000
0000
0000
0000
,
0000
0230
0000
0000
,
0000
0000
0000
0000
,
0000
0302
0000
0000
,
0000
0000
0000
0000
,
0000
0000
0000
0000
,
0000
0000
0000
0000
,
0000
2003
0000
0000
,
0000
0000
0000
0000
,
0000
3020
0000
0000
,
0000
0000
0000
0000
,
0000
0030
0110
0000
0100
0000
0101
0000
,
0001
1000
0100
1000
0010
0000
0100
0000
,
0101
0000
0000
0100
0001
0000
0000
0000
0011
0000
0000
0000
0110
0000
0000
0000
,
1000
0100
1000
0000
1010
0000
1010
0000
,
0000
0110
0100
0101
,
0001
1000
0100
1000
0010
0000
0100
0000
,
0101
0000
0000
0001
1000
0000
0000
0000
1010
0000
0000
0000
0110
0000
0000
0000
,
0100
0001
0010
0000
0100
0000
1100
0000
,
0000
1100
1000
1001
,
0001
0010
0100
1000
0010
0000
0110
0000
,
0100
0101
1001
1100
,
1000
0000
0000
0010
0100
0000
0000
0000
0110
0000
0000
0000
0101
0000
0000
0000
,
0000
0000
0000
0000
0001
0100
0010
1000
0001
0100
0010
1000
0001
0100
0010
1000
,
0100
0010
0001
1000
0100
0010
0001
0100
0001
0100
0001
0100
0010
1000
0010
1000
,
0010
1000
0100
1000
0100
1000
0100
1000
0100
0010
0001
0010
0001
0010
0001
0010
,
0001
0100
0001
0100
0001
1000
0001
0000
1000
0000
0100
0010
0100
0000
0010
0000
,
0001
0010
0001
0010
MM01
0000
0010
0000
0001
0010
0100
1000
0010
0000
0100
0000
,
0001
0000
1000
0000
0001
0100
0010
1000
0100
0000
1000
0100
1000
0000
0100
0000
,
1000
0000
0010
0000
0100
0001
0100
0000
0001
1000
0001
0000
1000
0000
0001
0000
,
0040
0000
0430
0000
1300
0100
1000
0000
0100
1000
0001
1000
0001
0000
0100
0000
,
0040
0000
0000
0000
0130
0001
0100
0010
1000
0000
0100
0000
1000
0000
0001
0000
,
0100
0000
0010
0000
1000
0000
0010
0000
0100
0001
1000
0010
0100
0000
0001
0000
,
1000
0100
1000
0000
0010
0000
0100
0001
0100
0000
0001
0000
0040
0000
0430
0000
,
0300
0000
4000
0000
3001
0100
0001
0000
0100
0000
0010
1000
0010
0000
1000
0000
,
0100
1000
0010
0100
0001
0000
0100
0000
0010
1000
0010
0000
0100
0000
0001
0000
,
1000
0000
0100
0000
1000
0100
1000
0000
0001
0000
0100
0000
0010
0000
0100
0000
,
0001
0000
0010
0000
0100
0000
1000
0000
0010
1000
0010
0100
0001
0000
0100
0000
,
0004
0000
4003
3000
0100
1000
0100
0000
1000
0000
0010
0100
0010
0000
0100
0000
,
0004
0000
0000
0000
0013
0100
1000
0100
1000
0000
0010
0100
0010
0000
0100
0000
,
0001
0000
1000
0000
0001
0000
0100
0000
0010
1000
0100
1000
0001
0000
0100
0000
,
0010
0000
1000
0000
0100
0000
1000
0000
0001
0100
0001
0010
0100
0000
4000
0000
,
3000
0000
0040
0000
0130
0001
0100
0000
0001
0000
1000
0100
1000
0100
0010
0001
,
0010
0100
1000
0000
0010
0000
0100
0000
0001
1000
0001
0000
1000
0000
0010
0000
,
0100
0001
0101
0000
1010
0000
1100
0000
,
0110
0000
0000
0000
0010
0000
0001
0000
0010
0100
0010
0000
0100
0000
1000
0100
,
1000
0100
1000
0010
0100
0001
1000
0000
,
1001
0000
0000
0000
0001
0100
0001
0100
0001
0000
0010
0000
0100
0000
1000
0000
,
0010
0100
0002
0023
0030
1100
0000
1000
,
0010
0000
0100
0000
0001
0010
0001
0000
1000
0001
1000
0001
1000
0000
0004
0000
,
0000
0103
0010
0100
0001
0010
0100
1000
,
0010
0100
0110
0000
0101
0000
1001
0000
,
1100
1010
0110
0101
,
0000
1001
1100
0110
,
0011
0101
0110
1010
,
0000
0000
1000
0010
0100
0010
0000
0100
,
0001
0010
0000
0100
1000
0010
0100
0001
,
0010
0100
1000
0010
0100
0001
0000
1000
,
0010
0000
1000
0000
0001
1000
0001
1000
0001
1000
0001
1000
0001
1000
0001
1000
,
0001
1000
0001
1000
0001
0000
0000
0000
0100
0000
0001
0000
0101
0000
0000
0000
,
0001
1000
1001
0000
1000
0010
1010
0000
,
0110
0000
0101
0000
0001
1000
1100
0000
,
1000
0100
0110
0000
0001
1000
1100
0000
,
1010
0000
0110
0100
0001
0010
0011
0001
,
1000
0010
1010
0010
0100
0001
1001
1000
,
0100
0000
0010
0000
0001
0010
0001
0010
0001
0010
0001
0100
0001
0100
0001
0100
,
0010
1000
0010
1000
0100
1000
0100
0010
0001
0100
0010
0100
0001
1000
0010
0100
,
0001
1000
0001
1000
0100
0000
1000
0000
0100
0000
0010
0000
0001
0000
0100
0000
,
0010
1000
0001
0010
0001
0100
0110
0000
,
1010
0000
1000
0010
0100
0001
0100
0010
,
1000
0000
0001
0000
0010
0000
0100
1000
0100
0000
1000
0000
0010
1000
0010
0000
,
1010
0000
1000
0100
0010
0001
0010
0001
,
0100
0010
1010
0000
1001
0000
0011
0000
,
1001
1000
1010
0010
0100
0001
1000
0010
,
1000
0010
1000
0010
1000
0000
0000
0000
0010
0000
0000
0000
0100
0000
0001
0000
,
0000
1000
1001
0001
0100
0010
1000
0100
,
0010
0100
1000
0010
0100
0001
0011
0000
,
0110
0000
0100
1000
0001
0100
0010
0100
,
0001
0000
0010
0000
0100
0000
1000
0100
1000
0000
0100
0000
1000
0001
1000
0001
,
1000
0000
0001
0000
0100
0001
0100
0001
1000
0010
1000
0010
0100
0001
1000
0010
,
0100
0010
0100
0001
0010
0001
0010
0100
1000
0100
1000
0010
0100
0001
0100
0010
,
1000
0010
0100
0001
0100
0001
1000
0100
0010
0001
1000
0100
0010
0001
0100
0001
,
1000
0010
0100
0001
1000
0001
1000
0001
1000
0001
1000
0001
1000
0001
1000
0001
,
1000
0001
1000
0001
1000
0000
0000
0000
0000
0000
0000
0000
1001
0000
0000
0000
,
0110
2002
0000
0000
,
0000
0000
0000
0000
,
0000
3003
0000
0000
;
