#TITLE:Odin;
#SUBTITLE:;
#ARTIST:Shiraishi;
#TITLETRANSLIT:;
#SUBTITLETRANSLIT:;
#ARTISTTRANSLIT:;
#CREDIT:Arvin;
#BANNER:../Banner.png;
#BACKGROUND:../bg.png;
#LYRICSPATH:;
#CDTITLE:;
#MUSIC:Odin.ogg;
#OFFSET:0.008;
#SAMPLESTART:36.684;
#SAMPLELENGTH:12.000;
#SELECTABLE:YES;
#DISPLAYBPM:163.000;
#BPMS:0.000=163.000,163.000=188.020,164.000=163.000;
#STOPS:;
#BGCHANGES:;
// cache tags:
#FIRSTBEAT:2.500;
#LASTBEAT:332.000;
#SONGFILENAME:Songs/Tachyon Epsilon/Odin - [Arvin]/Odin.sm;
#HASMUSIC:1;
#HASBANNER:1;
#MUSICLENGTH:123.611;
// end cache tags

//---------------dance-single - Arvin----------------
#NOTES:
     dance-single:
     Arvin:
     Hard:
     18:
     1.000,1.000,0.105,0.008,1.000,1293.000,13.000,1.000,4.000,0.000:



















0000
0000
0000
0000
0000
0000
0000
0000
0000
0000
0000
0000
0000
0000
0000
1000
0001
1000
0001
0000
0000
0010
0000
0000
,
0100
1000
0010
0000
0000
0100
0001
0000
,
0000
0000
0000
1000
0000
0000
0100
0000
0000
0000
0000
0000
0000
0000
0000
1000
0001
1000
0001
0000
0000
0100
0000
0000
,
0010
1000
0100
0000
0000
0000
0000
0000
,
0000
0000
0000
1000
0000
0000
1001
0000
0000
0000
0000
0000
0000
0000
0000
0001
1000
0001
1000
0000
0000
0010
0000
0000
,
0100
0000
0000
0001
0000
0000
1000
0000
0000
0000
0000
0000
0000
0000
0000
0001
0010
0001
0010
0000
0000
0000
0000
0000
,
0000
0000
0000
0100
1000
0001
0100
0000
0000
0010
0000
0000
1000
0000
0001
0100
0000
0000
0010
0000
0000
1000
0000
0000
,
0001
0000
0010
0000
0100
1000
0000
0100
0000
1000
0000
0001
0100
0010
1000
0001
,
0010
0000
0000
0100
0000
0000
1000
0000
0000
0001
0000
0000
1000
0000
0000
0000
0000
0000
0001
0000
0000
0000
0000
0000
0100
0000
0000
0000
0000
0000
0001
0000
0000
0000
0000
0000
1000
0000
0010
0000
0100
0000
0001
0000
1000
0000
0010
0000
,
0100
0001
1000
0100
0000
0000
0010
0000
0000
0001
0000
0000
1000
0000
0000
0001
0000
0000
1000
0100
0010
0001
1000
0100
,
0010
0001
1000
0010
0000
0000
1000
0000
0000
0010
0000
0000
0100
0000
0000
0001
0000
0000
1000
0100
0010
0001
1000
0001
,
1000
0100
0010
0001
0000
0000
1000
0000
0000
0001
0000
0000
0100
0000
0000
0010
0000
0000
1000
0010
0100
0001
0100
0001
,
1000
0010
0100
0001
0100
0010
1000
0000
0000
0001
0000
0000
0010
0000
0000
0001
0000
0000
1000
0100
0010
0001
1000
0100
,
0010
0001
1000
0010
0000
0000
0100
0000
0000
0001
0000
0000
1000
0000
0000
0001
0000
0000
1000
0010
0100
0001
1000
0010
,
0100
0001
1000
0100
0000
0000
1000
0000
0000
0100
0000
0000
0010
0000
0000
0001
0000
0000
1000
0010
0100
0001
1000
0001
,
1000
0000
0010
0000
0100
0000
0001
0000
0000
0000
0000
0000
1000
0000
0000
0001
0000
0000
0010
0000
0000
0001
0000
0000
1000
0000
0000
0010
0000
0000
0100
0000
0000
0010
0000
0000
1000
0000
0001
0000
0100
0000
0010
0000
0100
0000
0001
0000
,
1000
0000
0100
0000
0010
0000
0100
0000
1000
0000
0001
0000
1000
0000
0000
0000
0000
0000
1001
0000
0000
0000
0000
0000
0001
0000
0000
0010
0000
0000
0100
0000
0000
1000
0000
0000
0100
0000
0000
0010
0000
0000
0001
0000
0000
1000
0000
0000
,
0001
0000
0100
0000
0010
0000
1000
0000
0010
0000
0100
0000
0001
0000
0000
0000
0000
0000
1001
0000
0000
0000
0000
0000
1000
0000
0000
0010
0000
0000
0100
0000
0000
0001
0000
0000
0100
0000
0000
0010
0000
0000
1000
0000
0000
0001
0000
0000
,
1000
0100
0010
0001
0010
0100
1000
0000
0000
1100
0000
0000
1000
0001
0100
0010
1000
0001
0010
0000
0000
0011
0000
0000
,
0001
1000
0100
0010
0001
1000
0010
0000
0000
1010
0000
0000
1000
0000
0000
1001
0000
0000
1000
0010
0100
0010
0100
0001
,
1000
0000
0001
0000
1000
0000
0001
0000
0100
0000
0010
0000
1000
0000
0000
0000
0000
0000
1001
0000
0000
0000
0000
0000
0001
0000
0000
0010
0000
0000
0100
0000
0000
1000
0000
0000
0001
0000
0000
1000
0000
0000
0100
0000
0000
0010
0000
0000
,
0001
0000
0100
0000
0010
0000
1000
0000
0010
0000
0100
0000
0001
0000
0000
0000
0000
0000
1001
0000
0000
0000
0000
0000
1000
0000
0000
0010
0000
0000
0100
0000
0000
0001
0000
0000
1000
0000
0000
0001
0000
0000
0100
0000
0000
0010
0000
0000
,
1000
0100
0010
0001
0010
0100
1000
0000
0000
1100
0000
0000
1000
0001
0100
0010
1000
0001
0010
0000
0000
0011
0000
0000
,
0001
0000
1000
0000
0100
0000
0010
0000
0001
0000
1000
0000
0001
0000
0000
0010
0000
0000
0100
0000
0000
1000
0000
0000
0010
0000
0000
0100
0000
0000
0001
0000
0000
0010
0000
0000
0100
0000
0010
0000
0001
0000
1000
0000
0100
0000
0010
0000
,
0100
1000
0001
0010
0100
1000
0001
0100
0010
1000
0001
1000
0001
0010
0100
1000
0100
0010
0001
1000
0001
1000
0010
0100
,
0001
0100
0010
1000
0001
1000
0001
0010
0100
1000
0001
1000
0001
0100
0010
1000
0010
0100
0001
1000
0001
1000
0100
0010
,
0001
0010
0100
1000
0001
1000
0001
0100
0010
1000
0001
1000
0001
0010
0100
1000
0100
0010
0001
1000
0001
1000
0010
0100
,
0001
0100
0010
1000
0001
1000
0001
0010
0100
1000
0001
0010
0001
1000
0010
0100
0001
1000
0010
0100
0010
0100
0001
1000
,
0001
0010
0100
1000
0001
1000
0001
0010
0100
1000
0001
1000
0001
0100
0010
1000
0010
0100
0001
1000
0001
1000
0100
0010
,
0001
0010
0100
1000
0001
1000
0001
0100
0010
1000
0001
1000
0001
0010
0100
1000
0100
0010
0001
1000
0001
1000
0010
0100
,
0001
0100
0010
1000
0001
1000
0001
0010
0100
1000
0001
1000
0001
0100
0010
1000
0010
0100
0001
1000
0001
1000
0100
0010
,
0001
0000
0010
0000
0100
0000
1000
0000
0001
0000
1000
0000
0001
0000
0000
0010
0000
0000
0100
0000
0000
1000
0000
0000
0001
0000
0000
0100
0000
0000
0010
0000
0000
1000
0000
0000
0001
0000
0010
0000
0100
0000
1000
0000
0001
0000
0100
0000
,
0010
0100
0001
1000
0100
1000
0001
0000
0000
0000
0000
0000
0000
0000
0000
1000
0001
1000
0001
0000
0000
0010
0000
0000
,
0100
1000
0010
0000
0000
0100
0001
0000
,
0000
0000
0000
1000
0000
0000
0100
0000
0000
0000
0000
0000
0000
0000
0000
1000
0001
1000
0001
0000
0000
0010
0000
0000
,
0100
1000
0010
0000
0000
0000
0000
0000
,
0000
0000
0000
0110
0000
0000
0101
0000
0000
0000
0000
0000
0000
0000
0000
0010
1000
0010
1000
0000
0000
0001
0000
0000
,
0100
0000
0000
0010
0000
0000
1000
0000
0000
0000
0000
0000
0000
0000
0000
0001
0010
0001
0010
0000
0000
0000
0000
0000
,
0000
0000
0000
0100
1000
0001
0100
0000
0000
0010
0000
0000
1000
0000
0001
0100
0000
0000
0010
0000
0000
1000
0000
0000
,
0001
0010
0100
0000
0000
0000
0000
0000
,
0000
0000
MMMM
0000
,
1000
0000
0000
0001
0000
0000
1000
0000
0000
0100
0000
0000
1000
0000
0000
0100
0000
0000
0010
0000
0001
0000
0010
0000
0001
0000
1000
0000
0100
0000
0010
0000
0001
0000
1000
0000
0001
0000
0000
0100
0000
0000
0001
0000
0000
0100
0000
0000
,
0010
0000
0000
0100
0000
0000
0010
0000
0000
1000
0000
0000
0010
0000
0000
0100
0000
0000
0001
0000
1000
0000
0001
0000
1000
0000
0010
0000
0100
0000
0001
0000
0100
0000
0001
0000
1000
0000
0000
0010
0000
0000
0100
0000
0000
0001
0000
0000
,
1000
0000
0000
0100
0000
0000
1000
0000
0000
0100
0000
0000
0010
0000
0000
0001
0000
0000
1000
0000
0100
0000
0010
0000
0100
0000
1000
0000
0001
0000
0100
0000
0010
0000
1000
0000
0001
0000
0000
0010
0000
0000
0001
0000
0000
1000
0000
0000
,
0010
0000
0000
1000
0000
0000
0001
0000
0000
0100
0000
0000
0010
0000
1000
0000
0010
0000
1000
0000
0001
0000
0010
0000
0100
0000
1000
0000
0001
0000
0010
0000
0001
0000
1000
0000
0010
0000
0000
0100
0000
0000
0001
0000
0000
1000
0000
0000
,
0001
0000
0000
0010
0000
0000
0001
0000
0000
0010
0000
0000
0001
0000
0000
1000
0000
0000
0001
0000
0000
1000
0000
0000
0010
0000
0100
0000
0010
0000
1000
0000
0001
0000
1000
0000
0001
0000
0000
0100
0000
0000
0010
0000
0000
1000
0000
0000
,
0001
0000
0000
0010
0000
0000
0001
0000
0000
0010
0000
0000
0100
0000
0000
0010
0000
0000
0001
0000
1000
0000
0100
0000
0010
0000
0100
0000
1000
0000
0001
0000
0010
0000
0100
0000
1000
0000
0000
0001
0000
0000
0100
0000
0000
0010
0000
0000
,
1000
0000
0000
0001
0000
0000
0010
0000
0000
0001
0000
0000
0010
0000
0000
0100
0000
0000
0010
0000
0001
0000
1000
0000
0001
0000
1000
0000
0010
0000
0100
0000
0010
0000
0100
0000
0001
0000
0000
1000
0000
0000
0010
0000
0000
1000
0000
0000
,
0001
0000
0000
0010
0000
0000
0001
0000
0000
1000
0000
0000
0010
0000
0100
0000
0010
0000
0100
0000
0001
0000
1000
0000
0001
0000
0010
0000
0100
0000
1000
0000
0001
0000
1000
0000
0001
0000
0100
0000
0010
0000
1000
0000
0001
0000
1000
0000
,
0001
0000
0000
1000
0000
0000
0001
0000
0000
0010
0000
0000
0001
0000
0000
0010
0000
0000
0100
0000
1000
0000
0100
0000
1000
0000
0001
0000
0010
0000
0100
0000
1000
0000
0001
0000
1000
0000
0000
0010
0000
0000
1000
0000
0000
0010
0000
0000
,
0100
0000
0000
0010
0000
0000
0100
0000
0000
0001
0000
0000
0100
0000
0000
0010
0000
0000
1000
0000
0001
0000
1000
0000
0001
0000
0100
0000
0010
0000
1000
0000
0010
0000
1000
0000
0001
0000
0000
0100
0000
0000
0010
0000
0000
1000
0000
0000
,
0001
0000
0000
0010
0000
0000
0001
0000
0000
0010
0000
0000
0100
0000
0000
1000
0000
0000
0001
0000
0010
0000
0100
0000
0010
0000
0001
0000
1000
0000
0010
0000
0100
0000
0001
0000
1000
0000
0000
0100
0000
0000
1000
0000
0000
0001
0000
0000
,
0100
0000
0000
0001
0000
0000
1000
0000
0000
0010
0000
0000
0100
0000
0001
0000
0100
0000
0001
0000
1000
0000
0100
0000
0010
0000
0001
0000
1000
0000
0100
0000
1000
0000
0001
0000
0100
0000
0000
0010
0000
0000
1000
0000
0000
0001
0000
0000
,
1000
0000
0000
0100
0000
0000
1000
0000
0000
0100
0000
0000
1000
0000
0000
0001
0000
0000
1000
0000
0000
0001
0000
0000
0100
0000
0010
0000
0100
0000
0001
0000
1000
0000
0001
0000
1000
0000
0000
0010
0000
0000
0100
0000
0000
0001
0000
0000
,
1000
0000
0000
0100
0000
0000
1000
0000
0000
0100
0000
0000
0010
0000
0000
0100
0000
0000
1000
0000
0001
0000
0010
0000
0100
0000
0010
0000
0001
0000
1000
0000
0100
0000
0010
0000
0001
0000
0000
1000
0000
0000
0010
0000
0000
0100
0000
0000
,
0001
0000
0000
1000
0000
0000
0100
0000
0000
1000
0000
0000
0100
0000
0000
0010
0000
0000
0100
0000
1000
0000
0001
0000
1000
0000
0001
0000
0100
0000
0010
0000
0100
0000
0010
0000
1000
0000
0000
0001
0000
0000
0100
0000
0000
0001
0000
0000
,
1000
0100
0010
0001
1000
0001
1000
0100
0010
0001
1000
0010
0100
0001
0100
0001
1000
0010
1000
0001
0010
0100
1000
0001
,
1000
0000
0000
0000
0000
0000
0000
0000
0000
0001
1000
0001
1000
0000
0000
0100
0000
0000
0010
0000
0000
0001
0000
0000
,
0100
0000
0000
0010
1000
0000
0000
0001
,
0010
0000
0000
0000
0000
0000
0000
0000
0000
0001
1000
0001
1000
0000
0000
0010
0000
0000
0100
0000
0000
0001
0000
0000
,
0010
0000
0000
0000
0000
0000
0000
0100
,
1000
0000
0000
0000
0000
0000
0000
0000
0000
0001
0100
0001
0100
0000
0000
0010
0000
0000
1000
0000
0000
0001
0000
0000
,
0010
0000
0000
0000
0000
0000
0000
0000
0000
0100
1000
0100
1000
0000
0000
0000
0000
0000
0000
0000
0000
0100
1000
0001
,
0100
0000
0000
0010
0000
0000
1000
0000
0001
0100
0000
0000
0010
0000
0000
1000
0000
0000
0001
0000
0000
0010
0000
0000
,
0100
1000
0000
0100
0000
1000
0100
0010
0001
1000
0100
1000
0001
0100
0010
1000
,
0001
0100
0010
1000
0001
1000
0001
0010
0100
1000
0100
0010
0001
1000
0001
1000
0010
0100
0001
0100
0010
1000
0001
1000
,
0001
0010
0100
1000
0001
1000
0001
0100
0010
1000
0010
0100
0001
1000
0001
1000
0100
0010
0001
0010
0100
1000
0001
1000
,
0001
0100
0010
1000
0001
1000
0001
0010
0100
1000
0100
0010
0001
1000
0001
1000
0010
0100
0001
0100
0010
1000
0001
1000
,
0001
0010
0100
1000
0001
0010
0001
1000
0010
0100
0001
1000
0010
0100
0010
0100
0001
1000
0001
0010
0100
1000
0001
1000
,
0001
0010
0100
1000
0001
1000
0001
0100
0010
1000
0010
0100
0001
1000
0001
1000
0100
0010
0001
0010
0100
1000
0001
1000
,
0001
0100
0010
1000
0001
1000
0001
0010
0100
1000
0100
0010
0001
1000
0001
1000
0010
0100
0001
0100
0010
1000
0001
1000
,
0001
0010
0100
1000
0001
1000
0001
0100
0010
1000
0010
0100
0001
1000
0001
1000
0100
0010
0001
0010
0100
1000
0001
1000
,
0001
0000
0000
0010
0000
0000
0100
0000
0000
1000
0000
0000
0001
0000
0000
0100
0000
0000
0010
0000
0000
1000
0000
0000
0001
0000
0010
0000
0100
0000
1000
0000
0001
0000
0100
0000
0010
0000
0100
0000
0001
0000
1000
0000
0100
0000
1000
0000
,
0001
0010
0100
1000
0001
1000
0001
0100
0010
1000
0010
0100
0001
1000
0001
1000
0100
0010
0001
0010
0100
1000
0001
1000
,
0001
0100
0010
1000
0001
1000
0001
0010
0100
1000
0100
0010
0001
1000
0001
1000
0010
0100
0001
0100
0010
1000
0001
1000
,
0001
0010
0100
1000
0001
1000
0001
0100
0010
1000
0010
0100
0001
1000
0001
1000
0100
0010
0001
0010
0100
1000
0001
1000
,
0001
0100
0010
1000
0001
0100
0001
1000
0100
0010
0001
1000
0100
0010
0100
0010
0001
1000
0001
0100
0010
1000
0001
1000
,
0001
0100
0010
1000
0001
1000
0001
0010
0100
1000
0100
0010
0001
1000
0001
1000
0010
0100
0001
0100
0010
1000
0001
1000
,
0001
0010
0100
1000
0001
1000
0001
0100
0010
1000
0010
0100
0001
1000
0001
1000
0100
0010
0001
0010
0100
1000
0001
1000
,
0001
0100
0010
1000
0001
1000
0001
0010
0100
1000
0100
0010
0001
1000
0001
1000
0010
0100
0001
0100
0010
1000
0001
1000
,
0001
0010
0100
1000
0001
0100
0010
1000
0001
0010
0100
0010
0001
1000
0010
0100
,
0002
0000
0000
0000
,
0000
0000
0000
0000
,
0003
0000
0000
0000
;

//---------------dance-single - Mad Matt----------------
#NOTES:
     dance-single:
     Mad Matt:
     Challenge:
     19:
     1.000,1.000,0.121,0.008,1.000,1408.000,15.000,1.000,4.000,0.000:














0000
0000
0000
0000
0000
0000
0000
0000
0000
0000
0000
0000
0000
0000
0000
1000
0001
1000
0001
0000
0000
0010
0000
0000
,
0100
1000
0010
0000
0000
0100
0001
0000
,
0000
0000
0000
1000
0000
0000
0100
0000
0000
0000
0000
0000
0000
0000
0000
1000
0001
1000
0001
0000
0000
0100
0000
0000
,
0010
1000
0100
0000
0000
0000
0000
0000
,
0000
0000
0000
1000
0000
0000
1001
0000
0000
0000
0000
0000
0000
0000
0000
0001
1000
0001
1000
0000
0000
0010
0000
0000
,
0100
0000
0000
0001
0000
0000
1000
0000
0000
0000
0000
0000
0000
0000
0000
0001
0010
0001
0010
0000
0000
0000
0000
0000
,
0000
0000
0000
0100
1000
0001
0100
0000
0000
0010
0000
0000
1000
0000
0001
0100
0000
0000
0010
0000
0000
1000
0000
0000
,
0001
0000
0010
0000
0100
1000
0000
0100
0000
1000
0000
0001
0100
0010
1000
0001
,
0010
0000
0000
0100
0000
0000
1000
0000
0000
0001
0000
0000
1000
0000
0000
0000
0000
0000
0001
0000
0000
0000
0000
0000
0100
0000
0000
0000
0000
0000
0001
0000
0000
0000
0000
0000
1000
0000
0010
0000
0100
0000
0001
0000
0010
0000
0100
0000
,
1000
0001
1000
0010
0000
0000
0100
0000
0000
0001
0000
0000
1000
0000
0000
0001
0000
0000
1000
0100
0010
0001
0100
0010
,
1000
0001
1000
0100
0000
0000
1000
0000
0000
0010
0000
0000
0100
0000
0000
0001
0000
0000
1000
0100
0010
0001
0100
0010
,
1000
0100
0010
0001
0000
0000
1000
0000
0000
0001
0000
0000
0100
0000
0000
0010
0000
0000
1000
0010
0100
0001
1000
0100
,
1000
0001
0100
0010
1000
0001
0010
0000
0000
0001
0000
0000
0010
0000
0000
0001
0000
0000
1000
0100
0010
0001
0100
0010
,
1000
0001
1000
0100
0000
0000
0010
0000
0000
0001
0000
0000
1000
0000
0000
0001
0000
0000
1000
0010
0100
0001
0010
0100
,
1000
0001
1000
0010
0000
0000
1000
0000
0000
0100
0000
0000
0010
0000
0000
0001
0000
0000
1000
0010
0100
0001
0010
0100
,
1000
0000
0010
0000
0100
0000
0001
0000
0000
0000
0000
0000
1000
0000
0000
0001
0000
0000
0010
0000
0000
0001
0000
0000
1000
0000
0000
0010
0000
0000
0100
0000
0000
0010
0000
0000
1000
0000
0001
0000
0100
0000
0010
0000
1000
0000
0100
0000
,
1000
0000
0001
0000
0100
0000
0010
0000
1000
0000
0001
0000
0010
0000
0000
0000
0000
0000
0011
0000
0000
0000
0000
0000
0001
0000
0000
0010
0000
0000
0100
0000
0000
1000
0000
0000
0100
0000
0000
0010
0000
0000
0001
0000
0000
1000
0000
0000
,
0001
0000
0100
0000
0010
0000
1000
0000
0001
0000
1000
0000
0100
0000
0000
0000
0000
0000
1100
0000
0000
0000
0000
0000
1000
0000
0000
0010
0000
0000
0100
0000
0000
0001
0000
0000
0100
0000
0000
0010
0000
0000
1000
0000
0000
0001
0000
0000
,
1000
0100
0010
0001
1000
0001
0100
0000
0000
0101
0000
0000
0001
1000
0100
0010
0001
1000
0010
0000
0000
1010
0000
0000
,
1000
0010
0100
0001
1000
0001
0010
0000
0000
0110
0000
0000
0010
0000
0000
0011
0000
0000
0001
0100
0010
1000
0100
1000
,
0001
0000
0100
0000
0010
0000
0100
0000
0001
0000
1000
0000
0100
0000
0000
0000
0000
0000
1100
0000
0000
0000
0000
0000
1000
0000
0000
0100
0000
0000
0010
0000
0000
0001
0000
0000
1000
0000
0000
0001
0000
0000
0010
0000
0000
0100
0000
0000
,
1000
0000
0010
0000
0100
0000
0001
0000
1000
0000
0001
0000
0010
0000
0000
0000
0000
0000
0011
0000
0000
0000
0000
0000
0001
0000
0000
0100
0000
0000
0010
0000
0000
1000
0000
0000
0010
0000
0000
0100
0000
0000
0001
0000
0000
1000
0000
0000
,
0001
0010
0100
1000
0001
1000
0010
0000
0000
1010
0000
0000
1000
0001
0010
0100
1000
0001
0100
0000
0000
0101
0000
0000
,
0001
0000
0100
0000
0010
0000
1000
0000
0001
0000
1000
0000
0100
0000
0000
0010
0000
0000
0100
0000
0000
1000
0000
0000
0010
0000
0000
0100
0000
0000
0001
0000
0000
0010
0000
0000
0100
0000
0010
0000
0001
0000
1000
0000
0010
0000
0100
0000
,
0010
1000
0001
1000
0100
1000
0001
0010
0100
1000
0010
0100
0001
1000
0001
0010
0100
0010
0001
1000
0001
0100
0010
0100
,
0001
0010
0001
1000
0010
0100
0001
0010
0100
1000
0010
0100
0001
1000
0001
0010
0100
0010
0001
1000
0001
0100
0010
0100
,
0001
0010
0001
1000
0010
0100
0001
0100
0010
1000
0100
0010
0001
1000
0001
0100
0010
0100
0001
1000
0001
0010
0100
0010
,
0001
0100
0001
1000
0100
0010
0001
0010
0100
1000
0010
0100
0001
1000
0001
0010
0100
0010
0001
1000
0010
0100
0001
0010
,
0100
0010
0001
0100
0010
1000
0100
0010
0001
0100
0010
1000
0001
1000
0100
0010
0100
1000
0001
1000
0010
0100
0010
1000
,
0100
1000
0001
0100
0010
1000
0100
0010
0001
0100
0010
1000
0001
1000
0100
0010
0100
1000
0001
1000
0010
0100
0010
1000
,
0100
1000
0001
0100
0010
1000
0010
0100
0001
0010
0100
1000
0001
1000
0010
0100
0010
1000
0001
1000
0100
0010
0100
1000
,
0010
0000
1000
0000
0001
0000
0010
0000
0100
0000
1000
0000
0001
0000
0000
0010
0000
0000
0100
0000
0000
1000
0000
0000
0001
0000
0000
0100
0000
0000
0010
0000
0000
1000
0000
0000
0001
0000
0010
0000
0100
0000
1000
0000
0010
0000
0100
0000
,
0001
0000
1000
0000
0100
0000
1000
0000
0010
0000
0100
0000
0001
0000
0000
0000
0000
0000
1000
0000
0000
0000
0000
0000
0001
0000
0000
0100
0000
0000
0010
0000
0000
0100
0000
0000
0001
0000
0000
1000
0000
0000
0100
0000
0000
0010
0000
0000
,
0000
0001
1000
0001
0100
0000
0010
0000
0100
0001
1000
0100
0010
0100
1000
0001
,
0000
0100
0010
0100
0001
0000
1000
0000
0100
0010
0001
0010
0100
1000
0001
0100
,
0000
0010
0100
0001
1000
0000
0100
0000
0010
0100
1000
0001
1000
0010
0100
0001
,
0000
0000
0101
0000
1001
0000
1000
0000
0001
0010
0100
1000
0001
1000
0010
0100
,
0000
0001
1000
0010
0100
0000
0001
0000
1000
0100
0010
0100
1000
0001
1000
0010
,
0000
1000
0001
1000
0100
0000
0010
0000
0100
1000
0001
0100
0010
0100
0001
1000
,
0000
0100
0010
0100
1000
0000
0001
0000
0100
0010
1000
0010
0100
0000
0000
0101
,
0000
1001
0000
0000
MMMM
0000
0000
0000
,
1000
0000
0000
0001
0000
0000
1000
0000
0000
0010
0000
0000
0100
0000
0000
0001
0000
0000
0010
0000
0100
0000
0010
0000
0001
0000
1000
0000
0010
0000
0100
0000
0001
0000
1000
0000
0100
0000
0000
0010
0000
0000
0001
0000
0000
1000
0000
0000
,
0010
0000
0000
0100
0000
0000
0010
0000
0000
1000
0000
0000
0100
0000
0000
0010
0000
0000
0001
0000
0100
0000
0001
0000
1000
0000
0100
0000
0010
0000
0100
0000
1000
0000
0001
0000
0100
0000
0000
0010
0000
0000
0100
0000
0000
0001
0000
0000
,
1000
0000
0000
0100
0000
0000
0010
0000
0000
0100
0000
0000
1000
0000
0000
0001
0000
0000
1000
0000
0010
0000
0100
0000
0010
0000
1000
0000
0100
0000
1000
0000
0001
0000
0100
0000
0001
0000
0000
1000
0000
0000
0100
0000
0000
0010
0000
0000
,
0100
0000
0000
1000
0000
0000
0001
0000
0000
0100
0000
0000
0010
0000
1000
0000
0010
0000
0100
0000
0001
0000
1000
0000
0100
0000
0010
0000
0100
0000
1000
0000
0010
0000
0100
0000
0001
0000
0000
1000
0000
0000
0100
0000
0000
1000
0000
0000
,
0001
0000
0000
0010
0000
0000
0100
0000
0000
0010
0000
0000
0001
0000
0000
0100
0000
0000
0001
0000
0000
1000
0000
0000
0010
0000
0100
0000
0010
0000
1000
0000
0001
0000
0010
0000
0001
0000
0000
0100
0000
0000
0010
0000
0000
1000
0000
0000
,
0001
0000
0000
0010
0000
0000
0100
0000
0000
0010
0000
0000
0001
0000
0000
1000
0000
0000
0010
0000
1000
0000
0100
0000
1000
0000
0001
0000
0100
0000
0010
0000
0100
0000
0001
0000
1000
0000
0000
0100
0000
0000
1000
0000
0000
0010
0000
0000
,
0100
0000
0000
0001
0000
0000
0010
0000
0000
0100
0000
0000
0010
0000
0000
0001
0000
0000
0010
0000
0100
0000
1000
0000
0001
0000
1000
0000
0010
0000
0100
0000
0010
0000
1000
0000
0001
0000
0000
0010
0000
0000
0100
0000
0000
0010
0000
0000
,
0001
0000
0000
0100
0000
0000
0010
0000
0000
1000
0000
0000
0001
0000
0100
0000
0010
0000
0100
0000
0001
0000
0010
0000
0001
0000
1000
0000
0010
0000
0100
0000
0001
0000
1000
0000
0100
0000
0010
0000
0100
0000
1000
0000
0010
0000
0100
0000
,
0001
0000
0000
1000
0000
0000
0001
0000
0000
0010
0000
0000
0100
0000
0000
0010
0000
0000
0001
0000
0100
0000
0001
0000
1000
0000
0100
0000
1000
0000
0010
0000
0100
0000
0001
0000
1000
0000
0000
0100
0000
0000
1000
0000
0000
0010
0000
0000
,
0100
0000
0000
0001
0000
0000
0100
0000
0000
0010
0000
0000
1000
0000
0000
0100
0000
0000
1000
0000
0001
0000
0100
0000
0010
0000
1000
0000
0100
0000
1000
0000
0001
0000
0010
0000
0001
0000
0000
0100
0000
0000
0010
0000
0000
1000
0000
0000
,
0001
0000
0000
0010
0000
0000
0100
0000
0000
0010
0000
0000
0001
0000
0000
1000
0000
0000
0010
0000
0100
0000
0010
0000
1000
0000
0100
0000
1000
0000
0001
0000
0100
0000
0010
0000
1000
0000
0000
0100
0000
0000
1000
0000
0000
0001
0000
0000
,
0100
0000
0000
0001
0000
0000
1000
0000
0000
0010
0000
0000
0100
0000
0001
0000
0100
0000
0010
0000
1000
0000
0100
0000
1000
0000
0001
0000
0100
0000
0010
0000
1000
0000
0100
0000
0010
0000
0000
0001
0000
0000
1000
0000
0000
0100
0000
0000
,
1000
0000
0000
0010
0000
0000
0100
0000
0000
0010
0000
0000
1000
0000
0000
0001
0000
0000
0010
0000
0000
0001
0000
0000
1000
0000
0010
0000
0100
0000
0001
0000
0010
0000
0001
0000
1000
0000
0000
0010
0000
0000
0100
0000
0000
0001
0000
0000
,
1000
0000
0000
0100
0000
0000
0010
0000
0000
0100
0000
0000
1000
0000
0000
0010
0000
0000
1000
0000
0001
0000
0100
0000
0010
0000
0100
0000
0001
0000
0010
0000
0001
0000
1000
0000
0010
0000
0000
0100
0000
0000
0001
0000
0000
1000
0000
0000
,
0100
0000
0000
0010
0000
0000
0100
0000
0000
1000
0000
0000
0010
0000
0000
0100
0000
0000
0001
0000
1000
0000
0100
0000
1000
0000
0010
0000
0100
0000
0001
0000
1000
0000
0100
0000
0010
0000
0000
0001
0000
0000
0100
0000
0000
0001
0000
0000
,
1000
0100
0010
0100
1000
0001
1000
0010
0100
0001
1000
0100
1000
0010
0100
0001
1000
0010
1000
0001
0010
0100
0010
0001
,
1000
0100
1000
0001
0100
0001
1000
0010
1000
0001
0010
0001
1000
0010
0100
0001
,
1000
0010
1000
0001
0010
0001
1000
0100
1000
0001
0100
0001
1000
0010
0100
0001
,
1000
0010
1000
0001
0100
0001
1000
0100
1000
0001
0010
0001
1000
0100
0010
0001
,
1000
0100
1000
0001
0100
0001
1000
0010
1000
0001
0010
0001
1000
0100
0010
0001
,
1000
0100
1000
0001
0100
0001
1000
0010
1000
0001
0010
0001
1000
0010
0100
0001
,
1000
0010
1000
0001
0010
0001
1000
0100
1000
0001
0100
0001
1000
0010
0100
0001
,
1000
0010
1000
0001
0100
0001
1000
0100
1000
0001
0010
0001
1000
0100
0010
0001
,
1000
0010
0000
0100
0000
0001
0100
0010
1000
0001
0100
0001
1000
0100
0010
0001
,
1000
0100
0010
0001
0100
0010
1000
0001
1000
0100
0010
0100
1000
0001
1000
0010
0100
0010
1000
0100
1000
0001
0100
0010
,
1000
0100
0010
0001
0100
0010
1000
0001
1000
0100
0010
0100
1000
0001
1000
0010
0100
0010
1000
0100
1000
0001
0100
0010
,
1000
0010
0100
0001
0010
0100
1000
0001
1000
0010
0100
0010
1000
0001
1000
0100
0010
0100
1000
0010
1000
0001
0010
0100
,
1000
0100
0010
0001
0100
0010
1000
0001
1000
0100
0010
0100
1000
0001
0100
0010
1000
0100
0010
0100
1000
0010
0100
0001
,
0010
0100
1000
0010
0100
0001
1000
0001
0010
0100
0010
0001
1000
0001
0100
0010
0100
0001
0010
0001
1000
0010
0100
0001
,
0010
0100
1000
0010
0100
0001
1000
0001
0010
0100
0010
0001
1000
0001
0100
0010
0100
0001
0010
0001
1000
0010
0100
0001
,
0100
0010
1000
0100
0010
0001
1000
0001
0100
0010
0100
0001
1000
0001
0010
0100
0010
0001
0100
0001
1000
0100
0010
0001
,
1000
0000
0000
0100
0000
0000
0010
0000
0000
0001
0000
0000
1000
0000
0000
0010
0000
0000
0100
0000
0000
0001
0000
0000
1000
0000
0100
0000
0010
0000
0001
0000
0100
0000
0010
0000
1000
0000
0001
0000
0010
0000
0001
0000
0100
0000
0010
0000
,
1000
0010
0100
0001
0010
0100
1000
0001
1000
0010
0100
0010
1000
0001
1000
0100
0010
0100
1000
0010
1000
0001
0010
0100
,
1000
0010
0100
0001
0010
0100
1000
0001
1000
0010
0100
0010
1000
0001
1000
0100
0010
0100
1000
0010
1000
0001
0010
0100
,
1000
0100
0010
0001
0100
0010
1000
0001
1000
0100
0010
0100
1000
0001
1000
0010
0100
0010
1000
0100
1000
0001
0100
0010
,
1000
0010
0100
0001
0010
0100
1000
0001
1000
0010
0100
0010
1000
0001
0010
0100
1000
0010
0100
0010
1000
0100
0010
0001
,
0100
0010
1000
0100
0010
0001
1000
0001
0100
0010
0100
0001
1000
0001
0010
0100
0010
0001
0100
0001
1000
0100
0010
0001
,
0100
0010
1000
0100
0010
0001
1000
0001
0100
0010
0100
0001
1000
0001
0010
0100
0010
0001
0100
0001
1000
0100
0010
0001
,
0010
0100
1000
0010
0100
0001
1000
0001
0010
0100
0010
0001
1000
0001
0100
0010
0100
0001
0010
0001
1000
0010
0100
0001
,
1000
0100
0010
0001
1000
0010
0100
0001
1000
0100
0010
0100
1000
0001
0100
0010
,
2000
0000
0000
0000
,
0000
0000
0000
0000
,
3000
0000
0000
0000
;

//---------------dance-single - Mad Matt----------------
#NOTES:
     dance-single:
     Mad Matt:
     Medium:
     17:
     1.000,1.000,0.024,0.008,1.000,1193.000,3.000,1.000,4.000,0.000:





0000
0000
0000
0000
0000
0000
0000
0000
0000
0000
0000
0000
0000
0000
0000
1000
0001
1000
0001
0000
0000
0010
0000
0000
,
0100
1000
0010
0000
0000
0100
0001
0000
,
0000
0000
0000
1000
0000
0000
0100
0000
0000
0000
0000
0000
0000
0000
0000
1000
0001
1000
0001
0000
0000
0100
0000
0000
,
0010
1000
0100
0000
0000
0000
0000
0000
,
0000
0000
0000
1000
0000
0000
1001
0000
0000
0000
0000
0000
0000
0000
0000
0001
1000
0001
1000
0000
0000
0010
0000
0000
,
0100
0000
0000
0001
0000
0000
1000
0000
0000
0000
0000
0000
0000
0000
0000
0001
0010
0001
0010
0000
0000
0000
0000
0000
,
0000
0000
0000
0100
1000
0001
0100
0000
0000
0010
0000
0000
1000
0000
0001
0100
0000
0000
0010
0000
0000
1000
0000
0000
,
0001
0000
0010
0000
0100
1000
0000
0100
0000
1000
0000
0001
0100
0010
1000
0001
,
0010
0000
0000
0100
0000
0000
1000
0000
0000
0001
0000
0000
1000
0000
0000
0000
0000
0000
0001
0000
0000
0000
0000
0000
0100
0000
0000
0000
0000
0000
0001
0000
0000
0000
0000
0000
1000
0000
0010
0000
0100
0000
0001
0000
1000
0000
0010
0000
,
0100
0001
1000
0010
0000
0000
0100
0000
0000
0001
0000
0000
1000
0000
0000
0001
0000
0000
1000
0100
0010
0001
1000
0100
,
0010
0001
1000
0100
0000
0000
1000
0000
0000
0010
0000
0000
0100
0000
0000
0001
0000
0000
1000
0100
0010
0001
1000
0001
,
1000
0100
0010
0001
0000
0000
1000
0000
0000
0001
0000
0000
0100
0000
0000
0010
0000
0000
1000
0010
0100
0001
0100
0001
,
1000
0010
0100
0001
0100
0010
1000
0000
0000
0001
0000
0000
0010
0000
0000
0001
0000
0000
1000
0100
0010
0001
1000
0100
,
0010
0001
1000
0100
0000
0000
0010
0000
0000
0001
0000
0000
1000
0000
0000
0001
0000
0000
1000
0010
0100
0001
1000
0010
,
0100
0001
1000
0010
0000
0000
1000
0000
0000
0100
0000
0000
0010
0000
0000
0001
0000
0000
1000
0010
0100
0001
1000
0001
,
1000
0000
0010
0000
0100
0000
0001
0000
0000
0000
0000
0000
1000
0000
0000
0001
0000
0000
0010
0000
0000
0001
0000
0000
1000
0000
0000
0010
0000
0000
0100
0000
0000
0010
0000
0000
1000
0000
0001
0000
0100
0000
0010
0000
0100
0000
0001
0000
,
1000
0000
0100
0000
0010
0000
0001
0000
0000
0000
0000
0000
1000
0000
0000
0000
0000
0000
0001
0000
0000
0000
0000
0000
1000
0000
0000
0010
0000
0000
0100
0000
0000
0001
0000
0000
0100
0000
0000
0010
0000
0000
1000
0000
0000
0001
0000
0000
,
1000
0000
0100
0000
0010
0000
0001
0000
0010
0000
0100
0000
1000
0000
0000
0000
0000
0000
0001
0000
0000
0000
0000
0000
1000
0000
0000
0010
0000
0000
0100
0000
0000
0001
0000
0000
0100
0000
0000
0010
0000
0000
1000
0000
0000
0001
0000
0000
,
1000
0100
0010
0001
0010
0100
1000
0000
0000
0001
0000
0000
1000
0001
0100
0010
1000
0001
0100
0000
0000
0010
0000
0000
,
0100
0001
1000
0010
0100
0001
1000
0000
0000
0010
0000
0000
0100
0000
0000
0001
0000
0000
1000
0010
0100
0010
0100
0001
,
1000
0000
0001
0000
1000
0000
0001
0000
0100
0000
0010
0000
1000
0000
0000
0000
0000
0000
0001
0000
0000
0000
0000
0000
1000
0000
0000
0010
0000
0000
0100
0000
0000
0001
0000
0000
1000
0000
0000
0001
0000
0000
0100
0000
0000
0010
0000
0000
,
1000
0000
0100
0000
0010
0000
0001
0000
0010
0000
0100
0000
1000
0000
0000
0000
0000
0000
0001
0000
0000
0000
0000
0000
1000
0000
0000
0010
0000
0000
0100
0000
0000
0001
0000
0000
1000
0000
0000
0001
0000
0000
0100
0000
0000
0010
0000
0000
,
1000
0100
0010
0001
0010
0100
1000
0000
0000
0001
0000
0000
1000
0001
0100
0010
1000
0001
0100
0000
0000
0010
0000
0000
,
0100
0000
0001
0000
0100
0000
0010
0000
1000
0000
0001
0000
1000
0000
0000
0010
0000
0000
0100
0000
0000
0001
0000
0000
0010
0000
0000
0100
0000
0000
1000
0000
0000
0010
0000
0000
0100
0000
0000
0001
0000
0000
1000
0000
0000
0010
0000
0000
,
0100
0000
0000
0001
0000
0000
1000
0000
0000
0000
0000
0000
0001
0000
0100
0000
0010
0000
1000
0000
0001
0000
1000
0000
0100
0000
1000
0000
0001
0000
0010
0000
0100
0000
1000
0000
0001
0000
0010
0000
0001
0000
1000
0000
0001
0000
0100
0000
,
0010
1000
0001
1000
0100
1000
0001
0010
0100
1000
0001
0010
0001
1000
0001
0100
0010
1000
0001
1000
0100
1000
0001
0010
,
0100
1000
0001
0010
0001
1000
0001
0100
0010
1000
0001
1000
0100
1000
0001
0010
0100
1000
0001
0010
0001
1000
0001
0100
,
0010
1000
0001
1000
0100
1000
0001
0010
0100
1000
0001
1000
0010
0100
0001
1000
0001
0010
0001
1000
0100
0010
0001
1000
,
0010
0100
0001
1000
0100
0010
0001
1000
0010
0100
0001
1000
0001
0010
0001
1000
0100
0010
0001
1000
0100
1000
0001
1000
,
0010
0100
0001
1000
0001
0010
0001
1000
0100
0010
0001
1000
0100
1000
0001
1000
0010
0100
0001
1000
0001
0010
0001
1000
,
0100
0010
0001
1000
0100
1000
0001
1000
0010
0100
0001
1000
0001
0010
0001
1000
0100
0010
0001
1000
0100
1000
0001
1000
,
0010
0000
0100
0000
0001
0000
1000
0000
0001
0000
0010
0000
0100
0000
0000
1000
0000
0000
0001
0000
0000
1000
0000
0000
0010
0000
0000
0100
0000
0000
0001
0000
0000
1000
0000
0000
0001
0000
0010
0000
0100
0000
1000
0000
0001
0000
1000
0000
,
0010
0100
0001
1000
0000
0000
0001
0000
0000
0000
0000
0000
0000
0000
0000
1000
0001
1000
0001
0000
0000
0010
0000
0000
,
0100
1000
0010
0000
0000
0100
0001
0000
,
0000
0000
0000
1000
0000
0000
0100
0000
0000
0000
0000
0000
0000
0000
0000
1000
0001
1000
0001
0000
0000
0010
0000
0000
,
0100
1000
0010
0000
0000
0000
0000
0000
,
0000
0000
0000
0110
0000
0000
0101
0000
0000
0000
0000
0000
0000
0000
0000
0010
1000
0010
1000
0000
0000
0001
0000
0000
,
0100
0000
0000
0010
0000
0000
1000
0000
0000
0000
0000
0000
0000
0000
0000
0001
0010
0001
0010
0000
0000
0000
0000
0000
,
0000
0000
0000
0100
1000
0001
0100
0000
0000
0010
0000
0000
1000
0000
0001
0100
0000
0000
0010
0000
0000
1000
0000
0000
,
0001
0010
0100
0000
0000
0000
0000
0000
,
0000
0000
MMMM
0000
,
1000
0001
1000
0100
1000
0100
0010
0001
1000
0001
0010
0100
1000
0100
1000
0100
,
0010
0100
0010
0001
0010
0100
1000
0001
1000
0010
0100
0001
1000
0010
0100
0001
,
1000
0100
1000
0100
0010
0001
1000
0001
0100
0010
0100
0001
1000
0010
1000
0001
,
0010
0001
1000
0100
0010
0001
1000
0100
1000
0001
0010
0100
0010
0100
1000
0001
,
1000
0010
1000
0010
1000
0001
1000
0001
0010
0100
1000
0001
1000
0100
0010
0001
,
1000
0010
1000
0010
0100
0010
1000
0001
0010
0100
0010
0001
1000
0001
0100
0010
,
1000
0001
0010
0001
0010
0100
0010
0001
1000
0001
0100
0010
1000
0001
0010
0001
,
1000
0010
1000
0001
0010
0100
1000
0001
1000
0010
1000
0010
0100
0010
1000
0001
,
1000
0001
1000
0010
1000
0010
0100
0001
1000
0010
0100
0001
1000
0010
1000
0010
,
0100
0010
0100
0001
0100
0010
1000
0001
0010
0001
1000
0100
1000
0100
0010
0001
,
1000
0010
1000
0010
0100
0001
1000
0001
0010
0100
0010
0001
1000
0100
1000
0001
,
0100
0001
1000
0010
0100
0001
1000
0001
0010
0100
0010
0001
1000
0010
1000
0001
,
1000
0100
1000
0100
1000
0001
1000
0001
0100
0010
1000
0001
1000
0010
0100
0001
,
1000
0100
1000
0100
0010
0100
1000
0001
0100
0010
0100
0001
1000
0001
0010
0100
,
1000
0001
0100
0001
0100
0010
0100
0001
1000
0100
0010
0100
1000
0001
0100
0001
,
1000
0010
0100
0010
1000
0001
1000
0100
1000
0010
1000
0001
0100
0001
0010
0001
,
1000
0000
0000
0000
0000
0000
0000
0000
0000
0001
1000
0001
1000
0000
0000
0100
0000
0000
0010
0000
0000
0001
0000
0000
,
0100
0000
0000
0010
1000
0000
0000
0001
,
0010
0000
0000
0000
0000
0000
0000
0000
0000
0001
1000
0001
1000
0000
0000
0010
0000
0000
0100
0000
0000
0001
0000
0000
,
0010
0000
0000
0000
0000
0000
0000
0100
,
1000
0000
0000
0000
0000
0000
0000
0000
0000
0001
0100
0001
0100
0000
0000
0010
0000
0000
1000
0000
0000
0001
0000
0000
,
0010
0000
0000
0000
0000
0000
0000
0000
0000
0100
1000
0100
1000
0000
0000
0000
0000
0000
0000
0000
0000
0100
1000
0001
,
0100
0000
0000
0010
0000
0000
1000
0000
0001
0100
0000
0000
0010
0000
0000
1000
0000
0000
0001
0000
0000
0010
0000
0000
,
0100
1000
0000
0100
0000
1000
0100
0010
0001
1000
0100
1000
0001
0100
0010
1000
,
0001
0010
0100
1000
0001
1000
0010
1000
0001
0100
0010
1000
0001
0100
0001
1000
0001
0010
0100
1000
0001
1000
0010
1000
,
0001
0100
0010
1000
0001
0100
0001
1000
0001
0010
0100
1000
0001
1000
0010
1000
0001
0100
0010
1000
0001
0100
0001
1000
,
0001
0010
0100
1000
0001
1000
0010
1000
0001
0100
0010
1000
0001
0100
0001
1000
0001
0010
0100
1000
0001
1000
0010
1000
,
0001
0100
0010
1000
0001
1000
0100
0010
0001
1000
0001
0100
0001
1000
0010
0100
0001
1000
0100
0010
0001
1000
0010
0100
,
0001
1000
0100
0010
0001
1000
0001
0100
0001
1000
0010
0100
0001
1000
0010
1000
0001
1000
0100
0010
0001
1000
0001
0100
,
0001
1000
0010
0100
0001
1000
0010
1000
0001
1000
0100
0010
0001
1000
0001
0100
0001
1000
0010
0100
0001
1000
0010
1000
,
0001
1000
0100
0010
0001
1000
0001
0100
0001
1000
0010
0100
0001
1000
0010
1000
0001
1000
0100
0010
0001
1000
0001
0100
,
0010
0000
0000
1000
0000
0000
0001
0000
0000
1000
0000
0000
0100
0000
0000
0010
0000
0000
0001
0000
0000
1000
0000
0000
0001
0000
0100
0000
0010
0000
1000
0000
0001
0000
1000
0000
0100
0000
0010
0000
0001
0000
1000
0000
0000
0000
0000
0000
,
0001
0100
0010
1000
0001
1000
0100
1000
0001
0010
0100
1000
0001
0010
0001
1000
0001
0100
0010
1000
0001
1000
0100
1000
,
0001
0010
0100
1000
0001
0010
0001
1000
0001
0100
0010
1000
0001
1000
0100
1000
0001
0010
0100
1000
0001
0010
0001
1000
,
0001
0100
0010
1000
0001
1000
0100
1000
0001
0010
0100
1000
0001
0010
0001
1000
0001
0100
0010
1000
0001
1000
0100
1000
,
0001
0010
0100
1000
0001
1000
0010
0100
0001
1000
0001
0010
0001
1000
0100
0010
0001
1000
0010
0100
0001
1000
0100
0010
,
0001
0000
0100
0000
0001
1000
0010
0100
0001
1000
0100
0010
0000
0001
0010
0100
,
1000
0000
0010
0000
0100
0001
1000
0010
1000
0001
0100
0010
0000
1000
0010
0100
,
0001
0000
1000
0000
0001
0010
0100
1000
0100
0010
0001
1000
0000
0010
0100
0001
,
1000
0010
0100
0001
1000
0100
0010
0001
1000
0010
0100
0010
1000
0001
0010
0100
,
2000
0000
0000
0000
,
0000
0000
0000
0000
,
3000
0000
0000
0000
;

//---------------dance-single - Mad Matt----------------
#NOTES:
     dance-single:
     Mad Matt:
     Beginner:
     16:
     1.000,1.000,0.024,0.129,1.000,954.000,3.000,16.000,4.000,0.000:

0000
0000
0000
0000
0000
0000
0000
0000
0000
0000
0000
0000
0000
0000
0000
1000
0001
1000
0001
0000
0000
0010
0000
0000
,
0100
1000
0010
0000
0000
0100
0001
0000
,
0000
0000
0000
1000
0000
0000
0100
0000
0000
0000
0000
0000
0000
0000
0000
1000
0001
1000
0001
0000
0000
0100
0000
0000
,
0010
1000
0100
0000
0000
0000
0000
0000
,
0000
0000
0000
1000
0000
0000
1001
0000
0000
0000
0000
0000
0000
0000
0000
0001
1000
0001
1000
0000
0000
0010
0000
0000
,
0100
0000
0000
0001
0000
0000
1000
0000
0000
0000
0000
0000
0000
0000
0000
0001
0010
0001
0010
0000
0000
0000
0000
0000
,
0000
0000
0000
0100
1000
0001
0100
0000
0000
0010
0000
0000
1000
0000
0001
0100
0000
0000
0010
0000
0000
1000
0000
0000
,
0001
0000
0010
0000
0100
1000
0000
0100
0000
1000
0000
0001
0100
0010
1000
0001
,
0010
0100
1000
0001
1000
0000
0001
0000
0100
0000
0001
0000
1000
0100
0010
0001
,
1000
0001
0100
0000
0010
0000
1000
0000
0001
0000
1000
0000
0001
0010
0100
1000
,
0001
0100
0010
0000
1000
0000
0010
0000
0100
0000
0001
0000
1000
0100
1000
0001
,
0100
0010
1000
0000
0001
0000
1000
0000
0100
0000
0010
0000
0001
1000
0010
0100
,
0001
1000
0100
0010
0001
0000
1000
0000
0010
0000
1000
0000
0001
0100
0010
1000
,
0001
0010
0100
0000
0010
0000
0001
0000
1000
0000
0001
0000
1000
0010
0100
0001
,
1000
0100
0010
0000
0001
0000
0100
0000
0010
0000
1000
0000
0001
0010
0100
1000
,
0001
0100
0010
0000
1000
0001
0010
0001
1000
0010
0100
0010
1000
0001
0010
0100
,
1000
0001
0100
0000
0001
0000
1000
0000
0001
0010
0100
1000
0100
0010
0001
1000
,
0010
0100
0001
1000
0010
0000
0100
0000
0001
0010
0100
1000
0100
0010
0001
1000
,
0010
0100
0001
1000
0100
0000
0010
0000
0001
1000
0010
0100
0001
0000
0010
0000
,
0100
1000
0001
0100
0010
0000
0100
0000
0001
0000
1000
0000
0100
0010
0001
0100
,
0010
1000
0001
0010
0100
0000
1000
0000
0001
0010
0100
1000
0001
1000
0100
0010
,
0001
1000
0010
0100
0001
0000
1000
0000
0001
0010
0100
1000
0001
1000
0100
0010
,
0001
1000
0010
0100
0001
0000
1000
0000
0001
0010
0100
1000
0001
0000
0010
0000
,
0001
1000
0010
0100
0001
0100
0010
1000
0100
0010
0001
0100
0010
1000
0001
0100
,
0010
0000
0000
1000
0000
0000
0001
0000
0000
0000
0000
0000
1000
0000
0010
0000
0100
0000
0001
0000
1000
0000
0001
0000
0010
0000
0001
0000
1000
0000
0100
0000
0010
0000
0001
0000
1000
0000
0100
0000
1000
0000
0001
0000
1000
0000
0010
0000
,
0100
0000
0000
0000
0000
0000
0001
0100
0010
1000
0001
0100
0001
1000
0001
0010
0100
1000
0001
1000
0010
1000
0001
0100
,
0010
0000
0000
0000
0000
0000
1000
0010
0100
0001
1000
0001
0010
0001
1000
0100
0010
0001
1000
0100
1000
0001
1000
0010
,
0100
0000
0000
0000
0000
0000
0001
0100
0010
1000
0001
1000
0100
0010
0001
1000
0001
0100
0001
1000
0010
0100
0001
1000
,
0100
0010
0001
1000
0010
0100
0001
1000
0100
0010
0001
1000
0001
0100
0001
1000
0010
0100
0001
1000
0010
1000
0001
1000
,
0100
0000
0000
0000
0000
0000
1000
0001
0010
0100
1000
0001
0010
0001
1000
0001
0100
0010
1000
0001
1000
0100
1000
0001
,
0010
0000
0000
0000
0000
0000
0001
1000
0100
0010
0001
1000
0001
0100
0001
1000
0010
0100
0001
1000
0010
1000
0001
1000
,
0100
0000
0000
0000
0010
0001
1000
0001
0100
0010
1000
0001
0100
0010
1000
0001
,
0010
0000
0000
0100
0000
0000
1000
0000
0000
0000
0000
0000
0001
0000
0000
0000
0000
0000
0000
0000
0000
0000
0000
0000
0000
0000
0000
0000
0000
0000
1000
0000
0001
0000
1000
0000
0001
0000
0000
0000
0000
0000
0010
0000
0000
0000
0000
0000
,
0100
1000
0010
0000
0000
0100
0001
0000
,
0000
0000
0000
1000
0000
0000
0100
0000
0000
0000
0000
0000
0000
0000
0000
1000
0001
1000
0001
0000
0000
0010
0000
0000
,
0100
1000
0010
0000
0000
0000
0000
0000
,
0000
0000
0000
0110
0000
0000
0101
0000
0000
0000
0000
0000
0000
0000
0000
0010
1000
0010
1000
0000
0000
0001
0000
0000
,
0100
0000
0000
0010
0000
0000
1000
0000
0000
0000
0000
0000
0000
0000
0000
0001
0010
0001
0010
0000
0000
0000
0000
0000
,
0000
0000
0000
0100
1000
0001
0100
0000
0000
0010
0000
0000
1000
0000
0001
0100
0000
0000
0010
0000
0000
1000
0000
0000
,
0001
0010
0100
0000
0000
0000
0000
0000
,
0000
0000
MMMM
0000
,
1000
0001
1000
0100
1000
0100
0010
0001
1000
0001
0010
0100
1000
0100
1000
0100
,
0010
0100
0010
0001
0010
0100
1000
0001
1000
0010
0100
0001
1000
0010
0100
0001
,
1000
0100
1000
0100
0010
0001
1000
0001
0100
0010
0100
0001
1000
0010
1000
0001
,
0010
0001
1000
0100
0010
0001
1000
0100
1000
0001
0010
0100
0010
0100
1000
0001
,
1000
0010
1000
0010
1000
0001
1000
0001
0010
0100
1000
0001
1000
0100
0010
0001
,
1000
0010
1000
0010
0100
0010
1000
0001
0010
0100
0010
0001
1000
0001
0100
0010
,
1000
0001
0010
0001
0010
0100
0010
0001
1000
0001
0100
0010
1000
0001
0010
0001
,
1000
0010
1000
0001
0010
0100
1000
0001
1000
0010
1000
0010
0100
0010
1000
0001
,
2000
0000
0000
0000
0020
3000
0000
0000
,
0200
0030
0000
0000
0002
0300
0000
0000
,
2000
0000
0003
0000
0200
3000
0020
0000
0000
0300
0000
0000
0000
0000
0000
0000
,
0000
0000
0000
0000
,
0002
0030
0000
0000
2000
0003
0000
0000
,
0020
3000
0000
0000
0200
0030
0000
0000
,
0002
0000
0000
0300
0000
0000
0000
0000
,
2000
0003
0000
0200
0000
3000
0020
0300
,
0031
0000
0000
0000
0000
0000
0000
0000
0000
1000
0001
1000
0001
0000
0000
0010
0000
0000
0100
0000
0000
1000
0000
0000
,
0010
0000
0000
0100
0001
0000
0000
1000
,
0100
0000
0000
0000
0000
0000
0000
0000
0000
1000
0001
1000
0001
0000
0000
0100
0000
0000
0010
0000
0000
1000
0000
0000
,
0100
0000
0000
0000
0000
0000
0000
0010
,
0001
0000
0000
0000
0000
0000
0000
0000
0000
1000
0010
1000
0010
0000
0000
0100
0000
0000
0001
0000
0000
1000
0000
0000
,
0100
0000
0000
0000
0000
0000
0000
0000
0000
0010
0001
0010
0001
0000
0000
0000
0000
0000
0000
0000
0000
0010
0001
1000
,
0010
0000
0000
0100
0000
0000
0001
0000
1000
0010
0000
0000
0100
0000
0000
0001
0000
0000
1000
0000
0000
0100
0000
0000
,
0010
0001
0000
0010
0000
0001
0010
0100
1000
0001
0010
0001
1000
0010
0100
0001
,
1000
0010
0100
0001
1000
0001
0010
0001
1000
0100
0010
0001
1000
0100
1000
0001
1000
0010
0100
0000
0000
0000
0000
0000
,
0001
0100
0010
1000
0001
0100
0001
1000
0001
0010
0100
1000
0001
1000
0010
1000
0001
0100
0010
0000
0000
0000
0000
0000
,
1000
0010
0100
0001
1000
0001
0010
0001
1000
0100
0010
0001
1000
0100
1000
0001
1000
0010
0100
0000
0000
0000
0000
0000
,
0001
0100
0010
1000
0001
1000
0100
0010
0001
1000
0001
0100
0001
1000
0010
0100
0001
1000
0100
0010
0001
1000
0010
0100
,
0001
1000
0100
0010
0001
1000
0001
0100
0001
1000
0010
0100
0001
1000
0010
1000
0001
1000
0100
0000
0000
0000
0000
0000
,
1000
0001
0010
0100
1000
0001
0010
0001
1000
0001
0100
0010
1000
0001
1000
0100
1000
0001
0010
0000
0000
0000
0000
0000
,
0001
1000
0100
0010
0001
1000
0001
0100
0001
1000
0010
0100
0001
1000
0010
1000
0001
1000
0100
0000
0000
0000
0000
0000
,
0010
0001
1000
0001
0010
0100
1000
0001
1000
0010
0100
0001
1000
0100
0010
0000
,
0001
0100
0010
1000
0001
1000
0100
1000
0001
0010
0100
1000
0001
0010
0001
1000
0001
0100
0010
0000
0000
0000
0000
0000
,
1000
0010
0100
0001
1000
0010
1000
0001
1000
0100
0010
0001
1000
0001
0100
0001
1000
0010
0100
0000
0000
0000
0000
0000
,
0001
0100
0010
1000
0001
1000
0100
1000
0001
0010
0100
1000
0001
0010
0001
1000
0001
0100
0010
0000
0000
0000
0000
0000
,
1000
0010
0100
0001
1000
0001
0010
0100
1000
0001
1000
0010
1000
0001
0100
0010
1000
0001
0010
0100
1000
0001
0100
0010
,
1000
0000
0010
0000
1000
0001
0100
0010
1000
0001
0010
0100
0000
1000
0100
0010
,
0001
0000
0100
0000
0010
1000
0001
0100
0001
1000
0010
0100
0000
0001
0100
0010
,
1000
0000
0001
0000
1000
0100
0010
0001
0010
0100
1000
0001
0000
0100
0010
1000
,
0001
0100
0010
1000
0001
0010
0100
1000
0001
0100
0010
0100
0001
1000
0100
0010
,
0002
0000
0000
0000
,
0000
0000
0000
0000
,
0003
0000
0000
0000
;

//---------------dance-single - Mad Matt----------------
#NOTES:
     dance-single:
     Mad Matt:
     Easy:
     17:
     1.000,1.000,0.024,0.129,1.000,1017.000,3.000,16.000,4.000,0.000:



0000
0000
0000
0000
0000
0000
0000
0000
0000
0000
0000
0000
0000
0000
0000
1000
0001
1000
0001
0000
0000
0010
0000
0000
,
0100
1000
0010
0000
0000
0100
0001
0000
,
0000
0000
0000
1000
0000
0000
0100
0000
0000
0000
0000
0000
0000
0000
0000
1000
0001
1000
0001
0000
0000
0100
0000
0000
,
0010
1000
0100
0000
0000
0000
0000
0000
,
0000
0000
0000
1000
0000
0000
1001
0000
0000
0000
0000
0000
0000
0000
0000
0001
1000
0001
1000
0000
0000
0010
0000
0000
,
0100
0000
0000
0001
0000
0000
1000
0000
0000
0000
0000
0000
0000
0000
0000
0001
0010
0001
0010
0000
0000
0000
0000
0000
,
0000
0000
0000
0100
1000
0001
0100
0000
0000
0010
0000
0000
1000
0000
0001
0100
0000
0000
0010
0000
0000
1000
0000
0000
,
0001
0000
0010
0000
0100
1000
0000
0100
0000
1000
0000
0001
0100
0010
1000
0001
,
0010
0100
1000
0001
1000
0000
0001
0000
0100
0000
0001
0000
1000
0100
0010
0001
,
1000
0001
0100
0000
0010
0000
1000
0000
0001
0000
1000
0000
0001
0010
0100
1000
,
0001
0100
0010
0000
1000
0000
0010
0000
0100
0000
0001
0000
1000
0100
1000
0001
,
0100
0010
1000
0000
0001
0000
1000
0000
0100
0000
0010
0000
0001
1000
0010
0100
,
0001
1000
0100
0010
0001
0000
1000
0000
0010
0000
1000
0000
0001
0100
0010
1000
,
0001
0010
0100
0000
0010
0000
0001
0000
1000
0000
0001
0000
1000
0010
0100
0001
,
1000
0100
0010
0000
0001
0000
0100
0000
0010
0000
1000
0000
0001
0010
0100
1000
,
0001
0100
0010
0000
1000
0001
0010
0001
1000
0010
0100
0010
1000
0001
0010
0100
,
1000
0001
0100
0000
0001
0000
1000
0000
0001
0010
0100
1000
0100
0010
0001
1000
,
0010
0100
0001
1000
0010
0000
0100
0000
0001
0010
0100
1000
0100
0010
0001
1000
,
0010
0100
0001
1000
0100
0000
0010
0000
0001
1000
0010
0100
0001
0000
0010
0000
,
0100
1000
0001
0100
0010
0000
0100
0000
0001
0000
1000
0000
0100
0010
0001
0100
,
0010
1000
0001
0010
0100
0000
1000
0000
0001
0010
0100
1000
0001
1000
0100
0010
,
0001
1000
0010
0100
0001
0000
1000
0000
0001
0010
0100
1000
0001
1000
0100
0010
,
0001
1000
0010
0100
0001
0000
1000
0000
0001
0010
0100
1000
0001
0000
0010
0000
,
0001
1000
0010
0100
0001
0100
0010
1000
0100
0010
0001
0100
0010
1000
0001
0100
,
0010
0000
0000
1000
0000
0000
0001
0000
0000
0000
0000
0000
1000
0000
0010
0000
0100
0000
0001
0000
1000
0000
0010
0000
1000
0000
0001
0000
1000
0000
0100
0000
0010
0000
0001
0000
1000
0000
0100
0000
0010
0000
0001
0000
1000
0000
0001
0000
,
0010
0001
1000
0100
0010
0001
1000
0001
0100
0001
1000
0010
0100
0001
1000
0010
0100
0001
1000
0001
0010
0001
1000
0100
,
0010
0001
1000
0100
0010
0001
1000
0100
1000
0001
0010
0100
1000
0001
1000
0010
0100
0001
1000
0010
1000
0001
0100
0010
,
1000
0000
0001
0000
0100
0000
0010
0000
1000
0000
0001
0000
1000
0000
0100
0000
0010
0000
0001
0000
1000
0000
0100
0000
0010
0000
0001
0000
1000
0000
0100
0000
1000
0000
0001
0000
0010
0000
0000
0100
0000
0000
1000
0000
0000
0001
0000
0000
,
0100
0000
0000
0010
0000
0000
1000
0000
0000
0001
0000
0000
0010
0000
0001
0000
1000
0000
0100
0000
0010
0000
0001
0000
1000
0000
0100
0000
0010
0000
0001
0000
1000
0000
0001
0000
0100
0000
0001
0000
1000
0000
0010
0000
0100
0000
0001
0000
,
1000
0010
0100
0001
1000
0001
0010
0001
1000
0100
1000
0001
0010
0100
1000
0001
0010
0001
1000
0001
0100
0010
1000
0001
,
1000
0010
0100
0001
1000
0010
1000
0001
0100
0010
1000
0001
1000
0100
1000
0001
0010
0100
1000
0001
0010
0100
1000
0001
,
0010
0000
0100
0000
1000
0000
0001
0000
1000
0000
0010
0000
0100
0000
0000
0001
0000
0000
1000
0000
0000
0001
0000
0000
0100
0000
0000
0010
0000
0000
1000
0000
0000
0001
0000
0000
0100
0000
0000
0010
0000
0000
1000
0000
0000
0001
0000
0000
,
0010
0000
0000
0100
0000
0000
1000
0000
0000
0000
0000
0000
0001
0000
0000
0000
0000
0000
0000
0000
0000
0000
0000
0000
0000
0000
0000
0000
0000
0000
1000
0000
0001
0000
1000
0000
0001
0000
0000
0000
0000
0000
0010
0000
0000
0000
0000
0000
,
0100
1000
0010
0000
0000
0100
0001
0000
,
0000
0000
0000
1000
0000
0000
0100
0000
0000
0000
0000
0000
0000
0000
0000
1000
0001
1000
0001
0000
0000
0010
0000
0000
,
0100
1000
0010
0000
0000
0000
0000
0000
,
0000
0000
0000
0110
0000
0000
0101
0000
0000
0000
0000
0000
0000
0000
0000
0010
1000
0010
1000
0000
0000
0001
0000
0000
,
0100
0000
0000
0010
0000
0000
1000
0000
0000
0000
0000
0000
0000
0000
0000
0001
0010
0001
0010
0000
0000
0000
0000
0000
,
0000
0000
0000
0100
1000
0001
0100
0000
0000
0010
0000
0000
1000
0000
0001
0100
0000
0000
0010
0000
0000
1000
0000
0000
,
0001
0010
0100
0000
0000
0000
0000
0000
,
0000
0000
MMMM
0000
,
1000
0001
1000
0100
1000
0100
0010
0001
1000
0001
0010
0100
1000
0100
1000
0100
,
0010
0100
0010
0001
0010
0100
1000
0001
1000
0010
0100
0001
1000
0010
0100
0001
,
1000
0100
1000
0100
0010
0001
1000
0001
0100
0010
0100
0001
1000
0010
1000
0001
,
0010
0001
1000
0100
0010
0001
1000
0100
1000
0001
0010
0100
0010
0100
1000
0001
,
1000
0010
1000
0010
1000
0001
1000
0001
0010
0100
1000
0001
1000
0100
0010
0001
,
1000
0010
1000
0010
0100
0010
1000
0001
0010
0100
0010
0001
1000
0001
0100
0010
,
1000
0001
0010
0001
0010
0100
0010
0001
1000
0001
0100
0010
1000
0001
0010
0001
,
1000
0010
1000
0001
0010
0100
1000
0001
1000
0010
1000
0010
0100
0010
1000
0001
,
2000
0000
0000
0000
0020
3000
0000
0000
,
0200
0030
0000
0000
0002
0300
0000
0000
,
2000
0000
0003
0000
0200
3000
0020
0000
0000
0300
0000
0000
0000
0000
0000
0000
,
0000
0000
0000
0000
,
0002
0030
0000
0000
2000
0003
0000
0000
,
0020
3000
0000
0000
0200
0030
0000
0000
,
0002
0000
0000
0300
0000
0000
0000
0000
,
2000
0003
0000
0200
0000
3000
0020
0300
,
0031
0000
0000
0000
0000
0000
0000
0000
0000
1000
0001
1000
0001
0000
0000
0010
0000
0000
0100
0000
0000
1000
0000
0000
,
0010
0000
0000
0100
0001
0000
0000
1000
,
0100
0000
0000
0000
0000
0000
0000
0000
0000
1000
0001
1000
0001
0000
0000
0100
0000
0000
0010
0000
0000
1000
0000
0000
,
0100
0000
0000
0000
0000
0000
0000
0010
,
0001
0000
0000
0000
0000
0000
0000
0000
0000
1000
0010
1000
0010
0000
0000
0100
0000
0000
0001
0000
0000
1000
0000
0000
,
0100
0000
0000
0000
0000
0000
0000
0000
0000
0010
0001
0010
0001
0000
0000
0000
0000
0000
0000
0000
0000
0010
0001
1000
,
0010
0000
0000
0100
0000
0000
0001
0000
1000
0010
0000
0000
0100
0000
0000
0001
0000
0000
1000
0000
0000
0100
0000
0000
,
0010
0001
0000
0010
0000
0001
0010
0100
1000
0001
0010
0001
1000
0010
0100
0001
,
1000
0010
0100
0001
1000
0010
1000
0001
1000
0100
0010
0001
1000
0100
0010
0001
1000
0001
0010
0001
1000
0100
0010
0001
,
1000
0001
0100
0001
1000
0010
0100
0001
1000
0010
0100
0001
1000
0001
0010
0001
1000
0100
0010
0001
1000
0100
0010
0001
,
1000
0100
1000
0001
0010
0100
1000
0001
1000
0010
0100
0001
1000
0010
1000
0001
0100
0010
1000
0001
0100
0010
1000
0001
,
1000
0000
0100
0000
0010
0000
0001
0000
1000
0000
0100
0000
0010
0000
0001
0000
1000
0000
0100
0000
1000
0000
0001
0000
0010
0000
0000
0100
0000
0000
1000
0000
0000
0001
0000
0000
0100
0000
0000
0010
0000
0000
1000
0000
0000
0001
0000
0000
,
0010
0001
1000
0100
0010
0001
1000
0100
0010
0001
1000
0001
0100
0001
1000
0010
0100
0001
1000
0010
0100
0001
1000
0001
,
0010
0001
1000
0100
1000
0001
0010
0100
1000
0001
0010
0001
1000
0001
0100
0010
1000
0001
1000
0010
0100
0001
1000
0010
,
1000
0001
0100
0010
1000
0001
1000
0100
1000
0001
0010
0100
1000
0001
0010
0100
1000
0001
0010
0100
1000
0001
1000
0010
,
0100
0001
1000
0001
0010
0100
1000
0001
1000
0010
0100
0001
1000
0100
0010
0000
,
0001
0100
0010
1000
0001
0100
0001
1000
0001
0010
0100
1000
0001
0010
0100
1000
0001
1000
0100
1000
0001
0010
0100
1000
,
0001
1000
0010
1000
0001
0100
0010
1000
0001
0100
0010
1000
0001
1000
0100
1000
0001
0010
0100
1000
0001
0010
0100
1000
,
0001
0010
0001
1000
0100
0010
0001
1000
0001
0100
0010
1000
0001
0100
0001
1000
0010
0100
0001
1000
0010
0100
0001
1000
,
0001
0000
0010
0000
0100
0000
1000
0000
0001
0000
0010
0000
0100
0000
1000
0000
0001
0000
0010
0000
0001
0000
1000
0000
0100
0000
0000
0010
0000
0000
0001
0000
0000
1000
0000
0000
0010
0000
0000
0100
0000
0000
0001
0000
0000
1000
0000
0000
,
0001
0000
0100
0000
0001
1000
0010
0100
0001
1000
0100
0010
0000
0001
0010
0100
,
1000
0000
0010
0000
0100
0001
1000
0010
1000
0001
0100
0010
0000
1000
0010
0100
,
0001
0000
1000
0000
0001
0010
0100
1000
0100
0010
0001
1000
0000
0010
0100
0001
,
1000
0010
0100
0001
1000
0100
0010
0001
1000
0010
0100
0010
1000
0001
0010
0100
,
2000
0000
0000
0000
,
0000
0000
0000
0000
,
3000
0000
0000
0000
;
