#TITLE:Apetenodytes Disco Type.4.0;
#SUBTITLE:;
#ARTIST:DJ Sharpnel;
#TITLETRANSLIT:;
#SUBTITLETRANSLIT:;
#ARTISTTRANSLIT:;
#CREDIT:;
#BANNER:apetenodytes bn.png;
#BACKGROUND:apetenodytes bg.png;
#LYRICSPATH:;
#CDTITLE:;
#MUSIC:Apetenodytes Disco.ogg;
#OFFSET:-1.226;
#SAMPLESTART:170.991;
#SAMPLELENGTH:18.731;
#SELECTABLE:YES;
#DISPLAYBPM:205.000;
#BPMS:0.000=205.000;
#STOPS:;
#BGCHANGES:;
// cache tags:
#FIRSTBEAT:28.000;
#LASTBEAT:1092.000;
#SONGFILENAME:Songs/SHARPNELSTREAMZ v2/Apetenodytes Disco Type04/Apetenodytes Disco.sm;
#HASMUSIC:1;
#HASBANNER:1;
#MUSICLENGTH:322.429;
// end cache tags

//---------------dance-single - 16+ (TYLR)----------------
#NOTES:
     dance-single:
     16+ (TYLR):
     Challenge:
     16:
     1.000,1.000,0.245,0.357,1.000,2890.000,79.000,115.000,114.000,0.000:
0000
0000
0000
0000
,
0000
0000
0000
0000
,
0000
0000
0000
0000
,
0000
0000
0000
0000
,
0000
0000
0000
0000
,
0000
0000
0000
0000
,
0000
0000
0000
0000
,
1000
0000
0100
0010
0000
0100
1000
0000
,
0010
0200
0301
0100
,
0010
0000
1000
0100
0000
0010
0001
0000
,
0100
0000
0010
0000
1000
0000
0010
0100
,
0001
0000
0001
0100
0001
0010
0000
0200
,
0000
0000
0000
0000
0000
0000
0000
0300
,
0010
0100
0010
0000
0001
0010
0001
0000
1000
0001
1000
0000
1001
0000
0000
0000
,
0101
0000
1010
0000
0001
0010
1100
0000
,
0001
0000
0110
0000
1000
0001
0110
0000
,
1000
0000
0011
0000
0100
1000
1001
0000
,
0100
0000
1010
0000
1000
0001
0011
0000
,
1001
0000
0000
0000
1100
0000
0000
0000
0011
0000
0000
0000
1001
0000
0001
0100
,
0010
0000
1010
1000
0001
1000
1010
0010
,
0100
1001
1100
1001
,
0M11
0M00
1M01
0M00
1M10
1M00
1M01
0M01
,
0202
0303
2020
3030
2200
3300
0022
0033
,
2002
3003
0220
0330
0202
0303
2020
3030
,
2200
3300
0022
0033
0220
0330
0022
0033
,
2002
3003
0220
0330
1001
0001
0011
0010
,
2200
3300
2002
3003
0220
0330
0022
0033
,
2200
3300
2002
3003
0220
0330
2020
3030
,
0202
0303
2020
3030
0220
0330
2002
3003
,
1001
0000
0000
0000
0001
0000
0001
1000
0100
0000
0000
0000
0022
0000
0033
0000
,
1001
1000
0100
0010
0100
1000
0001
0100
,
0010
0010
1000
0010
0100
0001
0001
1000
,
0100
0010
0001
0100
0010
1000
0001
1000
,
0100
0100
0010
0001
1000
0001
0001
0001
,
1000
0010
0100
0001
0010
0001
0100
0010
,
1000
0001
0010
0100
1000
0100
0010
0001
,
0100
0001
0010
0100
1000
0010
1000
0001
,
0011
0000
0000
0000
1001
0000
1000
0010
0100
0000
0000
0000
0202
0000
0303
0000
,
1MM1
0000
1000
0100
1000
0000
0001
0100
0010
0000
1000
0000
0100
0000
0010
0001
,
0010
0000
0100
1000
0001
0000
1000
0010
0100
0000
0001
0000
1000
0000
1000
0000
,
0100
0000
0010
0001
0010
0000
0001
0100
0001
0000
1000
0000
0100
0000
0010
0001
,
0010
0000
0000
0000
0000
0000
0001
0000
0000
0100
0000
0000
0001
0000
0000
0000
0000
0000
0100
0000
0000
0010
0000
0000
1000
0000
0000
0000
0000
0000
1000
0000
0000
0000
0000
0000
0001
0000
0000
0000
0000
0000
1000
0000
0001
0000
1000
0000
,
0001
0000
1000
0010
1000
0000
0001
0010
0100
0000
1000
0000
0010
0000
0100
0001
,
0100
0000
0010
1000
0001
0000
1000
0100
0010
0000
0001
0000
1000
0000
1000
0000
,
0010
0000
0100
0001
0100
0000
0001
0010
0001
0000
1000
0000
0010
0000
0100
0001
,
0040
0000
0030
0000
0040
0000
0030
0000
0100
0000
0100
1000
0200
0000
0300
0000
,
1001
0000
0001
0010
0001
0000
1000
0010
0100
0000
0001
0000
0010
0000
0100
1000
,
0100
0000
0010
0001
1000
0000
0001
0100
0010
0000
1000
0000
0001
0000
0001
0000
,
0010
0000
0100
1000
0100
0000
1000
0010
1000
0000
0001
0000
0010
0000
0100
1000
,
0100
0000
0000
0000
0000
0000
1000
0000
0000
0010
0000
0000
1000
0000
0000
0000
0000
0000
0010
0000
0000
0100
0000
0000
0001
0000
0000
0000
0000
0000
0001
0000
0000
0000
0000
0000
1000
0000
0000
0000
0000
0000
0001
0000
1000
0000
0001
0000
,
1000
0000
0001
0100
0001
0000
1000
0100
0010
0000
0001
0000
0100
0000
0010
1000
,
0010
0000
0100
0001
1000
0000
0001
0010
0100
0000
1000
0000
0001
0000
0001
0000
,
M100
0000
0010
1000
0010
0000
1000
0100
10M0
0000
0001
0000
0100
0000
0010
1000
,
010M
0000
0040
0030
0040
0030
0001
0000
0M40
0030
0040
0130
1000
0001
1000
0001
,
0100
0000
0001
0000
0000
0000
0001
0000
0010
0000
0100
0000
1000
0000
0001
0100
,
0000
0000
0010
0000
1000
0000
0001
0100
0000
0000
0000
0000
0010
0000
0000
0000
,
1000
0000
0001
0000
0000
0000
0001
0000
0010
0000
0100
0000
1000
0000
0010
0100
,
0000
0000
0001
0000
1000
0000
0010
0100
0000
0000
0000
0000
0001
0000
0000
0000
,
1000
0000
0000
0000
0100
0000
0000
0010
0000
0000
0001
0000
0000
0000
0010
0001
,
0100
0000
0010
0000
1000
0000
0001
1000
0000
0000
0000
0000
0001
0000
0000
0000
,
0010
0000
0100
0000
0000
0000
1000
0000
0010
0000
0100
0000
0001
0000
0010
0100
,
0000
0000
1000
0000
0001
0000
1000
0001
0000
0000
0000
0000
0100
0000
0000
0000
,
0010
0000
1000
0000
0000
0000
1000
0000
0100
0000
0010
0000
0001
0000
1000
0010
,
0000
0000
0100
0000
0001
0000
1000
0010
0000
0000
0000
0000
0100
0000
0000
0000
,
0001
0000
1000
0000
0000
0000
1000
0000
0100
0000
0010
0000
0001
0000
0100
0010
,
0000
0000
1000
0000
0001
0000
0100
0010
0000
0000
0000
0000
1000
0000
0000
0000
,
0100
0000
0000
0010
0000
0000
0000
0000
0001
0000
0000
1000
0000
0001
0000
1000
,
0010
0000
0100
0000
0001
0000
1000
0001
0000
0000
0000
0000
1000
0000
0000
0000
,
0100
0000
0010
0000
0000
0000
0001
0000
0100
0000
0010
0000
1000
0000
0100
0010
,
0000
0000
0001
0000
1000
0000
0001
1000
0000
0000
0000
0000
0010
0000
0000
0000
,
0110
0000
0000
0004
,
1003
0100
0010
0001
1000
0100
0010
0001
1000
0010
0100
0001
0010
0001
0100
0010
,
1000
0010
0100
0001
1000
0010
0100
0001
1000
0100
1000
0001
0100
0010
1000
0001
,
1000
0100
0010
0001
1000
0100
0010
0001
1000
0010
0100
0001
0010
0001
0100
0010
,
1000
0001
0100
0001
1000
0001
0100
0001
0010
0100
0010
0001
1000
0001
0100
0010
,
1000
0010
0100
0001
1000
0100
0010
0001
0100
0001
1000
0100
0010
0001
1000
0001
,
0100
0010
1000
0001
1000
0100
0010
0001
0100
0001
0010
0100
1000
0001
0100
0001
,
0010
0100
0010
0001
1000
0001
0100
0010
1000
0010
0100
0001
1000
0100
0010
0001
,
0400
0000
0300
0000
0400
0000
0300
0000
0001
0000
0001
1000
0200
0000
0300
0000
,
1000
0100
0010
0001
1000
0010
0100
0001
1000
0100
0010
0001
0100
0001
0010
0100
,
1000
0100
0010
0001
1000
0010
0100
0001
1000
0100
1000
0001
0100
0010
1000
0001
,
1000
0100
0010
0001
1000
0010
0100
0001
1000
0100
0010
0001
0100
0001
0010
0100
,
1000
0001
0100
0001
1000
0100
0010
0001
0100
0001
0010
0100
1000
0001
0100
0010
,
1000
0010
0100
0001
1000
0100
0010
0001
0100
0001
1000
0100
0010
0001
1000
0001
,
0100
0010
1000
0001
1000
0100
0010
0001
0100
0001
0010
0100
1000
0001
0100
0001
,
0010
0100
0010
0001
1000
0001
0100
0010
1000
0010
0100
0001
1000
0100
0010
0001
,
2000
0000
3000
0000
2000
0000
3000
0000
0001
0000
0001
0010
0100
0000
0000
0000
,
1100
0000
1000
0100
0010
0000
0001
0010
0001
0000
0100
0000
0010
0000
1000
0001
,
1000
0000
0100
1000
0001
0000
1000
0010
0100
0000
0001
0000
1000
0000
1000
0000
,
0100
0000
0010
0001
0010
0000
0001
0100
0001
0000
1000
0000
0100
0000
0010
0001
,
0010
0000
0000
0000
0000
0000
0001
0000
0000
0100
0000
0000
0001
0000
0000
0000
0000
0000
0100
0000
0000
0010
0000
0000
1000
0000
0000
0000
0000
0000
1000
0000
0000
0000
0000
0000
0001
0000
0000
0000
0000
0000
1000
0000
0001
0000
1000
0000
,
0001
0000
1000
0010
1000
0000
0001
0010
0100
0000
1000
0000
0010
0000
0100
0001
,
0100
0000
0010
1000
0001
0000
1000
0100
0010
0000
0001
0000
1000
0000
1000
0000
,
0010
0000
0100
0001
0100
0000
0001
0010
0001
0000
1000
0000
0010
0000
0100
0001
,
0020
0000
0030
0000
0020
0000
0030
0000
0100
0000
0100
1000
0200
0000
0300
0000
,
1001
0000
0001
0010
0001
0000
1000
0010
0100
0000
0001
0000
0010
0000
0100
1000
,
0100
0000
0010
0001
1000
0000
0001
0100
0010
0000
1000
0000
0001
0000
0001
0000
,
0010
0000
0100
1000
0100
0000
1000
0010
1000
0000
0001
0000
0010
0000
0001
1000
,
0100
0000
0100
0000
0100
0000
0100
0000
0100
0000
0100
0000
0100
0000
4000
3000
,
0010
M00M
0010
0000
0001
0000
1000
0010
0100
M00M
0100
0000
1000
0000
0001
0100
,
0010
M00M
0010
0000
0001
0000
1000
0010
0100
M00M
0100
0000
1000
0000
0001
0100
,
0010
M00M
0010
0000
0001
0000
1000
0010
0100
M00M
0100
0000
1000
0000
0001
0100
,
0010
0000
2000
3000
2000
3000
0100
0000
0020
0030
0020
0030
0001
0010
0001
0010
,
0200
0000
0000
0000
0000
0000
0000
0000
000M
0000
0000
0000
M000
0000
0000
00M0
,
0000
0000
0000
000M
0000
M000
0000
0000
00M0
0000
M000
0000
000M
0000
0000
00M0
,
0300
M000
000M
0M00
000M
M000
00M0
0M00
,
000M
0000
M000
0000
0000
0M00
0000
000M
0000
M000
0000
0000
00M0
0000
0M00
0000
,
000M
0000
0000
00M0
0000
0000
M000
0000
,
0M00
0000
0000
000M
0000
0000
M000
0000
,
00M0
0000
0000
0M00
0000
0000
000M
M000
,
0000
0000
0000
0000
0000
0000
0000
0000
M000
0000
0000
0000
0000
0000
0000
0000
M000
M000
M000
M000
M000
M000
M000
M000
M000
M000
M000
M000
M000
M000
M000
M000
M002
0000
0000
0000
0000
0000
0000
0000
0000
0000
0000
0000
0000
0000
0000
0000
0023
0000
0000
0000
0000
0000
0000
0000
0000
0000
0000
0000
0000
0000
0030
0000
,
2100
0000
0100
0000
3100
0010
0001
1000
,
0001
0000
0010
0000
0010
0000
0001
0010
0000
0001
0010
0000
0100
0000
0010
0000
,
0001
0000
1000
0000
1000
0000
0001
1000
0000
0001
1000
0000
0010
0000
1000
0000
,
0001
0000
0100
0000
0100
0000
0001
0100
0000
0001
0100
0100
1000
0000
0100
0100
,
0001
0000
0100
0000
0100
0000
0001
0100
0000
0001
0100
0000
0010
0000
0100
0000
,
0001
0000
0010
0000
0001
0000
0001
0010
0000
0001
0010
0000
0100
0000
0010
0000
,
0001
0000
1000
0000
1000
0000
0001
1000
0000
0001
1000
0000
0100
0000
1000
0000
,
00M1
00M0
01M0
00M0
01M0
00M0
00M1
01M0
00M0
00M1
01M0
01M0
10M0
00M0
00M1
00M0
,
10M1
0000
1000
0100
0000
0100
1000
0000
,
1001
0000
0001
0100
0000
0100
0001
0000
,
0010
0000
0100
0000
0000
0000
1000
0100
1000
0000
0100
0000
0010
0001
0010
0001
,
1000
0000
0001
1000
0000
1010
0000
0010
,
0100
0001
1000
0001
0100
0100
0010
0000
,
1000
0000
0001
1000
0000
0001
0010
0001
,
0100
0001
1000
0100
0010
0000
0001
1000
,
0010
0010
0100
0001
1000
1000
0001
0000
,
1001
0000
0000
0000
,
0001
0000
0001
0000
0001
0000
0001
0000
0001
0000
1000
0001
1000
0000
0000
0000
,
0001
0010
0100
1000
0001
1000
0100
0010
0001
1000
0010
0100
0001
1000
0010
1000
,
0001
1000
0100
0010
0100
1000
0001
0010
0100
1000
0001
0010
0001
1000
0001
1000
,
0001
0100
0010
1000
0001
1000
0010
0100
0001
1000
0100
0010
0100
1000
0001
0100
,
0010
0000
0000
0100
0000
0000
0001
0000
0000
1000
0000
0000
0100
0000
0000
1000
0000
0000
0001
0000
0000
0010
0000
0000
0100
0000
0000
0000
0000
0000
0100
0000
0000
0000
0000
0000
0100
0000
0000
0000
0000
0000
1000
0000
0100
0000
1000
0000
,
0100
0010
0001
1000
0001
0010
0100
1000
0010
1000
0001
1000
0100
0010
0100
1000
,
0001
0010
0001
1000
0001
0100
0010
0100
0001
1000
0010
1000
0001
0010
0100
1000
,
0010
0100
0010
1000
0100
0010
0100
1000
0001
0100
0001
1000
0010
0100
0001
1000
,
0004
0000
0003
0000
0004
0000
0003
0000
0100
0000
0100
0001
2000
0000
3000
0000
,
0001
1000
0100
1000
0001
1000
0100
1000
0001
1000
0010
0100
0001
1000
0001
0100
,
0010
1000
0001
1000
0010
0100
0001
1000
0100
0010
0100
1000
0001
0010
0001
0100
,
0010
1000
0010
1000
0010
1000
0001
1000
0010
0100
0001
0010
0001
1000
0010
1000
,
0001
0000
0000
0100
0000
0000
0010
0000
0000
1000
0000
0000
0001
0000
0000
1000
0000
0000
0010
0000
0000
0100
0000
0000
0001
0000
0000
1000
0000
0000
0001
0000
0000
0100
0000
0000
0001
0000
0000
0000
0000
0000
1000
0000
0001
0000
1000
0000
,
0001
0010
0100
1000
0001
0010
0001
0010
0100
1000
0001
0100
0010
1000
0001
1000
,
0010
0100
0001
1000
0001
0010
0100
1000
0001
0100
0001
0100
0010
1000
0100
0010
,
0100
1000
0001
0100
0001
1000
0010
1000
0001
0010
0001
0010
0100
1000
0001
0010
,
0001
1000
0001
1000
0001
0000
0100
0000
0001
0000
0001
0000
0040
0000
0000
0000
,
0031
1000
0100
1000
0001
1000
0100
0010
0001
1000
0010
0100
0001
1000
0010
1000
,
0001
1000
0100
0010
0100
1000
0001
0010
0100
1000
0001
0010
0001
1000
0001
1000
,
0001
0100
0010
1000
0001
1000
0010
0100
0001
1000
0100
0010
0100
1000
0001
0100
,
0010
0000
0000
0100
0000
0000
0001
0000
0000
1000
0000
0000
0100
0000
0000
0010
0000
0000
0100
0000
0000
1000
0000
0000
0010
0000
0000
0000
0000
0000
0010
0000
0000
0000
0000
0000
0010
0000
0000
0000
0000
0000
0100
0000
0001
0000
0100
0000
,
0001
1000
0010
0100
0001
0100
0010
1000
0001
1000
0100
0010
0001
0010
0100
1000
,
0001
0010
0001
1000
0001
0100
0010
0100
0001
1000
0010
1000
0001
0010
0100
1000
,
0010
0100
0010
1000
0100
0010
0100
1000
0001
0100
0001
1000
0010
0100
0001
1000
,
0004
0000
0003
0000
0004
0000
0003
0000
0100
0000
0100
0001
2000
0000
3000
0000
,
0001
1000
0100
1000
0001
1000
0100
1000
0001
1000
0010
0100
0001
1000
0001
0100
,
0010
1000
0001
1000
0010
0100
0001
1000
0100
0010
0100
1000
0001
0010
0001
0100
,
0010
1000
0010
1000
0010
1000
0001
1000
0010
0100
0001
0010
0001
1000
0010
1000
,
0001
0000
0000
0100
0000
0000
0010
0000
0000
1000
0000
0000
0001
0000
0000
0010
0000
0000
0100
0000
0000
1000
0000
0000
0010
0000
0000
0100
0000
0000
0001
0000
0000
1000
0000
0000
0001
0000
0000
0000
0000
0000
1000
0000
0001
0000
1000
0000
,
0001
0010
0100
1000
0001
0010
0001
0010
0100
1000
0001
0100
0010
1000
0001
1000
,
0010
0100
0001
1000
0001
0010
0100
1000
0001
0100
0001
0100
0010
1000
0100
0010
,
0001
0001
0001
0001
,
1000
0001
1000
0001
1000
0000
0001
0000
1000
0000
1000
0000
0040
0000
0000
0000
,
1030
0001
1000
0001
0100
0001
1000
0001
0100
0001
1000
0010
1000
0010
0100
0001
,
1000
0100
1000
0100
0010
0001
1000
0100
0010
0001
1000
0001
1000
0001
0100
0010
,
1000
0001
1000
0001
0010
0001
1000
0001
0010
0100
1000
0001
1000
0001
0010
0001
,
1000
0010
1000
0010
0100
0001
1000
0010
1000
0010
0100
0001
1000
0001
1000
0001
,
1000
0100
1000
0100
0010
0001
1000
0100
0010
0001
1000
0100
1000
0100
0010
0001
,
1000
0001
1000
0010
0100
0001
1000
0001
1000
0010
0100
0001
0100
0001
1000
0001
,
0010
0100
0010
0100
1000
0001
0010
0100
1000
0001
0100
0001
0100
0010
1000
0001
,
1000
0100
0010
0001
0010
0001
1000
0100
0010
0001
1000
0001
1000
0001
0100
0010
,
1000
0001
1000
0001
0100
0001
1000
0001
0100
0001
1000
0010
1000
0010
0100
0001
,
1000
0100
1000
0100
0010
0001
1000
0100
0010
0001
1000
0001
1000
0001
0100
0010
,
1000
0001
1000
0001
0010
0001
1000
0001
0010
0100
1000
0001
1000
0001
0010
0001
,
1000
0010
1000
0010
0100
0001
1000
0010
1000
0010
0100
0001
1000
0001
1000
0001
,
0020
0000
0000
0000
0000
0000
0031
2000
,
0000
0000
3010
0200
0000
0000
0302
0000
,
0013
0100
1000
0002
0000
0000
0000
0003
,
0401
0000
0300
0000
0401
0000
0300
0000
0110
0000
0010
1000
0002
0000
0003
0000
,
1000
0100
0010
0001
1000
0001
1000
0010
0100
0001
0100
0001
1000
0001
1000
0100
,
0010
0001
0010
0001
1000
0001
1000
0010
0100
0001
0100
0001
0010
0100
1000
0001
,
1000
0010
0100
0001
1000
0001
1000
0100
0010
0001
0010
0001
1000
0001
1000
0010
,
0100
0000
0000
0001
0000
0000
0100
0000
0000
0001
0000
0000
1000
0000
0000
0001
0000
0000
1000
0000
0000
0100
0000
0000
0010
0000
0000
0001
0000
0000
0010
0000
0000
0001
0000
0000
1000
0000
0000
0000
0000
0000
0001
0000
1000
0000
0001
0000
,
1000
0010
0100
0001
1000
0001
1000
0100
0010
0001
0010
0001
1000
0010
1000
0010
,
0100
0001
0100
0001
1000
0100
1000
0100
0010
0001
0010
0001
0010
0001
0100
0010
,
1000
0100
0010
0001
1000
0001
1000
0010
0100
0001
0100
0001
1000
0001
1000
0100
,
0010
0001
0010
0001
1000
0001
1000
0010
0100
0001
0100
0001
0010
0100
1000
0001
,
1000
0010
0100
0001
1000
0001
1000
0100
0010
0001
0010
0001
1000
0001
1000
0010
,
0100
0001
0100
0001
1000
0001
1000
0100
0010
0001
0010
0001
0100
0010
1000
0001
,
1000
0100
0010
0001
1000
0001
1000
0010
0100
0001
0100
0001
1000
0001
1000
0100
,
0010
0000
0000
0001
0000
0000
0010
0000
0000
0001
0000
0000
1000
0000
0000
0001
0000
0000
1000
0000
0000
0010
0000
0000
0100
0000
0000
0001
0000
0000
0100
0000
0000
0001
0000
0000
1000
0000
0000
0000
0000
0000
0001
0000
1000
0000
0001
0000
,
1000
0100
0010
0001
1000
0001
1000
0010
0100
0001
0100
0001
1000
0100
1000
0100
,
0010
0001
0010
0001
1000
0010
1000
0010
0100
0001
0100
0001
0100
0001
0010
0100
,
1000
0010
0100
0001
1000
0001
1000
0100
0010
0001
0010
0001
1000
0010
0100
0001
,
1000
0000
0001
0000
1000
0001
1000
0001
,
1000
0100
0010
0001
1000
0100
1000
0001
1000
0010
0100
0001
1000
0001
0100
0010
,
1000
0001
1000
0100
0010
0001
1000
0001
1000
0010
0100
0001
1000
0001
0100
0010
,
1000
0001
0010
0100
1000
0001
0100
0001
1000
0010
0100
0001
1000
0001
0100
0010
,
1000
0001
1000
0100
0010
0001
0010
0100
1000
0001
0100
0010
1000
0010
0100
0001
,
1000
0100
0010
0001
1000
0100
1000
0001
1000
0010
0100
0001
1000
0001
0100
0010
,
1000
0001
1000
0100
0010
0001
1000
0001
1000
0010
0100
0001
1000
0001
0100
0010
,
1000
0001
0010
0100
1000
0001
0100
0001
1000
0010
0100
0001
1000
0001
0100
0010
,
1000
0001
1000
0100
0010
0001
0010
0100
1000
0001
0100
0010
1000
0010
0100
0001
,
1000
0100
0010
0001
1000
0100
1000
0001
1000
0010
0100
0001
1000
0001
0100
0010
,
1000
0001
1000
0100
0010
0001
1000
0001
1000
0010
0100
0001
1000
0001
0100
0010
,
1000
0001
0010
0100
1000
0001
0100
0001
1000
0010
0100
0001
1000
0001
0100
0010
,
1000
0001
1000
0100
0010
0001
0010
0100
1000
0001
0100
0010
1000
0010
0100
0001
,
1000
0100
0010
0001
1000
0100
1000
0001
1000
0010
0100
0001
1000
0001
0100
0010
,
1000
0001
1000
0100
0010
0001
1000
0001
1000
0010
0100
0001
1000
0001
0100
0010
,
1000
0001
0010
0100
1000
0001
0100
0001
1000
0010
0100
0001
1000
0001
0100
0010
,
1000
0001
1000
0100
0010
0001
0010
0100
1000
0001
0100
0010
1000
0010
0100
0001
,
2000
0000
0000
0000
,
3000
0100
0010
0001
,
0200
0002
0000
0000
0000
0000
0000
0300
,
0M03
0M00
0M00
0M00
1M00
0000
0000
0000
0100
0000
0000
0000
0010
0000
0000
0000
,
0012
0000
0000
0000
,
0003
1000
0010
0100
,
0101
0000
2000
0002
0000
0000
3000
0000
,
M013
0001
M010
0001
M010
0001
M010
0001
,
M020
0000
0000
0000
,
0030
0100
1000
0010
,
M210
0300
0000
0000
M200
0300
0000
0000
M200
0300
0000
0000
M400
0000
0000
0000
,
0301
1000
0100
0010
,
0011
0000
0002
2000
0000
0000
0000
0000
,
3003
0001
0010
0100
,
2000
0002
0000
0003
3001
0000
0000
0000
,
1001
0000
0000
0000
1000
0010
0100
0001
,
0010
0100
0010
0001
1000
0001
0100
0001
1000
0010
0100
0001
1000
0001
0010
0100
,
1000
0100
0010
0001
1000
0001
1000
0010
0100
0001
0100
0010
2000
0000
3010
0100
,
0001
1000
0001
0100
0010
1000
0001
1000
0100
0010
0100
1000
0010
0100
0001
1000
,
0001
0000
0000
0100
0000
0000
0010
0000
0000
1000
0000
0000
0001
0000
0000
0010
0000
0000
0100
0000
0000
1000
0000
0000
0001
0000
1000
0000
0001
0000
1M00
0000
0001
0000
1000
0000
0M01
0000
0000
0000
0000
0000
1M00
0000
0000
0000
0000
0000
,
0M01
1000
0001
0010
0100
1000
0100
1000
0001
1000
0001
0100
0010
1000
0100
0010
,
0100
1000
0001
1000
0010
0100
0001
0100
0020
0000
0000
0000
1030
0000
1000
0000
,
0001
0100
0001
0100
0010
1000
0001
1000
0010
0100
0001
0010
0100
1000
0001
1000
,
0100
0000
0000
0010
0000
0000
0001
0000
0000
1000
0000
0000
0100
0000
0000
1000
0000
0000
0001
0000
0000
0100
0000
0000
0010
0000
0000
1000
0000
0000
0001
0000
1000
0000
0001
0000
1000
0000
0000
0000
0000
0000
0001
0000
1000
0000
0001
0000
,
1000
0100
0010
0001
1000
0001
0100
0001
1000
0010
0100
0001
1000
0001
0010
0100
,
1000
0100
0010
0001
1000
0001
1000
0010
0100
0001
0100
0010
2000
0000
3010
0100
,
0001
1000
0001
0100
0010
1000
0001
1000
0100
0010
0100
1000
0010
0100
0001
1000
,
0001
0000
0000
0100
0000
0000
0010
0000
0000
1000
0000
0000
0001
0000
0000
0010
0000
0000
0100
0000
0000
1000
0000
0000
0002
0000
0000
0000
0000
0000
1003
0000
0100
0000
1000
0000
0100
0000
0000
0000
0000
0000
0010
0000
0001
0000
0010
0000
,
0001
1000
0001
0010
0100
1000
0100
1000
0001
1000
0001
0100
0010
1000
0100
0010
,
0100
1000
0001
1000
0010
0100
0001
0100
0020
0000
0000
0030
2000
0000
3001
0000
,
1000
0100
1000
0100
0010
0001
1000
0001
0010
0100
1000
0010
0100
0001
1000
0100
,
0010
0000
0000
0000
0000
0000
0000
0000
0000
0000
0000
0000
00M0
0000
0000
0000
0000
0000
1000
0000
0000
0001
1000
0001
,
1000
0100
0010
0001
1000
0001
0010
0100
1000
0100
0010
0001
1000
0001
0010
0100
,
1000
0100
0010
0001
1000
0001
0010
0100
1000
0100
0010
0001
0200
0000
0301
0000
,
1000
0010
0100
0001
1000
0001
0100
0010
1000
0010
0100
0001
1000
0001
0100
0010
,
1000
0000
0000
0010
0000
0000
0100
0000
0000
0001
0000
0000
1000
0000
0000
0001
0000
0000
0100
0000
0000
0010
0000
0000
1000
0000
0001
0000
1000
0000
0001
0000
1000
0000
0001
0000
1000
0000
0000
0000
0000
0000
0001
0000
0000
1000
0000
0000
,
0001
0010
0100
1000
0010
1000
0100
0010
0001
0010
0100
1000
0010
1000
0100
0010
,
0001
0010
0100
1000
0010
1000
0100
0010
0002
0000
0000
0003
2000
0000
3001
1000
,
0001
0100
0010
1000
0001
1000
0010
0100
0001
0100
0010
1000
0001
1000
0010
0100
,
0001
0000
0000
0100
0000
0000
0010
0000
0000
1000
0000
0000
0001
0000
0000
1000
0000
0000
0010
0000
0000
0100
0000
0000
0001
0000
0000
0000
0000
0000
1000
0000
0001
0000
1000
0000
0001
0000
0000
0000
0000
0000
1000
0000
0001
0000
1000
0000
,
0001
0010
0100
1000
0001
1000
0100
0010
0001
0010
0100
1000
0001
1000
0100
0010
,
0001
0010
0100
1000
0001
1000
0100
0010
0001
0010
0100
1000
0002
0000
1003
0000
,
0001
0100
0010
1000
0001
1000
0010
0100
0001
0100
0010
1000
0001
1000
0010
0100
,
0001
0000
0000
0100
0000
0000
0010
0000
0000
1000
0000
0000
0001
0000
0000
1000
0000
0000
0010
0000
0000
0100
0000
0000
0001
0000
0000
0000
0000
0000
1000
0000
0001
0000
1000
0000
0001
0000
0000
0000
0000
0000
1000
0000
0001
0000
1000
0000
,
0001
0010
0100
1000
0010
1000
0100
0010
0001
0010
0100
1000
0010
1000
0100
0010
,
0001
0010
0100
1000
0010
1000
0100
0010
0002
0000
0000
0003
2000
0000
3001
1000
,
0001
0100
0010
1000
0001
1000
0010
0100
0001
0100
0010
1000
0001
1000
0010
0100
,
0001
0000
0000
0000
0000
0000
0000
0000
0000
0000
0000
0000
000M
0000
0000
0000
0000
0000
0001
0000
0000
1000
0001
1000
,
0001
0010
0100
1000
0001
0010
0100
1000
0001
0100
0010
1000
0100
1000
0010
0100
,
0001
0100
0010
1000
0001
0100
0010
1000
0001
0010
0001
1000
0010
0100
0001
1000
,
0001
0010
0100
1000
0001
0010
0100
1000
0001
0100
0010
1000
0100
1000
0010
0100
,
0001
1000
0010
1000
0001
1000
0010
1000
0100
0010
0100
1000
0001
1000
0010
0100
,
0001
0100
0010
1000
0001
0010
0100
1000
0010
1000
0001
0010
0100
1000
0001
1000
,
0010
0100
0001
1000
0001
0010
0100
1000
0010
1000
0100
0010
0001
1000
0010
1000
,
0100
0010
0100
1000
0001
1000
0010
0100
0001
0100
0010
1000
0001
0010
0100
1000
,
0040
0000
0030
0000
0040
0000
0030
0000
1000
0000
1000
0001
0020
0000
0030
0000
,
0001
0010
0100
1000
0001
0100
0010
1000
0001
0010
0100
1000
0010
1000
0100
0010
,
0001
0010
0100
1000
0001
0100
0010
1000
0001
0010
0001
1000
0010
0100
0001
1000
,
0001
0010
0100
1000
0001
0100
0010
1000
0001
0010
0100
1000
0010
1000
0100
0010
,
0001
1000
0010
1000
0001
0010
0100
1000
0010
1000
0100
0010
0001
1000
0010
0100
,
0001
0100
0010
1000
0001
0010
0100
1000
0010
1000
0001
0010
0100
1000
0001
1000
,
0010
0100
0001
1000
0001
0010
0100
1000
0010
1000
0100
0010
0001
1000
0010
1000
,
0100
0010
0100
1000
0001
1000
0010
0100
0001
0100
0010
1000
0001
0010
0100
1000
,
0002
0003
0200
0300
0020
0030
0200
0300
0002
0003
0000
0000
2002
0000
0000
0000
,
3003
0000
0000
0000
;

//---------------dance-single - 14+ (TYLR)----------------
#NOTES:
     dance-single:
     14+ (TYLR):
     Hard:
     14:
     1.000,1.000,0.471,0.357,0.858,2202.000,152.000,115.000,120.000,0.000:
0000
0000
0000
0000
,
0000
0000
0000
0000
,
0000
0000
0000
0000
,
0000
0000
0000
0000
,
0000
0000
0000
0000
,
0000
0000
0000
0000
,
0000
0000
0000
0000
,
0001
0000
0010
0100
0000
0010
0001
0000
,
0100
0020
1030
0010
,
0100
0000
0001
0010
0000
0100
1000
0000
,
0010
0000
0100
0000
0001
0000
0100
0010
,
1000
0000
1000
0010
1000
0100
0000
0020
,
0000
0000
0000
0000
0000
0000
0000
0030
,
0100
0010
0100
0000
1000
0100
1000
0000
0001
1000
0001
0000
1001
0000
0000
0000
,
1010
0000
0101
0000
1000
0100
0011
0000
,
1000
0000
0110
0000
0001
1000
0110
0000
,
0001
0000
1100
0000
0010
0001
1001
0000
,
0010
0000
0101
0000
0001
1000
1100
0000
,
1001
0000
0000
0000
0011
0000
0000
0000
1100
0000
0000
0000
1001
0000
1000
0010
,
0100
0000
0101
0001
1000
0001
0101
0100
,
0010
1001
0011
1001
,
11M0
00M0
10M1
00M0
01M1
00M1
10M1
10M0
,
2020
3030
0202
0303
0022
0033
2200
3300
,
2002
3003
0220
0330
2020
3030
0202
0303
,
0022
0033
2200
3300
0220
0330
2200
3300
,
2002
3003
0220
0330
1001
1000
1100
0100
,
0022
0033
2002
3003
0220
0330
2200
3300
,
0022
0033
2002
3003
0220
0330
0202
0303
,
2020
3030
0202
0303
0220
0330
2002
3003
,
1001
0000
0000
0000
1000
0000
1000
0001
0010
0000
0000
0000
2200
0000
3300
0000
,
1001
0001
0010
0100
0010
0001
1000
0010
,
0100
0100
0001
0100
0010
1000
1000
0001
,
0010
0100
1000
0010
0100
0001
1000
0001
,
0010
0010
0100
1000
0001
1000
1000
1000
,
0001
0100
0010
1000
0100
1000
0010
0100
,
0001
1000
0100
0010
0001
0010
0100
1000
,
0010
1000
0100
0010
0001
0100
0001
1000
,
1100
0000
0000
0000
1001
0000
0001
0100
0010
0000
0000
0000
2020
0000
3030
0000
,
1MM1
0000
0001
0010
0001
0000
1000
0010
0100
0000
0001
0000
0010
0000
0100
1000
,
0100
0000
0010
0001
1000
0000
0001
0100
0010
0000
1000
0000
0001
0000
0001
0000
,
0010
0000
0100
1000
0100
0000
1000
0010
1000
0000
0001
0000
0010
0000
0100
1000
,
0100
0000
0000
0000
0000
0000
1000
0000
0000
0010
0000
0000
1000
0000
0000
0000
0000
0000
0010
0000
0000
0100
0000
0000
0001
0000
0000
0000
0000
0000
0001
0000
0000
0000
0000
0000
1000
0000
0000
0000
0000
0000
0001
0000
1000
0000
0001
0000
,
1000
0000
0001
0100
0001
0000
1000
0100
0010
0000
0001
0000
0100
0000
0010
1000
,
0010
0000
0100
0001
1000
0000
0001
0010
0100
0000
1000
0000
0001
0000
0001
0000
,
0100
0000
0010
1000
0010
0000
1000
0100
1000
0000
0001
0000
0100
0000
0010
1000
,
0400
0000
0300
0000
0400
0000
0300
0000
0010
0000
0010
0001
0020
0000
0030
0000
,
1001
0000
1000
0100
1000
0000
0001
0100
0010
0000
1000
0000
0100
0000
0010
0001
,
0010
0000
0100
1000
0001
0000
1000
0010
0100
0000
0001
0000
1000
0000
1000
0000
,
0100
0000
0010
0001
0010
0000
0001
0100
0001
0000
1000
0000
0100
0000
0010
0001
,
0010
0000
0000
0000
0000
0000
0001
0000
0000
0100
0000
0000
0001
0000
0000
0000
0000
0000
0100
0000
0000
0010
0000
0000
1000
0000
0000
0000
0000
0000
1000
0000
0000
0000
0000
0000
0001
0000
0000
0000
0000
0000
1000
0000
0001
0000
1000
0000
,
0001
0000
1000
0010
1000
0000
0001
0010
0100
0000
1000
0000
0010
0000
0100
0001
,
0100
0000
0010
1000
0001
0000
1000
0100
0010
0000
0001
0000
1000
0000
1000
0000
,
001M
0000
0100
0001
0100
0000
0001
0010
0M01
0000
1000
0000
0010
0000
0100
0001
,
M010
0000
0400
0300
0400
0300
1000
0000
04M0
0300
0400
0310
0001
1000
0001
1000
,
0010
0000
1000
0000
0000
0000
1000
0000
0100
0000
0010
0000
0001
0000
1000
0010
,
0000
0000
0100
0000
0001
0000
1000
0010
0000
0000
0000
0000
0100
0000
0000
0000
,
0001
0000
1000
0000
0000
0000
1000
0000
0100
0000
0010
0000
0001
0000
0100
0010
,
0000
0000
1000
0000
0001
0000
0100
0010
0000
0000
0000
0000
1000
0000
0000
0000
,
0001
0000
0000
0000
0010
0000
0000
0100
0000
0000
1000
0000
0000
0000
0100
1000
,
0010
0000
0100
0000
0001
0000
1000
0001
0000
0000
0000
0000
1000
0000
0000
0000
,
0100
0000
0010
0000
0000
0000
0001
0000
0100
0000
0010
0000
1000
0000
0100
0010
,
0000
0000
0001
0000
1000
0000
0001
1000
0000
0000
0000
0000
0010
0000
0000
0000
,
0100
0000
0001
0000
0000
0000
0001
0000
0010
0000
0100
0000
1000
0000
0001
0100
,
0000
0000
0010
0000
1000
0000
0001
0100
0000
0000
0000
0000
0010
0000
0000
0000
,
1000
0000
0001
0000
0000
0000
0001
0000
0010
0000
0100
0000
1000
0000
0010
0100
,
0000
0000
0001
0000
1000
0000
0010
0100
0000
0000
0000
0000
0001
0000
0000
0000
,
0010
0000
0000
0100
0000
0000
0000
0000
1000
0000
0000
0001
0000
1000
0000
0001
,
0100
0000
0010
0000
1000
0000
0001
1000
0000
0000
0000
0000
0001
0000
0000
0000
,
0010
0000
0100
0000
0000
0000
1000
0000
0010
0000
0100
0000
0001
0000
0010
0100
,
0000
0000
1000
0000
0001
0000
1000
0001
0000
0000
0000
0000
0100
0000
0000
0000
,
0110
0000
0000
4000
,
3001
0010
0001
0000
0010
0001
0010
0000
0100
0000
1000
0000
0010
0000
0100
0000
,
0001
0100
0001
0000
0100
0001
0100
0000
0010
0000
1000
0000
0100
0000
0010
0000
,
0001
0010
0001
0000
0010
0001
0010
0000
0100
0000
1000
0000
0010
0000
1000
0000
,
0001
0000
0000
1000
0000
0000
0001
0000
0000
0000
0000
0000
1000
0000
0000
0001
0000
0000
1000
0000
0000
0000
0000
0000
0010
0000
0000
0000
0000
0000
0100
0000
0000
0001
0000
0000
1000
0000
0000
0000
0000
0000
0001
0000
1000
0000
0001
0000
,
1000
0001
1000
0000
0001
0010
0001
0000
0100
0000
0010
0000
1000
0000
0001
0000
,
0010
0100
0010
0000
0001
0010
0001
0000
0100
0000
0010
0000
1000
0000
0100
0000
,
0010
0001
0010
0000
0001
1000
0001
0000
0100
0000
0010
0000
1000
0000
0100
0000
,
0020
0000
0030
0000
0020
0000
0030
0000
0001
0000
0001
0010
0002
0000
0003
0000
,
1000
0001
1000
0000
0001
0100
0001
0000
1000
0000
0100
0000
0010
0000
0001
0000
,
1000
0001
1000
0000
0010
1000
0010
0000
0100
0000
0001
0000
1000
0000
0100
0000
,
0010
0001
0010
0000
0001
1000
0001
0000
0100
0000
0010
0000
1000
0000
0001
0000
,
0010
0000
0000
0001
0000
0000
0010
0000
0000
0000
0000
0000
0100
0000
0000
1000
0000
0000
0100
0000
0000
0000
0000
0000
0010
0000
0000
0000
0000
0000
0001
0000
0000
1000
0000
0000
0010
0000
0000
0000
0000
0000
0100
0000
0001
0000
0100
0000
,
0001
0100
0001
0000
1000
0001
1000
0000
0100
0000
1000
0000
0001
0000
0100
0000
,
0010
1000
0010
0000
1000
0001
1000
0000
0010
0000
0100
0000
0001
0000
0010
0000
,
0100
1000
0100
0000
0010
0001
0010
0000
0100
0000
1000
0000
0010
0000
0100
0000
,
0002
0000
0003
0000
0002
0000
0003
0000
1000
0000
1000
0100
0010
0000
0000
0000
,
0011
0000
0001
1000
0001
0000
1000
0010
0100
0000
0010
0000
1000
0000
0001
0010
,
0001
0000
0010
0100
1000
0000
0001
0100
0010
0000
1000
0000
0001
0000
0001
0000
,
0010
0000
0100
1000
0100
0000
1000
0010
1000
0000
0001
0000
0010
0000
0100
1000
,
0100
0000
0000
0000
0000
0000
1000
0000
0000
0010
0000
0000
1000
0000
0000
0000
0000
0000
0010
0000
0000
0100
0000
0000
0001
0000
0000
0000
0000
0000
0001
0000
0000
0000
0000
0000
1000
0000
0000
0000
0000
0000
0001
0000
1000
0000
0001
0000
,
1000
0000
0001
0100
0001
0000
1000
0100
0010
0000
0001
0000
0100
0000
0010
1000
,
0010
0000
0100
0001
1000
0000
0001
0010
0100
0000
1000
0000
0001
0000
0001
0000
,
0100
0000
0010
1000
0010
0000
1000
0100
1000
0000
0001
0000
0100
0000
0010
1000
,
0200
0000
0300
0000
0200
0000
0300
0000
0010
0000
0010
0001
0020
0000
0030
0000
,
1001
0000
1000
0100
1000
0000
0001
0100
0010
0000
1000
0000
0100
0000
0010
0001
,
0010
0000
0100
1000
0001
0000
1000
0010
0100
0000
0001
0000
1000
0000
1000
0000
,
0100
0000
0010
0001
0010
0000
0001
0100
0001
0000
1000
0000
0100
0000
1000
0001
,
0100
0000
0001
0000
0100
0000
0001
0000
0100
0000
0001
0000
0100
0000
0004
0003
,
0010
M00M
0010
0000
1000
0000
0001
0010
0100
M00M
0100
0000
0001
0000
1000
0100
,
0010
M00M
0010
0000
1000
0000
0001
0010
0100
M00M
0100
0000
0001
0000
1000
0100
,
0010
M00M
0010
0000
1000
0000
0001
0010
0100
M00M
0100
0000
0001
0000
1000
0010
,
0100
0000
0002
0003
0002
0003
0010
0000
0200
0300
0200
0300
1000
0100
1000
0100
,
0020
0000
0000
0000
0000
0000
0000
0000
M000
0000
0000
0000
000M
0000
0000
0M00
,
0000
0000
0000
M000
0000
000M
0000
0000
0M00
0000
000M
0000
M000
0000
0000
0M00
,
0030
000M
M000
00M0
M000
000M
0M00
00M0
,
M000
0000
000M
0000
0000
00M0
0000
M000
0000
000M
0000
0000
0M00
0000
00M0
0000
,
M000
0000
0000
0M00
0000
0000
000M
0000
,
00M0
0000
0000
M000
0000
0000
000M
0000
,
0M00
0000
0000
00M0
0000
0000
M000
000M
,
0000
0000
0000
0000
0000
0000
0000
0000
000M
0000
0000
0000
0000
0000
0000
0000
000M
000M
000M
000M
000M
000M
000M
000M
000M
000M
000M
000M
000M
000M
000M
000M
200M
0000
0000
0000
0000
0000
0000
0000
0000
0000
0000
0000
0000
0000
0000
0000
3200
0000
0000
0000
0000
0000
0000
0000
0000
0000
0000
0000
0000
0000
0300
0000
,
0012
0000
0010
0000
0013
0100
1000
0001
,
1000
0000
0100
0000
0100
0000
1000
0100
0000
1000
0100
0000
0010
0000
0100
0000
,
1000
0000
0001
0000
0001
0000
1000
0001
0000
1000
0001
0000
0100
0000
0001
0000
,
1000
0000
0010
0000
0010
0000
1000
0010
0000
1000
0010
0100
0001
0000
0010
0100
,
1000
0000
0001
0000
0001
0000
1000
0001
0000
1000
0001
0000
0100
0000
0001
0000
,
1000
0000
0100
0000
1000
0000
1000
0100
0000
1000
0100
0000
0010
0000
0100
0000
,
0010
0000
0001
0000
0001
0000
0010
0001
0000
0010
0001
0000
0010
0000
0001
0000
,
1M00
0M00
0M10
0M00
0M10
0M00
1M00
0M10
0M00
1M00
0M10
1M00
0M01
0M00
1M00
0M00
,
1M01
0000
0001
0010
0000
0010
0001
0000
,
1001
0000
1000
0010
0000
0010
1000
0000
,
0100
0000
0010
0000
0000
0000
0001
0010
0001
0000
0010
0000
0100
1000
0100
1000
,
0001
0000
1000
0001
0000
0101
0000
0100
,
0010
1000
0001
1000
0010
0010
0100
0000
,
0001
0000
1000
0001
0000
1000
0100
1000
,
0010
1000
0001
0010
0100
0000
1000
0001
,
0100
0100
0010
1000
0001
0001
1000
0000
,
1001
0000
0000
0000
,
1000
0000
0001
0000
1000
0000
0001
0000
1000
0000
0001
1000
0001
0000
0000
0000
,
1000
0000
0001
0010
0001
0000
0010
0100
1000
0000
0001
0100
0001
0000
1000
0010
,
1000
0000
0001
1000
0100
0000
0010
0001
0010
0000
0100
1000
0001
1000
0001
1000
,
0001
0000
0100
0001
1000
0000
0001
0100
0010
0000
1000
0010
1000
0000
0001
1000
,
0010
0000
0000
0000
0000
0000
0100
0000
0000
0001
0000
0000
1000
0000
0000
0000
0000
0000
0001
0000
0000
1000
0000
0000
0100
0000
0000
0000
0000
0000
0100
0000
0000
0000
0000
0000
0100
0000
0000
0000
0000
0000
0010
0000
0001
0000
0010
0000
,
0100
0000
1000
0100
0010
0000
0001
0010
0001
0000
1000
0001
0100
0000
0010
1000
,
0010
0000
0100
0001
1000
0000
0001
1000
0100
0000
0010
0001
1000
0000
1000
0000
,
0010
0000
0100
0001
1000
0000
0100
0010
0001
0000
0001
0000
0010
0000
0100
1000
,
0004
0000
0003
0000
0004
0000
0003
0000
0100
0000
0100
0010
2000
0000
3000
0000
,
0001
1000
0100
0000
0010
0001
1000
0000
0001
0000
0100
0000
0100
0000
0010
0000
,
1000
0000
0001
0000
0001
0000
1000
0001
0000
1000
0001
0000
0010
0000
0001
0000
,
0100
0000
0100
0000
0100
0000
0010
1000
0000
0010
0100
0000
0001
0000
1000
0000
,
0100
0000
0000
0000
0000
0000
0010
0000
0000
0000
0000
0000
0010
0000
0000
0000
0000
0000
0001
0000
0000
0010
0000
0000
0000
0000
0000
0001
0000
0000
0010
0000
0000
0100
0000
0000
1000
0000
0000
0000
0000
0000
0001
0000
1000
0000
0001
0000
,
1000
0000
0001
0000
0001
0000
0100
0001
0000
0100
0001
0000
1000
0000
0001
1000
,
0100
0000
0010
0000
0010
0000
0001
0010
0000
0001
0010
0001
1000
0000
0001
1000
,
0010
0000
1000
0000
1000
0000
0001
1000
0000
0001
1000
0000
0100
0000
1000
0000
,
0001
0010
0001
0010
0100
0000
1000
0001
0100
0000
0100
0000
0040
0000
0000
0000
,
1030
0001
0010
0001
1000
0001
0010
0100
1000
0001
0100
0010
1000
0001
0100
0001
,
1000
0001
0010
0100
0010
0001
1000
0100
0010
0001
1000
0100
1000
0001
1000
0001
,
1000
0010
0100
0001
1000
0001
0100
0010
1000
0001
0010
0100
0010
0001
1000
0010
,
0100
0000
0000
0010
0000
0000
1000
0000
0000
0001
0000
0000
0010
0000
0000
0100
0000
0000
0010
0000
0000
0001
0000
0000
0100
0000
0000
0000
0000
0000
0100
0000
0000
0000
0000
0000
0100
0000
0000
0000
0000
0000
0010
0000
1000
0000
0010
0000
,
1000
0001
0100
0010
1000
0010
0100
0001
1000
0001
0010
0100
1000
0100
0010
0001
,
1000
0100
1000
0001
1000
0010
0100
0010
1000
0001
0100
0001
1000
0100
0010
0001
,
0100
0010
0100
0001
0010
0100
0010
0001
1000
0010
1000
0001
0100
0010
1000
0001
,
4000
0000
3000
0000
4000
0000
3000
0000
0010
0000
0010
1000
0002
0000
0003
0000
,
1000
0001
0010
0001
1000
0001
0010
0001
1000
0001
0100
0010
1000
0001
1000
0010
,
0100
0001
1000
0001
0100
0010
1000
0001
0010
0100
0010
0001
1000
0100
1000
0010
,
0100
0000
0100
0000
0100
0000
0001
0000
0100
0010
1000
0001
1000
0100
0010
0100
,
1000
0000
0000
0001
0000
0000
0100
0000
0000
0001
0000
0000
1000
0000
0000
0100
0000
0000
0010
0000
0000
0001
0000
0000
0100
0000
0000
0010
0000
0000
1000
0000
0000
0001
0000
0000
1000
0000
0000
0000
0000
0000
0001
0000
1000
0000
0001
0000
,
1000
0100
0010
0001
1000
0100
1000
0100
0010
0001
1000
0010
0100
0001
1000
0001
,
0100
0010
1000
0001
1000
0100
0010
0001
1000
0010
1000
0010
0100
0001
0010
0100
,
1000
1000
1000
1000
,
0001
1000
0001
1000
0001
0000
1000
0000
0001
0000
0001
1000
0040
0000
0000
0000
,
1030
0000
0001
0100
0001
0000
1000
0001
1000
0000
0100
0000
0100
0000
0010
0001
,
1000
0000
0001
0100
0001
0000
1000
0010
1000
0000
0001
0000
0001
0000
1000
0100
,
0010
0000
0001
0010
0001
0000
1000
0001
1000
0000
0001
0000
0001
0000
0100
0010
,
1000
0000
0010
1000
0010
0000
1000
0001
1000
0000
0100
0000
0010
0001
0010
0001
,
1000
0000
0001
0100
0001
0000
1000
0001
1000
0000
0100
0000
0100
0000
0010
0001
,
1000
0000
0001
0100
0001
0000
1000
0010
1000
0000
0001
0000
0001
0000
1000
0100
,
0010
0000
0001
0010
0001
0000
1000
0001
1000
0000
0001
0000
0001
0000
0100
0010
,
1000
0000
0010
1000
0010
0000
1000
0001
1000
0000
0100
0000
0100
0000
0010
0000
,
0001
0000
1000
0010
1000
0000
0001
1000
0001
0000
0010
0000
0010
0000
0100
1000
,
0001
0000
1000
0010
1000
0000
0001
0100
0001
0000
1000
0000
1000
0000
0001
0010
,
0100
0000
1000
0100
1000
0000
0001
1000
0001
0000
1000
0000
1000
0000
0010
0100
,
0001
0000
0100
0001
0100
0000
0001
1000
0001
0000
0010
0000
0100
1000
0100
1000
,
0020
0000
0000
0000
0000
0000
1030
0200
,
0000
0000
0310
0002
0000
0000
2003
0000
,
3010
0100
0001
2000
0000
0000
0000
3000
,
1400
0000
0300
0000
1400
0000
0300
0000
0010
0000
0010
0001
2000
0000
3000
0000
,
1001
0000
1000
0000
0001
0000
0100
0010
1000
0000
1000
0000
0001
0000
0100
0010
,
1000
0000
1000
0000
0001
0000
0100
0010
1000
0000
1000
0000
0001
0000
0010
0000
,
0110
0000
0110
0000
1100
0000
0100
0010
0001
0000
0001
0000
1000
0000
0100
0010
,
0001
0000
0000
0000
0000
0000
0001
0000
0000
0000
0000
0000
1000
0000
0000
0000
0000
0000
0100
0000
0000
0010
0000
0000
0001
0000
0000
0000
0000
0000
0001
0000
0000
0000
0000
0000
1000
0000
0000
0000
0000
0000
0001
0000
0100
0000
0001
0000
,
0100
0000
0100
0000
0010
0000
1000
0001
0100
0000
0100
0000
0010
0000
1000
0001
,
0100
0000
0100
0000
0010
0000
1000
0001
0100
0000
0100
0000
0100
0000
0010
0000
,
1001
0000
1000
0000
0100
0000
0010
0001
1000
0000
1000
0000
0100
0000
0010
0001
,
1000
0000
1000
0000
0100
0000
0010
0001
1000
0000
1000
0000
0100
0000
0010
0000
,
0011
0000
0001
0000
1000
0000
0010
0100
0001
0000
0001
0000
1000
0000
0010
0100
,
0001
0000
0001
0000
1000
0000
0010
0100
0001
0000
0001
0000
1000
0000
0100
0000
,
0110
0000
0110
0000
0011
0000
0010
0100
1000
0000
1000
0000
0001
0000
0010
0100
,
1000
0000
0000
0000
0000
0000
1000
0000
0000
0000
0000
0000
0001
0000
0000
0000
0000
0000
0010
0000
0000
0100
0000
0000
1000
0000
0000
0000
0000
0000
1000
0000
0000
0000
0000
0000
0001
0000
0000
0000
0000
0000
1000
0000
0010
0000
1000
0000
,
0010
0000
0010
0000
0100
0000
0001
1000
0010
0000
0010
0000
0100
0000
0001
1000
,
0010
0000
0010
0000
0100
0000
0001
1000
0010
0000
0010
0000
0010
0000
0100
0000
,
1001
0000
0001
0000
0010
0000
0100
1000
0001
0000
0001
0000
0010
0000
0100
1000
,
0004
0000
4000
0000
0000
0000
0000
0000
0000
0000
0000
0000
0000
0000
0000
0000
0000
0000
0000
0000
0000
0000
0000
0000
0000
0000
0000
0000
0000
0000
0000
3003
,
0110
0000
0101
0001
1001
0000
1001
0000
,
0110
0000
0011
0001
0101
0000
1010
0000
,
1100
0000
0011
0001
1001
0000
1001
0000
,
0110
0000
1010
1000
1100
0100
0110
0000
,
1001
0000
0101
0100
0110
0000
1010
0000
,
1100
0000
0011
0001
1001
0000
0110
0000
,
1001
0000
1100
0100
0110
0000
0110
0000
,
1001
0000
1000
0001
1000
0000
1000
0000
,
0011
0000
0101
0100
0110
0000
0110
0000
,
1001
0000
1100
0100
0110
0000
0011
0000
,
0101
0000
1010
1000
1001
0000
1001
0000
,
0110
0000
0011
0001
0101
0100
0110
0000
,
1001
0000
1100
0100
0110
0000
0011
0000
,
0101
0000
1010
1000
1001
0000
0110
0000
,
1001
0000
0101
0100
0110
0000
0110
0000
,
1001
0000
1000
0001
1000
0000
1000
0000
,
2002
0000
0000
0000
,
3003
0001
0010
0100
,
2000
0002
0000
0000
0000
0000
0000
0000
,
3M03
0M00
0M00
0M00
1M00
0000
0000
0000
0100
0000
0000
0000
0010
0000
0000
0000
,
0012
0000
0000
0000
,
0003
1000
0010
0100
,
0101
0000
2000
0002
0000
0000
3000
0000
,
M013
0001
M010
0001
M010
0001
M010
0001
,
M020
0000
0000
0000
,
0030
0100
1000
0010
,
M210
0300
0000
0000
M200
0300
0000
0000
M200
0300
0000
0000
M400
0000
0000
0000
,
0301
1000
0100
0010
,
0011
0000
0002
2000
0000
0000
0000
0000
,
3003
0001
0010
0100
,
2000
0002
0000
0003
3001
0000
0000
0000
,
1001
0000
M00M
0000
,
1001
0000
1000
0000
0100
0000
0010
0001
1000
0001
0010
0000
0100
0000
1000
0001
,
0100
0000
0001
0000
1000
0000
0010
1000
0001
1000
0010
0000
0120
0000
0130
0001
,
1000
0000
0001
0000
1000
0000
0100
0010
0001
0010
0100
0000
1000
0000
0001
1000
,
0010
0000
0000
0100
0000
0000
0001
0000
0000
1000
0000
0000
0001
1000
0001
1M00
0001
1000
0M01
0000
0000
1M00
0000
0000
,
0M01
0000
0010
0000
0100
0000
0010
0001
1000
0001
0010
0000
0100
0000
1000
0001
,
0100
0000
0001
0000
1000
0000
0010
0100
0002
0000
0000
0000
1003
0000
0001
0000
,
1000
0000
0010
0000
0100
0000
0010
1000
0001
1000
0010
0000
0100
0000
0001
1000
,
0100
0000
0000
0000
0000
0000
0010
0000
0000
0000
0000
0000
0001
0000
0000
0000
0000
0000
0010
0000
0000
0100
0000
0000
1000
0000
0000
0000
0000
0000
0001
0000
1000
0000
0001
0000
1000
0000
0000
0000
0000
0000
0001
0000
1000
0000
0001
0000
,
1000
0000
0001
0000
0100
0000
0001
1000
0010
1000
0001
0000
0100
0000
0001
1000
,
0100
0000
0010
0000
0001
0000
0010
0100
1000
0100
0010
0000
0021
0000
0031
1000
,
0001
0000
0100
0000
0010
0000
1000
0010
0100
0001
1000
0000
0010
0000
1000
0001
,
0010
0000
0000
0000
0000
0000
0100
0000
0000
0000
0000
0000
1000
0000
0000
0000
0000
0000
0100
0000
0000
0010
0000
0000
0002
0000
0000
0000
0000
0000
1003
0000
0001
0000
1000
0000
0001
0000
0000
0000
0000
0000
1000
0000
0001
0000
1000
0000
,
0001
0000
1000
0000
0010
0000
0100
0001
1000
0001
0100
0000
0010
0000
1000
0001
,
0010
0000
0100
0000
1000
0000
0100
0010
0002
0000
0003
0000
2000
0000
3001
0000
,
1000
0000
0010
0000
0100
0000
0010
1000
0010
0100
0001
0000
1000
0000
0100
0010
,
0001
0000
0000
0000
0000
0000
0000
0000
0000
0000
0000
0000
0M00
0000
0000
0000
0000
0000
1000
0000
0000
0001
1000
0001
,
1000
0000
0001
0000
0010
0000
0100
1000
0001
1000
0100
0000
0010
0000
0001
1000
,
0010
0000
1000
0000
0001
0000
0100
0001
1000
0001
0100
0000
0210
0000
0310
1000
,
0001
0000
1000
0000
0001
0000
0010
0100
1000
0100
0010
0000
0001
0000
1000
0001
,
0100
0000
0000
0010
0000
0000
1000
0000
0000
0001
0000
0000
1000
0001
1000
00M1
1000
0001
10M0
0000
0000
00M1
0000
0000
,
10M0
0000
0100
0000
0010
0000
0100
1000
0001
1000
0100
0000
0010
0000
0001
1000
,
0010
0000
1000
0000
0001
0000
0100
0010
2000
0000
0000
0000
3001
0000
1000
0000
,
0001
0000
0100
0000
0010
0000
0100
0001
1000
0001
0100
0000
0010
0000
1000
0001
,
0010
0000
0000
0000
0000
0000
0100
0000
0000
0000
0000
0000
1000
0000
0000
0000
0000
0000
0100
0000
0000
0010
0000
0000
0001
0000
0000
0000
0000
0000
1000
0000
0001
0000
1000
0000
0001
0000
0000
0000
0000
0000
1000
0000
0001
0000
1000
0000
,
0001
0000
1000
0000
0010
0000
1000
0001
0100
0001
1000
0000
0010
0000
1000
0001
,
0010
0000
0100
0000
1000
0000
0100
0010
0001
0010
0100
0000
1200
0000
1300
0001
,
1000
0000
0010
0000
0100
0000
0001
0100
0010
1000
0001
0000
0100
0000
0001
1000
,
0100
0000
0000
0000
0000
0000
0010
0000
0000
0000
0000
0000
0001
0000
0000
0000
0000
0000
0010
0000
0000
0100
0000
0000
2000
0000
0000
0000
0000
0000
3001
0000
1000
0000
0001
0000
1000
0000
0000
0000
0000
0000
0001
0000
1000
0000
0001
0000
,
1000
0000
0001
0000
0100
0000
0010
1000
0001
1000
0010
0000
0100
0000
0001
1000
,
0100
0000
0010
0000
0001
0000
0010
0100
2000
0000
3000
0000
0002
0000
1003
0000
,
0001
0000
0100
0000
0010
0000
0100
0001
0100
0010
1000
0000
0001
0000
0010
0100
,
1000
0000
0000
0000
0000
0000
0000
0000
0000
0000
0000
0000
00M0
0000
0000
0000
0000
0000
0001
0000
0000
1000
0001
1000
,
0001
1000
0001
0000
1000
0001
1000
0000
0100
0000
0010
0000
0001
0000
1000
0000
,
0001
0100
0001
0000
0100
0001
0100
0000
0010
0000
1000
0000
0100
0000
0010
0000
,
0001
0010
0001
0000
0010
0001
0010
0000
0100
0000
1000
0000
0010
0000
1000
0000
,
0001
0000
0000
1000
0000
0000
0001
0000
0000
0000
0000
0000
1000
0000
0000
0001
0000
0000
1000
0000
0000
0000
0000
0000
0010
0000
0000
0000
0000
0000
0100
0000
0000
0001
0000
0000
1000
0000
0000
0000
0000
0000
0001
0000
1000
0000
0001
0000
,
1000
0001
1000
0000
0001
0010
0001
0000
0100
0000
0010
0000
1000
0000
0001
0000
,
0010
0100
0010
0000
0001
0010
0001
0000
0100
0000
0010
0000
1000
0000
0100
0000
,
0010
0001
0010
0000
0001
1000
0001
0000
0100
0000
0010
0000
1000
0000
0100
0000
,
0020
0000
0030
0000
0020
0000
0030
0000
0001
0000
0001
0010
0002
0000
0003
0000
,
1000
0001
1000
0000
0001
0100
0001
0000
1000
0000
0100
0000
0010
0000
0001
0000
,
1000
0001
1000
0000
0010
1000
0010
0000
0100
0000
0001
0000
1000
0000
0100
0000
,
0010
0001
0010
0000
0001
1000
0001
0000
0100
0000
0010
0000
1000
0000
0001
0000
,
0010
0000
0000
0001
0000
0000
0010
0000
0000
0000
0000
0000
0100
0000
0000
1000
0000
0000
0100
0000
0000
0000
0000
0000
0010
0000
0000
0000
0000
0000
0001
0000
0000
1000
0000
0000
0010
0000
0000
0000
0000
0000
0100
0000
0001
0000
0100
0000
,
0001
0100
0001
0000
1000
0001
1000
0000
0100
0000
1000
0000
0001
0000
0100
0000
,
0010
1000
0010
0000
1000
0001
1000
0000
0010
0000
0100
0000
0001
0000
0010
0000
,
0100
1000
0100
0000
0010
0001
0010
0000
0100
0000
1000
0000
0010
0000
0100
0000
,
0002
0000
0003
0000
0002
0000
0003
0000
1000
0000
1000
0100
0010
0000
0010
0000
;
