#TITLE:the picard song;
#SUBTITLE:;
#ARTIST:Mark Materia;
#TITLETRANSLIT:;
#SUBTITLETRANSLIT:;
#ARTISTTRANSLIT:;
#CREDIT:;
#BANNER:19.JPG;
#BACKGROUND:Star-Trek-Next-Generation-Wallpaper.jpg;
#LYRICSPATH:;
#CDTITLE:;
#MUSIC:Dark Materia - The Picard Song.mp3;
#OFFSET:-1.280;
#SAMPLESTART:0.015;
#SAMPLELENGTH:12.000;
#SELECTABLE:YES;
#BPMS:0.000=125.000;
#STOPS:;
#BGCHANGES:;
// cache tags:
#FIRSTBEAT:4.500;
#LASTBEAT:576.000;
#SONGFILENAME:Songs/cedric step/the picard song/picard.sm;
#HASMUSIC:1;
#HASBANNER:1;
#MUSICLENGTH:280.372;
// end cache tags

//---------------dance-single - ----------------
#NOTES:
     dance-single:
     :
     Hard:
     8:
     0.374,0.411,0.011,0.029,0.606,723.000,3.000,8.000,0.000,0.000:
0000
0000
0000
0000
,
0000
0000
1000
0000
0000
0000
0000
0000
0001
0000
0100
0010
1000
0001
0000
0100
,
0010
1000
0100
0001
0000
1010
0001
0010
0100
0000
0000
0000
0001
0000
1000
0000
,
0000
0010
0000
0100
0001
0000
1000
0010
,
0000
0100
0000
0000
0000
0001
0000
0010
0000
0100
0000
0000
0000
1000
0000
0001
,
0000
0000
0000
0100
0000
0000
0000
0000
0010
0000
1000
0000
0000
0000
0001
0000
,
0100
0010
0000
1000
0001
0010
0000
0001
,
0000
1000
0010
0000
0100
0001
1000
0000
0100
0010
0000
0000
0000
0000
0000
0000
,
1001
0010
0000
0000
0000
0000
0000
0000
,
0001
0000
0100
0000
0001
0000
0010
0001
0100
0001
1000
0000
0000
0000
0000
0000
,
0000
0001
0100
0010
0000
0000
0000
0000
0000
0000
0000
0000
0000
0000
0000
0000
,
0000
1000
0000
0000
0000
0001
0000
0000
0000
0000
0100
0000
0000
0000
0010
0000
,
0000
0000
1000
0000
0000
0000
0001
0000
0000
0000
0100
0000
0000
0000
0000
0001
,
0000
0000
0000
0010
0000
0000
0000
0100
0000
0000
0000
1000
0000
0000
0000
0001
,
0000
0000
0000
0100
0000
0000
0000
0001
0000
0000
0000
0010
0000
0000
0000
0000
,
0100
1000
0001
0100
,
0000
0010
0000
0000
0000
1000
0000
0000
0000
0001
0000
0000
0000
0010
0000
0000
,
0000
0100
0000
0000
0000
1000
0000
0000
0000
0000
0001
0000
0000
0000
0100
0000
,
0000
0001
0000
0010
0000
0001
0000
0100
,
0000
0000
0010
0000
0000
0000
0000
1000
0000
0000
0000
0001
0000
0000
0000
0100
,
0000
0000
0000
0010
0000
0000
0000
1000
0000
0000
0000
0001
0000
0000
0000
0000
,
0010
0001
1000
0010
,
0100
0000
0000
0000
0000
0001
0000
0000
0000
0100
0000
0000
0000
0010
0000
0000
,
0000
1000
0000
0000
0000
0001
0000
0000
0000
0100
0000
0000
0000
0010
0000
1000
,
0000
0000
0001
0100
0000
0010
1000
0001
,
0000
0000
0010
0000
0100
0000
1000
0000
0000
0000
0001
0000
0000
0100
0000
0000
,
0000
0010
0000
0000
0000
0100
0000
0001
0000
0000
0000
0010
0000
0100
0000
0000
,
1000
0000
0001
0100
0010
0000
1000
0001
,
0010
0000
0100
1000
0001
0100
0000
0010
0000
0000
0000
0000
0000
1000
0001
0010
,
0000
0000
0000
0000
0000
0000
0000
0000
0000
0000
0000
0000
0000
0010
0000
1000
,
0000
0001
0000
0010
0100
1000
0000
0001
0100
0000
0000
0000
0000
0000
0001
1000
,
0000
0010
0000
0000
0000
0000
0000
0000
0000
0000
0000
0000
0000
0000
0000
1000
,
0000
0000
0000
0000
,
0000
0000
0001
1000
,
0000
0000
0000
0010
0000
0000
0000
0000
0100
0000
0000
0000
0001
0000
0000
0000
,
0000
1000
0000
0000
0000
0010
0000
0000
0000
0100
0000
0000
0000
0001
0000
0000
,
0000
0010
0000
0000
0000
0100
0000
0000
0000
0000
1000
0000
0000
0000
0001
0000
,
0000
0000
0100
0000
0000
0000
0010
0000
0000
0000
1000
0000
0000
0000
0000
0001
,
0000
0000
0000
0100
0000
0000
0000
0010
0000
1000
0000
0000
0000
0000
0000
0000
,
0000
0000
0000
0000
0000
0000
0001
0000
0000
1000
0000
0000
0010
0000
0100
0000
,
0000
0001
0000
1000
0000
0000
0100
0000
0010
0000
0000
0001
0000
0000
1000
0000
,
0000
0000
0010
0000
0100
0000
0001
0000
0010
0000
0000
0000
0100
0000
0000
1000
,
0000
0000
0000
0001
0000
0100
0000
0010
0000
1000
0000
0000
0001
0000
0000
0010
,
0000
0000
0000
0001
0000
0000
0100
0000
0001
0000
1000
0000
0000
0010
0000
0000
,
0100
0001
1000
0100
0010
0000
0000
0000
,
0000
0000
0000
0001
0000
1000
0000
0010
0000
0100
0000
0001
0000
0000
1000
0000
,
0000
0010
0000
0000
0000
0000
0100
0000
0001
0000
0010
0000
0100
0000
0000
1000
,
0000
0000
0001
0000
0000
0100
0000
0000
0010
0000
1000
0000
0001
0000
0000
0010
,
0000
0000
0100
0000
0000
0000
1000
0000
0000
0001
0000
0100
0000
0010
0000
1000
,
0000
0000
0001
0000
0010
0000
0000
0100
0000
0000
1000
0000
0001
0000
0100
0000
,
0010
1000
0001
0010
0100
1000
0001
0000
,
0000
0000
0000
0000
0000
0000
0000
0100
0000
0010
0000
1000
0000
1000
0000
1000
,
0000
1000
1000
0001
0100
0010
1000
0001
,
0010
0100
1000
0001
0100
0010
0100
0001
,
0010
0000
0100
0000
0000
1000
0000
0001
0000
0100
0000
0010
0000
1000
0000
0001
,
0000
0010
0000
0100
0000
1000
0000
0001
0000
0100
0000
0000
0010
0000
0100
0001
,
0000
0010
0001
1000
0010
0100
0001
1000
,
0010
0000
0000
0000
0000
0000
0000
0000
0000
0000
0000
1000
0000
0001
0000
0100
,
0000
0000
0000
0100
0000
0000
0000
0100
0000
0000
0000
0100
0000
0000
0000
0100
,
0000
0000
0001
1000
0000
0010
0000
0100
,
0001
0000
1000
0000
0000
0100
0000
0010
0000
0001
0000
0000
0000
1000
0000
0010
,
0000
0100
0000
0000
0000
0001
0000
1000
0000
0000
0000
0001
0000
0000
0000
0010
,
0000
0000
0100
0000
0000
1000
0000
0000
0001
0000
0100
0000
0000
0000
0010
0000
,
1000
0000
0001
0000
0000
0000
0010
0000
0001
0000
0000
1000
0000
0010
0100
0001
,
0000
1000
0100
0000
0000
0000
0000
1000
0000
0001
0100
0000
0000
0000
0000
0000
,
0000
0000
0000
0000
0000
0000
0000
0000
1000
0000
0010
0000
0100
0000
0001
0010
,
0001
0000
1000
0000
0000
0000
0000
0000
0000
0001
0100
0000
0010
0000
0000
0000
,
0000
0000
0000
0000
,
0000
0000
0000
0000
,
0000
0000
0000
0000
,
0000
0000
0000
0000
,
0000
0000
0000
0000
0000
0000
0000
0000
0001
0000
0000
1000
0000
0000
0000
0000
,
0010
0000
0000
0000
0100
0000
0000
0000
0001
0000
0000
0000
0000
1000
0000
0000
,
0000
0010
0000
0000
0000
0100
0000
0000
0000
0001
0000
0000
0000
0010
0000
0000
,
0000
0100
0000
0000
0000
0000
1000
0000
0000
0000
0001
0000
0000
0000
0100
0000
,
0000
0000
0010
0000
0000
0000
1000
0000
0000
0000
0001
0000
0000
0000
0000
0100
,
0000
0000
0000
0010
0000
0000
0000
1000
0000
0000
0000
0001
0000
0000
0000
0010
,
0000
0000
0000
0100
0000
0000
0000
1000
0000
0000
0000
0000
0001
0000
0000
0000
,
0100
0010
1000
0001
,
0010
0000
0000
0000
0000
1000
0000
0000
0000
0001
0000
0000
0000
0100
0000
0000
,
0000
0000
0000
0010
0000
0000
1000
0001
0000
0000
0100
0000
0000
0010
0000
0000
,
0000
0000
0000
1000
0000
0001
0000
0100
0000
0010
0000
1000
0000
0000
0001
0000
,
0000
0000
0100
0000
0000
0000
0010
0000
0000
0000
0000
1000
0000
0000
0000
0001
,
0000
0000
0000
0000
0100
0000
0010
1000
0000
0001
0000
0000
0100
0000
0000
0010
,
0000
0000
0000
1000
0001
0100
0020
0000
,
2030
0000
0000
0000
3000
0001
0000
0100
0000
0010
0000
1000
0000
0002
0000
0000
,
0000
0023
0000
0000
0000
0000
0000
0000
0031
1000
0000
0010
0000
0200
0000
0000
,
0000
0302
0000
0000
0000
0000
1003
0000
0010
0000
0100
0000
0001
0000
1000
0000
,
0000
0001
0000
0001
0000
0001
0000
0001
,
0000
0000
0000
0001
0000
0000
0000
0001
0000
0000
0000
0001
0000
0000
0000
1000
,
0000
0000
0000
1000
0000
0000
0000
1000
0000
0000
0000
0000
1000
0000
0000
0000
,
1000
0000
0000
0000
1000
0000
0000
0000
1000
0000
0000
0000
0000
1000
0000
0000
,
0000
0001
0000
0000
0000
0100
0000
0000
0000
0010
1000
0000
0001
0010
0100
1000
,
0001
0100
0000
0000
0000
0100
0000
0000
0000
0000
0100
0000
0000
0000
0100
0000
,
0000
0000
0001
0000
0000
0000
0001
0000
0000
0000
0100
0000
0010
1000
0001
0010
,
0100
1000
0001
0000
0000
0000
0000
0001
0000
0000
0000
0001
0000
0000
0000
0001
,
0000
0000
0000
0000
0100
0000
0000
0000
0100
0000
0000
0000
0100
0010
1000
0001
,
0010
0100
1000
0001
0100
0000
0000
0000
0100
0000
0000
0000
0100
0000
0000
0000
,
0000
0100
0000
0000
0000
0001
0000
0000
0000
0001
0000
0000
0000
0001
1000
0010
,
0100
0001
1000
0100
0010
0001
0000
0000
0000
0001
0000
0000
0000
0000
0001
0000
,
0000
0001
0000
1000
0000
1000
0000
0001
,
1010
0000
0100
0001
1000
0100
0010
0000
0000
0000
0000
0010
0000
0000
0000
0010
,
0000
0000
0000
0010
0000
0000
0000
0000
0100
0000
0000
0000
0100
0000
0000
0000
,
0100
1000
0001
0100
0010
1000
0100
0000
0010
0000
0000
0000
0010
0000
0000
0000
,
0010
0000
0000
0000
0000
0010
0000
0000
0000
1000
0000
0000
0000
1000
0000
0000
,
0000
1000
0001
0100
0010
1000
0100
0010
0001
0000
0000
0000
0000
0001
0000
0000
,
0000
0001
0000
0001
0000
1000
0000
1000
,
0000
0000
0000
0010
1000
0001
0010
0100
1000
0001
0100
0000
0000
0000
0000
0100
,
0000
0000
0000
0100
0000
0000
0000
0100
0000
0000
0000
0000
0001
0000
0000
0000
,
0001
0000
0000
0000
1000
0010
0100
0001
1000
0100
0010
0001
0000
1000
0000
0000
,
1000
0000
0000
0000
1000
0000
0000
0000
0000
1000
0000
0000
0000
0001
0000
0000
,
0000
0001
0000
0000
0000
0100
0010
1000
0001
0010
0100
1000
0000
0001
0100
0000
,
0000
0100
0000
0100
0000
0100
0000
1000
,
0000
0000
1000
0000
0000
0000
0001
0000
0100
0010
1000
0001
0010
0100
1000
0000
,
0000
0000
0000
1000
0000
0000
0000
1000
0000
0000
0000
1000
0000
0000
0000
0000
,
0001
0000
0000
0000
0001
0000
0000
0000
0100
0010
1000
0001
0010
0100
1000
0001
,
0000
0000
0000
0000
0001
0000
0000
0000
0001
0000
0000
0000
0000
0001
0000
0000
,
0000
0100
0000
0000
0000
0100
0000
0000
0000
0100
0000
0000
0000
0100
0000
0000
,
0000
0001
0000
1000
0000
0010
0000
0100
,
0000
0000
0001
0000
0000
0000
0000
1000
0000
0000
0000
0010
0000
0200
0000
0000
,
0300
0001
0000
1000
0000
0100
0000
0010
0000
0001
0000
1000
0000
0000
0000
0010
,
0000
0000
0100
0001
0000
0000
1000
0000
0010
0000
0100
0000
0000
0000
0001
0000
,
0000
1000
0010
0000
0100
0001
1000
0000
,
0000
0100
0000
0010
0000
0001
0000
0000
0000
1000
0000
0010
0000
0100
0001
0000
,
1000
0100
0010
0001
0000
0000
0000
0000
0000
0000
1000
0010
0100
0000
0000
0000
,
0000
0000
0000
0000
0000
1000
0001
0010
,
0100
0000
1000
0001
0100
0010
0000
0000
0000
0000
0000
1000
0001
0010
0000
0000
,
0000
0000
0000
0000
0000
0000
1000
0001
,
0000
0100
0000
0010
1000
0000
0001
0010
,
0100
0000
0000
0000
0000
1000
0000
0001
0000
0100
0000
0000
0000
0010
0000
1000
,
0000
0000
0000
0001
0000
0000
0000
0010
0000
0100
0000
0000
0000
1000
0000
0001
,
0000
0100
0000
0000
0000
0000
0001
0000
0010
0000
0100
0000
0000
0000
1000
0000
,
0001
0000
0100
0000
0010
0000
1000
0001
0010
0100
0000
0000
0000
0000
0000
1000
,
0001
0100
0000
0000
0000
0000
0000
0000
0000
0000
0000
0000
0000
0000
0000
0000
,
1000
0000
0001
0000
0100
0000
0010
1000
0001
0010
0100
0000
0000
0000
0000
0000
,
1000
0001
0000
0100
0000
0000
0000
0000
0000
0000
0000
0000
0000
0000
0000
0000
,
0000
1000
0000
0000
0000
0001
0000
0000
0000
0000
0100
0000
0010
0000
1000
0000
,
0000
0001
0000
0010
0000
0000
0100
0000
0000
0000
1000
0000
0001
0000
0100
0000
,
0000
0000
0001
0000
0010
0000
0000
0000
0000
0100
0000
0000
0000
1000
0000
0001
,
0000
0000
0000
0100
0000
0010
0000
0100
0000
0000
0000
0001
0000
1000
0000
0010
,
0000
0000
0000
0000
0100
0000
0001
0000
1000
0000
0010
0100
0001
1000
0100
0000
,
0000
0000
0000
0000
1000
0001
0000
0100
0000
0000
0000
0000
0000
0000
0000
0000
,
0000
0000
0000
0000
0000
0010
0000
1000
0000
0001
0000
0100
0000
0010
0000
0000
,
1000
0002
0000
0000
0000
0000
0000
0000
,
0003
0000
0000
0000
;
