#TITLE:Become the Catalyst;
#SUBTITLE:;
#ARTIST:All That Remains;
#TITLETRANSLIT:;
#SUBTITLETRANSLIT:;
#ARTISTTRANSLIT:;
#CREDIT:MURDER.V01DKeng07;
#BANNER:../fallback-bn.png;
#BACKGROUND:../fallback-bg.png;
#LYRICSPATH:;
#CDTITLE:;
#MUSIC:Become the Catalyst.ogg;
#OFFSET:-0.641;
#SAMPLESTART:117.859;
#SAMPLELENGTH:12.000;
#SELECTABLE:YES;
#BPMS:0.000=208.000,192.000=196.000,221.000=208.000,573.000=196.000,605.000=208.000;
#STOPS:220.000=0.459
,220.500=0.459
;
#BGCHANGES:;
// cache tags:
#FIRSTBEAT:0.000;
#LASTBEAT:621.000;
#SONGFILENAME:Songs/SSSC PACK/[VO1D] - Become the Catalyst/Become the Catalyst.sm;
#HASMUSIC:1;
#HASBANNER:1;
#MUSICLENGTH:186.734;
// end cache tags

//---------------dance-single - V01DKeng07----------------
#NOTES:
     dance-single:
     V01DKeng07:
     Challenge:
     14:
     1.000,1.000,0.471,0.380,1.000,1610.000,88.000,71.000,133.000,0.000:

1001
0000
0000
0000
0000
0000
0000
0000
0000
0000
0000
0000
1000
0100
1000
0100
,
0010
0001
0010
0000
0000
0000
MM00
0000
0000
0000
0000
0000
0011
0000
0000
0000
,
1001
0000
0000
0000
0000
0000
0000
0000
0000
0010
0100
0001
,
1000
0000
0100
0000
0010
0000
0002
0000
0000
0000
0000
0000
0103
0000
0000
0010
0000
0000
1000
0000
0000
0100
0000
0000
,
1000
0000
0000
0000
0100
0000
0000
0000
0010
0000
0000
0000
0001
0000
0000
0010
0000
0000
0001
0000
0000
0000
0000
0000
0100
0000
0000
0001
0000
0000
0100
0000
0000
0000
0000
0000
0010
0000
0000
0000
1000
0000
0000
0000
0100
0000
0000
0000
,
0010
0000
0000
0000
0001
0000
0000
0000
0100
0000
0000
0000
0010
0000
0000
1000
0000
0000
0010
0000
0000
0000
0000
0000
1000
0000
0000
0001
0000
0000
1000
0000
0000
0000
0000
0000
0001
0000
0000
0000
0010
0000
0000
0000
0100
0000
0000
0000
,
1000
0000
0000
0000
0010
0000
0000
0000
0100
0000
0000
0000
0001
0000
0000
1000
0000
0000
0001
0000
0000
0000
0000
0000
1000
0000
0000
0010
0000
0000
1000
0000
0000
0000
0000
0000
0001
0000
0000
0010
0000
0000
0001
0000
0000
0000
0000
0000
,
0100
0000
0010
0000
1000
0001
1000
0000
0MM1
0000
2000
0000
3100
0010
0001
1000
,
0010
0000
0000
0000
0100
0000
0000
0000
0001
0000
0000
0000
1000
0000
0000
0100
0000
0000
1000
0000
0000
0000
0000
0000
0001
0000
0000
0100
0000
0000
0001
0000
0000
0000
0000
0000
1000
0000
0000
0000
0010
0000
0000
0000
0100
0000
0000
0000
,
0010
0000
0000
0000
1000
0000
0000
0000
0100
0000
0000
0000
0010
0000
0000
0001
0000
0000
0010
0000
0000
0000
0000
0000
0001
0000
0000
0100
0000
0000
0001
0000
0000
0000
0000
0000
1000
0000
0000
0000
0010
0000
0000
0000
0100
0000
0000
0000
,
0001
0000
0000
0000
0010
0000
0000
0000
0001
0000
0000
0000
0100
0000
0000
0010
0000
0000
0100
0000
0000
0000
0000
0000
0010
0000
0000
1000
0000
0000
0010
0000
0000
0000
0000
0000
1000
0000
0000
0000
0100
0000
0000
0000
0010
0000
0000
0000
,
0001
0000
0000
0000
0010
0000
0000
0000
0100
0000
0000
0000
2000
0000
0000
0000
0000
0000
3001
0000
0000
0000
0000
0000
0100
0000
0000
0010
0000
0000
0100
0000
0000
0010
0000
0000
1000
0000
0000
0010
0000
0000
1000
0000
0000
0010
0000
0000
,
1000
0000
0000
0000
0100
0000
0000
0000
0010
0000
0000
0000
0001
0000
0000
0010
0000
0000
0001
0000
0000
0000
0000
0000
0100
0000
0000
0010
0000
0000
0100
0000
0000
0000
0000
0000
0010
0000
0000
0000
1000
0000
0000
0000
0100
0000
0000
0000
,
0010
0000
0000
0000
0100
0000
0000
0000
1000
0000
0000
0000
0010
0000
0000
0100
0000
0000
0010
0000
0000
0000
0000
0000
1000
0000
0000
0001
0000
0000
1000
0000
0000
0000
0000
0000
0001
0000
0000
0000
0010
0000
0000
0000
0100
0000
0000
0000
,
0010
0000
0000
0000
0001
0000
0000
0000
0100
0000
0000
0000
0001
0000
0000
1000
0000
0000
0001
0000
0000
0000
0000
0000
0100
0000
0000
0010
0000
0000
0100
0000
0000
0000
0000
0000
0001
0000
0000
0010
0000
0000
0001
0000
0000
0000
0000
0000
,
0100
0010
0100
0010
1000
0001
1000
0001
0010
0001
0010
0001
1000
0000
0001
0010
,
0100
1000
0100
1000
0001
0100
0001
0100
0010
1000
0010
1000
0001
0010
0001
0010
,
0100
1000
0100
1000
0010
0100
0010
1000
0100
0010
0001
0100
0010
0100
0001
0010
,
0100
1000
0010
0100
0001
0100
0001
0100
0010
1000
0010
1000
0001
0100
0001
0010
,
0100
1000
0100
1000
0010
0100
0001
0010
0001
0100
0001
0100
0010
1000
0001
1000
,
0001
0010
0100
0010
0100
1000
0100
1000
0010
1000
0010
0100
0001
1000
0010
1000
,
0010
1000
0001
1000
0001
0100
0001
0100
0001
1000
0100
1000
0100
1000
0010
1000
,
0010
0100
0010
1000
0001
0010
0100
1000
0010
0000
0100
0010
1000
0000
0001
1000
,
0001
0010
0001
1000
0100
1000
0010
0100
0010
1000
0001
0010
0001
0010
0100
1000
,
0001
0000
0010
0000
0100
1000
0100
0000
1000
0000
0010
0000
0100
0010
0100
0000
,
0001
0000
1000
0000
0100
0010
0100
0000
0020
0000
0032
0000
0203
0000
2300
0000
,
3100
0000
0010
0000
1000
0001
1000
0000
0001
0000
0010
0000
0100
1000
0100
0000
,
0010
0000
0001
0000
0100
0010
0100
0000
0010
0000
1000
0000
1001
0000
0010
0000
,
1001
0000
1000
0000
0100
0010
0001
0000
1000
0000
0010
0000
0100
0010
1000
0000
,
0001
0000
0000
0000
0000
0000
1000
0000
0000
0000
0000
0000
0001
0000
0000
0010
0000
0000
0100
0000
0000
0000
0000
0000
1000
0000
0000
0000
0010
0000
0000
0000
0100
0000
0000
0000
0001
0000
0000
0000
0000
0000
1000
0000
0000
0000
0000
0000
,
0011
0000
0010
0000
0001
0100
0010
0000
1M1M
0000
1000
0000
0100
0010
0001
0000
,
1001
0000
1000
0000
0001
1000
0100
0010
0001
0000
0100
0000
0010
0000
1000
0000
,
1MM2
0000
0000
0000
0013
0000
0001
0000
0100
0000
0010
0000
1000
0000
0100
0010
,
0001
0000
0100
0000
1000
0000
0100
0000
0010
0000
1000
0100
0010
0001
0100
0010
,
0100
0000
0001
0000
1000
0000
0100
0000
0011
0000
0001
0000
0100
0000
0010
1000
,
0010
0000
1000
0000
0001
0000
0010
0000
0100
0000
1000
0100
1000
0100
0010
0001
,
0010
0000
0001
0000
0100
0000
0010
0000
1000
0000
0001
0000
0010
0000
0001
0100
,
0010
0000
1000
0000
0100
0000
0010
0000
0100
0000
1000
0010
0100
0001
0100
0010
,
1000
0001
0010
0001
0100
0010
0100
1000
,
0100
0001
1000
0100
0001
0100
1000
1MM2
,
0000
0103
0010
1000
0001
0010
0001
0200
,
M00M
0310
1001
1000
0100
0001
0100
2000
,
0000
0MMM
0000
0000
3001
0000
0100
0000
0010
0000
0100
0000
1000
0000
0200
0000
,
0000
M0MM
0000
0000
0301
1000
0001
1000
0100
0000
0010
0000
0011
0000
0200
0000
,
0000
M0MM
0000
0000
0310
0000
1000
0000
0100
0000
0010
0000
0001
0000
0201
0000
,
M0M0
0310
0100
1000
0100
0010
1000
0012
,
0000
MMM0
0000
0000
1003
0000
0100
0000
0010
0000
0100
0000
1000
0000
1002
0000
,
0000
0000
0000
0000
0103
0010
0100
0010
1000
0000
0002
0000
0000
0000
0013
0000
,
0001
0100
0001
0100
0001
0100
0001
0100
0002
0000
0003
1M1M
0000
0000
1M1M
0000
,
0010
0100
0010
1000
0000
0000
0001
0000
1000
0100
0010
0001
0000
0000
0100
0000
,
0010
1000
0010
1000
0010
1000
0010
1000
0020
0000
0030
1MM1
0000
0000
1MM1
0000
,
1000
0100
0010
0001
0000
0000
1M1M
0000
1000
0100
0010
0001
0000
0000
MM11
0000
,
0010
0001
0010
0001
0010
0001
0010
0001
0020
0000
0030
M1M1
0000
0000
M1M1
0000
,
0001
1000
0100
0010
0000
0000
MM11
0000
0001
1000
0100
0010
0000
0000
1MM1
0000
,
1000
0001
1000
0001
1000
0001
1000
0001
2000
0000
3000
MM11
0000
0000
1M1M
0000
,
1MM1
0000
0000
0000
0000
0000
0011
0000
0000
0000
0000
0000
0001
0000
0000
0000
0010
0000
0000
0000
0100
0000
0000
0000
1000
0000
0000
0100
0000
0000
1000
0000
0000
0000
0000
0000
0010
0000
0000
1000
0000
0000
0010
0000
0000
0000
0000
0000
,
0100
0000
0000
0000
0001
0000
0000
0000
0010
0000
0000
0000
0100
0000
0000
0000
1000
0000
0000
0000
0010
0000
0000
0000
0100
0000
0000
0001
0000
0000
0100
0000
0000
0000
0000
0000
0001
0000
0000
1000
0000
0000
0001
0000
0000
0000
0000
0000
,
1000
0000
0000
0000
0100
0000
0000
0000
0010
0000
0000
0000
0001
0000
0000
0000
0100
0000
0000
0000
0010
0000
0000
0000
1000
0000
0000
0001
0000
0000
1000
0000
0000
0000
0000
0000
0001
0000
0000
0100
0000
0000
0001
0000
0000
0000
0000
0000
,
1000
0000
0000
0000
0010
0000
0000
0000
1000
0000
0000
0000
0010
0000
0000
0000
0100
0000
0000
0000
0001
0000
0000
0000
1000
0000
0000
0100
0000
0000
1000
0000
0000
0000
0000
0000
1MM1
0000
0000
0000
0000
0000
0002
0000
0000
0000
0000
0000
,
0013
0000
0000
0100
0000
0000
1000
0000
0000
0001
0000
0000
0100
0000
0000
0000
0010
0000
0000
0000
1000
0000
0000
0000
0001
0000
0000
0010
0000
0000
0001
0000
0000
0000
0000
0000
1000
0000
0000
0010
0000
0000
1000
0000
0000
0000
0000
0000
,
0001
0000
0000
0000
0100
0000
0000
0000
0010
0000
0000
0000
0100
0000
0000
0000
0001
0000
0000
0000
0010
0000
0000
0000
0100
0000
0000
1000
0000
0000
0100
0000
0000
0000
0000
0000
1000
0000
0000
0010
0000
0000
1000
0000
0000
0000
0000
0000
,
0001
0000
0000
0000
0100
0000
0000
0000
0010
0000
0000
0000
1000
0000
0000
0000
0100
0000
0000
0000
1000
0000
0000
0000
0010
0000
0000
0100
0000
0000
0010
0000
0000
0000
0000
0000
0100
0000
0000
0001
0000
0000
0100
0000
0000
0000
0000
0000
,
0001
1000
0001
0000
1010
0000
1000
0000
0100
0000
0010
0000
0001
0010
0001
0010
,
0001
0100
0001
0100
0010
1000
0010
0100
0001
1000
0001
1000
0100
1000
0100
1000
,
0001
1000
0001
0010
0100
1000
0100
1000
0001
0100
0001
0100
0010
1000
0010
1000
,
0001
0010
0001
0010
0100
1000
0100
1000
0010
0100
0010
1000
0100
0010
0001
0100
,
0010
0100
0001
0010
0100
1000
0010
0100
0001
0100
0001
0100
0010
1000
0010
1000
,
0001
0100
0001
0010
0100
1000
0100
1000
0010
0100
0001
0010
0001
0100
0001
0100
,
0010
1000
0001
1000
0001
0010
0100
0010
0100
1000
0100
1000
0010
1000
0010
0100
,
0001
1000
0010
1000
0010
1000
0001
1000
0001
0100
0001
0100
0001
0000
1000
0100
,
0010
0001
1000
0010
0100
0010
0100
0010
0100
0001
1000
0100
1000
0100
0010
0001
,
1000
0001
0100
0001
1000
0001
1000
0000
0010
0100
0010
0000
1000
0001
1000
0000
,
0001
0000
0000
0010
0000
0000
0001
0000
0000
0000
0000
0000
1000
0000
0000
0001
0000
0000
1000
0000
0000
0000
0000
0000
0001
0000
0000
0100
0000
0000
0001
0000
0000
0000
0000
0000
1000
0000
0000
0000
0001
0000
0000
0000
1000
0000
0000
0000
,
0100
0000
1000
0000
0010
0100
0001
0000
1000
0010
1000
0000
0001
0010
0001
0000
,
1000
0001
1000
0000
0010
1000
0010
0000
1000
0100
1000
0000
0011
0000
0001
0000
,
1001
0000
1000
0000
0010
1000
0010
0000
0100
0010
0100
0000
0001
1000
0001
0000
,
0010
0001
0010
0000
0001
1000
0001
0000
0100
0010
0100
0000
1002
0000
0023
0000
,
0230
0000
2300
0000
3010
1000
0010
0000
1000
0001
1000
0000
0001
0010
0001
0000
,
1000
0010
1000
0000
0011
0000
0001
0000
0101
0000
0100
0000
1010
0000
1000
0000
,
1MM1
0010
2MM1
0000
3100
0010
0001
1000
,
0010
0100
1000
0100
0010
1000
0002
2003
,
3200
0310
MM12
0000
0103
0010
1000
0001
,
0010
0000
0100
0000
1000
0000
0010
0000
0001
0000
0010
0100
0010
0000
1000
0000
,
0001
1000
1200
0000
0310
0001
0100
0001
,
0010
0001
0100
0010
1000
0100
0020
0032
,
0103
0010
0100
0010
1000
0010
1000
0001
0100
0010
1000
0010
1000
0100
0010
0001
,
0100
0001
0010
0100
1000
0001
0010
0001
1000
0100
1000
0010
0100
0001
0010
0001
,
0100
0010
1000
0001
2MM0
0000
0000
0000
3001
0000
1000
0000
0100
0000
0010
0000
,
0100
1000
0010
0001
0010
0100
0002
2003
,
3200
0310
0012
0000
0103
0010
1000
0010
,
0100
0000
0001
0000
1000
0000
0100
0000
0010
0000
0001
0010
0001
0000
0100
0000
,
0110
0010
2M1M
0000
3001
1000
0010
0100
,
0001
1000
0100
0010
0001
0100
0010
1000
,
0001
1000
0001
1000
0010
1000
0010
1000
0001
0100
0001
0010
0100
1000
0100
0010
,
0100
0010
0100
1000
0100
1000
0100
1000
0001
1000
0001
0100
0010
1000
0100
0010
,
0001
0010
0012
0000
0103
0001
1000
0100
,
1000
0020
M00M
0130
1001
0001
0010
1000
,
0010
0000
0002
0000
0000
MMM0
0000
0000
1003
0000
0010
0000
0100
0000
0010
0000
,
0001
0000
0020
0000
0000
MM0M
0000
0000
1030
0001
1000
0001
0010
0000
0100
0000
,
1100
0000
0020
0000
0000
MM0M
0000
0000
0130
0000
0001
0000
0010
0000
0100
0000
,
1000
1020
0M0M
0130
0010
0001
0010
0100
,
0001
0000
2100
0000
0000
0MMM
0000
0000
3001
0000
0010
0000
0100
0000
0010
0000
,
0001
0000
2001
0000
0000
0000
0000
0000
3010
0100
0010
0100
0001
0000
1000
0000
,
1001
2010
0000
3000
0001
0010
0100
0010
,
0001
2000
0MMM
3001
0011
0001
1000
0010
,
0100
0000
0201
0000
0000
M0MM
0000
0000
0310
0000
1000
0000
0100
0000
0010
0000
,
0001
0000
0020
0000
0000
MM0M
0000
0000
0031
0010
0001
1000
0010
0000
1000
0000
,
1001
0000
0002
0000
0000
MMM0
0000
0000
0013
0000
0001
0000
0100
0000
0010
0000
,
1000
2010
0M0M
3010
0100
1000
0100
0010
,
1000
0000
0012
0000
0000
MMM0
0000
0000
1003
0000
0100
0000
0010
0000
0100
0000
,
1000
0001
0101
0100
0110
0010
1010
1000
,
1001
0000
0001
0000
1000
0100
0010
0001
0100
0010
0100
0001
0010
0100
1000
0010
,
0100
0001
0100
0001
1000
0010
1000
0010
1000
0001
0010
0001
1000
0100
1000
0010
,
0100
0010
0100
0010
1000
0010
1000
0010
1000
0001
1000
0001
0010
0001
0010
0001
,
0100
0010
1000
0100
0010
0001
1000
0100
0010
0001
1000
0001
0010
0100
1000
0001
,
0010
0000
0000
0100
0000
0000
1000
0000
0000
0001
0000
0000
2000
0000
0000
0000
0000
0000
0000
0000
3010
0000
0000
0000
0000
0000
0000
0000
0100
0000
0000
0000
0000
0000
0000
0000
0001
0000
0000
0000
0000
0000
0000
0000
1000
0000
0000
0000
,
0000
0100
0000
0040
0004
0000
0000
0000
0000
0000
0000
0000
,
0000
0000
0033
0100
0010
0100
0001
1000
0100
0010
0001
1000
,
0010
0000
0000
0000
0100
0000
0000
0000
0001
0000
0000
0000
1000
0000
0000
0000
0100
0000
0000
0000
0010
0000
0000
0000
0001
0000
0000
0000
0000
0000
0100
0000
0000
0010
0000
0000
0100
0000
0000
0001
0000
0000
1000
0000
0000
0001
0000
0000
,
1000
0000
0000
0100
0000
0000
0010
0000
0000
0001
0000
0000
1000
0000
0000
0000
0100
0000
0000
0000
0010
0000
0000
0000
0001
0000
0000
0000
0010
0000
0000
0000
0100
0000
0000
0000
1000
0000
0000
0000
0010
0000
0000
0000
0100
0000
0000
0000
,
0001
0100
0010
1000
0100
0010
0001
0100
0010
1000
0010
0100
,
0001
0010
0001
0010
0100
1000
0100
0010
0001
0100
0010
0100
,
0001
1000
0010
0100
0001
0100
0010
1000
0001
1000
0100
0010
,
0001
0100
0010
0400
0040
0000
0000
0000
0000
0000
0000
0000
,
0000
0000
0000
0000
0330
0000
1000
0000
0000
0100
0000
0000
0001
0000
0000
0100
0000
0000
1000
0000
0000
0010
0000
0000
,
0001
0010
0100
0001
1000
0100
0010
0001
,
0100
0000
0010
0000
4000
0004
0000
0000
0000
0000
3003
0000
1000
0100
1000
0100
,
0010
0001
0010
0001
1MM2
0000
0000
0000
0013
0000
0100
0000
1000
0000
0001
0000
,
0100
0010
0001
0010
0100
0001
2000
3002
,
0023
0130
21MM
0000
3010
0100
0001
1000
,
0100
0000
0010
0000
0001
0000
0100
0000
1000
0000
0100
0010
0100
0000
0001
0000
,
1000
0000
0001
0000
0010
0001
0010
0001
0010
0000
0001
1000
0001
1000
0001
1000
,
0001
0000
0100
0010
0100
0010
0100
0010
0100
0000
0010
1000
0010
1000
0010
1000
,
0001
0010
0100
1000
0001
0100
0001
1000
0010
0100
0001
0100
0001
0010
0100
1000
,
0010
1000
0100
0010
0001
1000
0100
1000
0001
0010
0001
0100
0010
1000
0100
1000
,
0010
0100
0001
1000
MM20
0000
0000
0000
1030
0000
0100
0000
0010
0000
0001
0000
,
0100
1000
0100
0010
1000
0100
0002
0203
,
1300
0100
1002
0000
0103
0010
1000
0010
,
0100
0000
0001
0000
1000
0000
0100
0000
0010
0000
0001
0010
0001
0000
0100
0000
,
0110
0000
0010
0000
1000
0100
0010
0001
1000
0000
0001
0100
0010
0100
0001
1000
,
0010
0000
1000
0100
0010
0001
1000
0010
0100
0000
0001
1000
0010
0100
0010
1000
,
0001
1000
0001
1000
0010
1000
0010
1000
0001
0100
0001
0010
0100
1000
0100
0010
,
0100
0010
0100
1000
0100
1000
0100
1000
0001
1000
0001
0100
0010
1000
0100
0010
,
0001
0000
0010
0000
0001
0100
0010
0100
0001
0100
0010
0100
0002
0000
0003
1M1M
,
0000
0000
1M1M
0000
1000
0100
0010
0001
0000
0000
1010
0000
0001
0010
0100
1000
,
0000
0000
0011
0000
0100
0001
1000
0001
0100
0001
1000
0001
0200
0000
0300
M11M
,
0000
0000
M11M
0000
1000
0100
0010
0001
0000
0000
1M1M
0000
0001
0100
0010
1000
,
0000
0000
MM11
0000
0100
0001
1000
0010
0100
0001
1000
0010
2000
0000
3000
MM11
,
0000
0000
MM11
0000
0001
1000
0100
0010
0000
0000
1MM1
0000
0010
0100
0001
1000
,
0000
0000
1MM1
0000
1000
0001
0100
0001
1000
0001
0100
0001
2000
0000
3000
MM11
,
0000
0000
1M1M
0000
0010
0100
0001
1000
0000
0000
0011
0000
1000
0100
0010
0001
,
1000
0010
2002
3003
0000
0000
0000
0000
,
1000
0100
0010
0001
1000
0010
0100
0000
0000
0000
0000
0000
0000
0000
0000
0000
,
MM11
M1M1
0000
0000
,
0000
0000
0000
0000
0010
0100
0010
0100
0010
0000
1000
0000
0100
0000
0010
0000
,
0001
1000
1MM1
0000
0000
0000
0000
0000
;
