#TITLE:For Kogepan;
#SUBTITLE:;
#ARTIST:Milk & Donkey;
#TITLETRANSLIT:;
#SUBTITLETRANSLIT:;
#ARTISTTRANSLIT:;
#CREDIT:;
#BANNER:kogepan.png;
#BACKGROUND:kogepan-bg.png;
#LYRICSPATH:;
#CDTITLE:;
#MUSIC:Kogepan.MP3;
#OFFSET:-0.045;
#SAMPLESTART:49.290;
#SAMPLELENGTH:12.000;
#SELECTABLE:YES;
#BPMS:0.000=160.000;
#STOPS:;
#BGCHANGES:;
// cache tags:
#FIRSTBEAT:16.000;
#LASTBEAT:320.000;
#SONGFILENAME:Songs/IzzySM Keyboard Mega Pack/For Kogepan/Kogepan.sm;
#HASMUSIC:1;
#HASBANNER:1;
#MUSICLENGTH:123.410;
// end cache tags

//---------------dance-single - ----------------
#NOTES:
     dance-single:
     :
     Hard:
     10:
     1.000,1.000,0.446,0.032,1.000,869.000,55.000,4.000,0.000,0.000:
0000
0000
0000
0000
,
0000
0000
0000
0000
,
0000
0000
0000
0000
,
0000
0000
0000
0000
,
2002
0000
0000
0000
,
0000
0000
0000
0000
0000
0000
0000
3003
,
0000
2002
0000
0000
0000
0000
0000
0000
0000
0000
0000
0000
0000
0000
0000
0000
,
0000
0000
0000
0000
0000
0000
0000
0000
0000
0000
0000
0000
0000
3003
0000
0000
,
0001
0000
1000
0000
0001
0100
0000
0001
1000
0000
0001
0010
0000
0001
0100
0000
,
0001
0000
1000
0000
0001
1000
0000
0001
1000
0000
0001
1000
0000
0001
1000
0000
,
0100
0000
1000
0000
0100
0001
0000
0100
1000
0000
0001
0100
0000
0001
0010
0000
,
0001
0000
1000
0000
0010
1000
0000
0010
1000
0000
0010
1000
0000
0100
1000
0000
,
0001
0000
0100
0000
0001
1000
0000
0001
0100
0000
0001
1000
0000
0001
0100
0000
,
0001
0000
1000
0000
0010
0100
0000
0010
0100
0000
0010
0100
0000
0010
0100
0000
,
0010
0000
1000
0000
0100
0010
0000
0100
0001
0000
0100
0010
0000
0100
1000
0000
,
0001
0000
0100
0000
0010
1000
0000
0100
0010
0000
0001
0100
0000
0001
1000
0000
,
1001
0000
0001
0000
1000
0001
0000
1000
0010
0000
1000
0100
0000
1000
0001
0000
,
1001
0000
0010
0000
1000
0001
0000
1000
0100
0000
0010
0100
0000
0001
0010
0000
,
1001
0000
1000
0000
0010
0100
0000
0100
0010
0000
0010
1000
0000
1000
0001
0000
,
1001
0000
0010
0000
1000
0100
0000
0100
1000
0000
1000
0001
0000
0001
0100
0000
,
1001
0000
1000
0000
0001
1000
0000
0001
0100
0000
0001
0010
0000
0001
1000
0000
,
1001
0000
0010
0000
0100
0010
0000
1000
0001
0000
0100
0010
0000
1000
0100
0000
,
1001
0000
0010
0000
0001
1000
0000
1000
0100
0000
0100
0001
0000
0100
1000
0000
,
1001
0000
0001
0000
0001
1000
0000
0001
1000
0000
0001
1000
0000
0001
1000
0000
,
1001
0100
1000
0100
0001
0100
1000
0010
,
0001
0010
1000
0001
1000
0100
1000
0001
,
1001
0100
1000
0100
0010
0001
0100
0010
,
1000
0001
1000
0010
0100
0010
1000
0001
,
1001
0110
1100
0011
1010
0101
0110
1001
,
1100
0110
0011
0110
1100
0101
1100
0110
,
1001
1100
0011
1010
1001
0101
1001
0110
,
1001
0110
1100
0011
1100
0011
1010
0110
,
1001
1000
0100
0010
0001
0010
0100
1000
0100
0010
0001
0010
0100
1000
0100
0010
,
0001
0010
0100
1000
0001
1000
0010
1000
0100
1000
0100
1000
0100
1000
0001
0010
,
0100
1000
0010
0100
0001
0010
0100
1000
0010
0100
0001
0010
0100
1000
0001
1000
,
0100
0010
0001
0100
0010
1000
0100
0010
0001
0010
0001
0010
0001
0010
0001
1000
,
0001
1000
0001
1000
0001
0100
0001
0100
0001
1000
0100
0010
0001
1000
0001
0010
,
0100
1000
0001
1000
0100
0010
0001
1000
0001
0010
0100
1000
0010
0100
0001
0010
,
0100
1000
0100
0010
0001
0100
0010
1000
0100
0001
0100
1000
0100
0001
0100
1000
,
0010
0001
0010
1000
0001
0010
1000
0010
0001
0010
0001
0010
0100
1000
0001
1000
,
1001
0000
1000
0000
0001
0000
1000
0000
0001
0000
1000
0000
0100
0000
0010
0001
,
0010
0000
0001
0000
1000
0000
0100
0000
0010
0000
0001
0000
1000
0000
0001
1000
,
0001
0000
0100
0000
0010
0000
1000
0000
0100
0000
0001
0000
0100
0000
1000
0001
,
1000
0000
0001
0000
1000
0000
0010
0000
0100
0000
0010
0000
1000
0000
0100
0010
,
0100
0000
1000
0000
0001
0000
0100
0000
0010
0000
1000
0000
0100
0000
0010
0001
,
0010
0000
0001
0000
0100
0000
0010
0000
1000
0000
0001
0000
0100
0000
0010
1000
,
0010
0000
1000
0010
0000
1000
0010
0000
1000
0010
0000
1000
0010
0000
1000
0010
,
1001
0000
0001
0100
0000
0001
0100
0000
0001
0100
0000
1000
0100
0010
0001
1000
,
1001
0001
1000
0001
1000
0001
1000
0001
,
1000
0001
1000
0001
1000
0001
1000
0001
,
1001
0010
0100
0010
0100
0010
0100
0010
,
0100
0010
0100
0010
0100
0010
0100
0010
,
0110
0001
0100
0001
0100
0001
0100
0001
,
0100
0001
0100
0001
0100
0001
0100
0001
,
1001
0001
0100
0001
1000
0001
0100
0001
,
1000
0001
0100
0001
1000
0001
0100
0001
,
1001
0010
0100
0001
1000
0100
0010
0001
1000
0100
0010
0001
1000
0100
0010
0001
,
1000
0100
0010
0001
1000
0100
0010
0001
1000
0100
0010
0001
0010
0100
1000
0001
,
0010
0100
1000
0001
0010
0100
1000
0001
0010
0100
1000
0001
0010
0100
1000
0001
,
0010
0100
1000
0001
0010
0100
1000
0001
0010
0100
1000
0100
0010
0001
1000
0001
,
1000
0001
1000
0001
1000
0001
1000
0100
0010
0001
0100
0010
1000
0100
0010
0001
,
1000
0001
0100
0010
1000
0001
0100
0010
1000
0001
0100
0010
1000
0001
0100
0010
,
1000
0001
0100
0010
1000
0001
0100
0010
1000
0001
0100
0010
1000
0001
0100
0010
,
1000
0001
0100
0010
1000
0001
0100
0010
1000
0001
0100
0010
1000
0001
0100
0010
,
1001
0100
0001
0100
1000
0100
0001
0100
1000
0100
0001
0100
1000
0100
0001
0100
,
1000
0010
0001
0010
1000
0010
0001
0010
1000
0010
0001
0010
1000
0001
1000
0010
,
1000
0100
1000
0001
1000
0100
0001
0100
1000
0010
0001
0010
1000
0100
0001
0100
,
1000
0100
1000
0100
1000
0001
1000
0001
1000
0001
0100
0001
1000
0001
0100
0001
,
0010
0100
1000
0100
0010
0001
0010
0100
1000
0100
0010
0001
0010
0100
1000
0100
,
0010
0001
0010
0100
1000
0001
1000
0001
1000
0010
1000
0010
1000
0010
1000
0100
,
1000
0100
1000
0001
0010
0100
1000
0001
0010
0100
1000
0001
0010
0100
1000
0001
,
0010
0100
1000
0001
0010
0100
1000
0001
0010
0100
1000
0001
1000
0100
0010
0001
,
1001
1000
0001
0010
0100
1000
0010
0100
0001
0010
0100
1000
0010
0100
0001
1000
,
0001
1000
0001
0010
0100
1000
0100
0010
0001
0010
0100
1000
0100
0010
0001
0010
,
0100
1000
0100
0010
0001
0010
0100
1000
0100
0010
0001
0010
0100
1000
0000
1000
,
0000
1000
0000
1000
0000
1000
0000
1000
0000
1000
0000
1000
0000
1000
0000
1000
,
1000
1000
1000
1000
1000
1000
1000
1000
1000
1000
1000
1000
1000
1000
1000
1000
,
1000
1000
1000
1000
1000
1000
1000
1000
1000
1000
1000
1000
1000
1000
1000
1000
,
1000
1000
1000
1000
1000
1000
1000
1000
1000
1000
1000
1000
1000
1000
1000
1000
,
1000
1000
1000
1000
1000
1000
1000
1000
1000
1000
1000
1000
1000
1000
0000
0000
,
1001
0000
0000
0000
;
