#TITLE:Soldiers of the Wasteland;
#SUBTITLE:;
#ARTIST:Dragonforce;
#TITLETRANSLIT:;
#SUBTITLETRANSLIT:;
#ARTISTTRANSLIT:;
#CREDIT:B. Abear;
#BANNER:Bn-Soldiers.png;
#BACKGROUND:Bg-Soldiers.png;
#LYRICSPATH:;
#CDTITLE:;
#MUSIC:Soldiers of the Wasteland.ogg;
#OFFSET:-1.340;
#SAMPLESTART:50.940;
#SAMPLELENGTH:18.920;
#SELECTABLE:YES;
#BPMS:0.000=100.000,16.000=200.000,856.000=130.713,860.000=130.000,1141.000=130.250,1144.000=200.000,1592.000=100.000,1600.000=200.000;
#STOPS:;
#BGCHANGES:;
// cache tags:
#FIRSTBEAT:16.000;
#LASTBEAT:1765.000;
#SONGFILENAME:Songs/Dragonforce/Soldiers of the Wasteland/Soldiers of the Wasteland.sm;
#HASMUSIC:1;
#HASBANNER:1;
#MUSICLENGTH:585.822;
// end cache tags

//---------------dance-single - B. Abear----------------
#NOTES:
     dance-single:
     B. Abear:
     Challenge:
     15:
     1.000,1.000,0.258,0.326,1.000,4538.000,151.000,191.000,49.000,3.000:



0000
0000
0000
0000
,
0000
0000
0000
0000
,
0000
0000
0000
0000
,
0000
0000
0000
0000
,
1002
0000
0103
0010
2000
0000
3100
0010
,
0002
0000
2003
0000
3010
0100
0001
0010
,
0110
0100
1000
0001
0020
0000
0031
1000
,
1001
0001
0100
0010
2000
0000
0000
3000
,
1010
0010
0100
0001
2000
0000
3100
0010
,
0200
0000
4300
0000
3001
0100
0010
1000
,
1100
0100
0010
0001
0020
0000
0031
1000
,
1100
0100
1000
0001
0202
0000
0000
0303
,
2001
0000
3100
0010
0200
0000
1300
0001
,
0200
0000
0320
0000
0130
0001
1000
0010
,
1010
1000
0100
0010
0002
0000
0013
0100
,
1100
1000
0001
0100
0020
0000
0000
0030
,
1010
1000
0001
0010
0200
0000
1300
0001
,
0200
0000
0320
0000
0130
0001
0010
0100
,
0110
0010
0001
1000
0002
0000
0013
0100
,
1100
1000
0001
0100
0120
0000
0000
0030
,
1001
1000
1000
0100
0010
0010
0001
1000
,
0001
0100
0100
0010
1000
1000
0001
0010
,
0100
0100
0010
0001
0001
1000
0001
0100
,
0020
2030
3200
0320
,
0031
1000
1000
0100
0010
0010
0001
1000
,
0010
0100
0100
0001
1000
1000
0100
0010
,
0100
1000
1000
0001
0010
0010
0100
1000
,
0002
0203
0320
2030
,
3101
0110
1010
1001
,
1100
0110
0011
1001
,
1010
0101
0011
1001
,
1100
0110
0011
1001
,
0101
0110
1010
1001
,
1100
0110
0011
1001
,
0220
0000
0000
0030
,
0301
0010
0100
1000
0001
0010
0100
1000
0001
0100
0001
0100
0010
0000
1000
0100
,
0020
0001
0100
0130
0020
0001
0100
0130
,
0010
0001
0100
1000
0100
0001
0100
0001
,
2000
0001
0010
3010
2000
0001
0010
3010
,
0100
0001
0010
0001
0010
0100
0010
0001
,
2000
0001
0010
3010
2000
0001
0010
3010
,
1000
0001
0010
0100
0010
0001
0010
0001
,
0100
0010
1000
0001
0010
0100
1000
0001
,
0100
1000
0100
0001
1000
0100
0001
0100
,
2000
0001
0100
3100
2000
0001
0100
3100
,
1000
0001
0100
0010
0100
0001
0010
0010
,
0002
0100
0010
0013
0002
0100
0010
0013
,
0001
0100
0010
1000
0010
0100
0001
0001
,
0200
0010
0001
0301
0200
0010
0001
0301
,
0100
0010
0001
0010
1000
0100
0010
0100
,
1000
0001
1000
0100
0010
0100
1000
0001
,
1000
0100
1000
0100
1000
0001
1000
0001
0100
0001
0100
0001
0100
0010
0100
0010
,
1000
0100
1000
0100
1000
0100
1000
0100
1000
0100
1000
0100
0010
0001
0010
0001
,
1000
0001
1000
0001
1000
0001
1000
0001
1000
0001
1000
0001
0100
0010
1000
0001
,
0100
0010
0100
0010
0100
0010
0100
0010
0100
0010
0100
0010
1000
0001
1000
0001
,
0100
0001
0100
0001
1000
0001
1000
0001
1000
0100
1000
0100
0010
0100
0010
0100
,
2000
0001
0010
3010
2000
0001
0010
3010
,
1000
0001
0010
0100
0010
0001
0010
0001
,
0200
0010
0001
0301
0200
0010
0001
0301
,
0010
0100
1000
0001
0010
0100
1000
0001
0010
0100
1000
0100
0010
0001
1000
0100
,
0010
0001
0010
0001
0010
0001
0010
0001
0010
0001
0010
0001
1000
0010
1000
0010
,
0100
0010
0100
0010
0100
0010
0100
0010
0100
0010
0100
0010
1000
0100
1000
0100
,
0010
0100
0010
0100
0010
0100
0010
0100
0010
0100
0010
0100
0010
0001
0010
0001
,
1000
0010
1000
0010
1000
0010
1000
0010
0100
0001
0100
0001
0100
0001
0100
0001
,
1000
0100
1000
0100
1000
0001
1000
0001
0100
0010
0100
0010
0100
0001
0100
0001
,
1000
0100
1000
0100
0010
0100
0010
0100
0010
0001
0010
0001
1000
0010
1000
0010
,
0100
0001
1000
0100
0010
0001
1000
0010
0100
0001
1000
0100
,
0010
0001
1000
0010
0100
0001
1000
0001
0010
0100
1000
0100
0010
0001
1000
0010
,
0200
0040
0000
0000
,
0000
0000
0000
0000
,
0000
0000
0000
0000
,
0000
0000
0000
0000
,
0000
0000
0000
0000
,
0000
0000
0000
0000
0000
0000
0000
0330
,
2MM2
0000
0000
0000
0000
0000
0000
3003
,
M22M
0000
0000
0000
0000
0000
0000
0330
,
2002
0003
3001
0010
0110
0100
1000
0001
,
1001
1000
0100
0010
0011
0001
1000
0010
,
0110
0100
0001
1000
1001
0001
0010
0100
,
1100
1000
0001
1000
1010
0010
0100
0001
,
2002
3000
1003
0100
0110
0010
0001
1000
,
1010
0010
0100
0001
1001
1000
0100
0010
,
0001
0100
0010
1000
0010
1000
0001
0100
0010
1000
0010
1000
0001
0100
0010
1000
,
0002
0000
0000
0000
,
1003
0010
1000
0000
0010
0100
0010
0000
0100
0001
0100
0000
0010
1000
0010
0000
,
1000
0010
0100
0000
0100
0000
0001
0010
0100
0000
0100
0000
1000
0001
1000
0000
,
0001
0010
0001
0000
1000
0010
1000
0000
0010
0100
0010
0000
0100
0001
0100
0000
,
0010
0000
0100
0000
0001
1000
0001
0000
0010
0000
0100
0000
1000
0100
1000
0000
,
0001
0010
0001
0000
1000
0001
1000
0000
0010
0100
0010
0000
0100
0001
0100
0000
,
0010
1000
0010
0000
1000
0010
1000
0000
0001
0010
0001
0000
1000
0001
1000
0000
,
0001
0010
0001
0010
0100
1000
0100
1000
0001
0100
0001
1000
0010
0100
0010
1000
,
0001
0100
0001
0100
0010
0100
0010
0100
0001
1000
0001
1000
0100
1000
0100
1000
,
0001
0000
0010
0000
0100
1000
0001
0000
0100
0000
0010
0000
1000
0010
0100
0000
,
0001
0000
0010
0000
0100
1000
0010
0000
0100
0000
0010
0000
1000
0001
0010
0000
,
0100
0000
1000
0000
0001
0010
0100
0000
0010
0000
0100
0000
1000
0001
0100
0000
,
0010
0000
1000
0000
0001
0010
0001
0000
1000
0000
0100
0000
0010
0001
0010
0000
,
0100
0000
1000
0000
0001
0100
0010
0000
1000
0000
0001
0000
0010
0001
1000
0000
,
0010
0000
0100
0000
0010
1000
0100
0000
0010
0000
0001
0000
0100
0010
1000
0000
,
0001
0000
0100
0000
0010
1000
0001
0000
1000
0000
0100
0000
0010
0001
0100
0000
,
0001
0100
0010
1000
0001
0100
0010
1000
0001
0100
0010
1000
0001
0100
0010
1000
,
0001
0100
0001
0000
1000
0010
1000
0000
0001
0010
0001
0000
1000
0100
1000
0000
,
0010
0100
0010
0000
0100
0001
0100
0000
0010
1000
0010
0000
1000
0100
1000
0000
,
0002
0000
1003
0010
0100
0001
2000
0000
3001
0010
0001
1000
0100
1000
0001
0100
,
0010
0100
0001
1000
0100
0010
0001
1000
0010
0100
0010
0100
0001
0000
0010
0000
,
0100
0000
1000
0000
0001
0100
0010
0000
1000
0000
0001
0000
0010
0001
0100
0000
,
0010
0000
1000
0000
0100
0010
0001
0000
1000
0000
0010
0000
0100
0001
1000
0000
,
0010
1000
0010
0000
0100
0001
0100
0000
0001
1000
0001
0000
1000
0100
1000
0000
,
0001
0010
0001
0010
0100
1000
0100
1000
0001
1000
0001
1000
0010
0100
0001
1000
,
0010
0100
0010
0100
0010
0100
0010
0100
0010
0100
0010
0100
0010
0100
0010
0100
,
0010
0100
0010
0100
0010
0100
0010
0100
0010
0100
0010
0100
0010
0100
0010
0100
,
0001
1000
0001
1000
0001
1000
0001
1000
0001
1000
0001
1000
0001
1000
0001
1000
,
0001
1000
0001
1000
0001
1000
0001
1000
0001
1000
0001
1000
0001
1000
0001
1000
,
0001
0100
0001
0100
0001
0100
0001
0100
0010
1000
0010
1000
0010
1000
0010
1000
,
0001
0010
0001
0010
0001
0010
0001
0010
0100
1000
0100
1000
0100
1000
0100
1000
,
0001
0100
0010
1000
0001
0000
0001
0100
0010
1000
0001
0000
0011
0000
0110
0000
,
0100
1000
0100
1000
0001
1000
0001
1000
0010
1000
0010
1000
0010
0100
0010
0100
,
0001
0000
0010
0000
0100
1000
0001
0000
1000
0000
0100
0000
0010
0001
0100
0000
,
0010
0000
0100
0000
0001
1000
0100
0000
0010
0000
0100
0000
1000
0001
0010
0000
,
0001
0000
0100
0000
0010
1000
0100
0000
0010
0000
0100
0000
1000
0001
0100
0000
,
0010
0000
0100
0000
0010
1000
0001
0000
0100
0000
0010
0000
1000
0001
0010
0000
,
0100
0000
1000
0000
0001
0010
0001
0000
1000
0000
0100
0000
0010
0001
0010
0000
,
0100
0000
1000
0000
0010
1000
0010
0000
1000
0000
0100
0000
0010
0100
0010
0000
,
0001
0000
0100
0000
0010
1000
0010
0000
1000
0000
0100
0000
0010
0001
0010
0000
,
0100
0010
0001
1000
0100
0010
0001
1000
0100
0010
0001
1000
0100
0010
0001
1000
,
0010
0000
0100
0000
0001
1000
0100
0000
0010
0000
0001
0000
0100
0010
1000
0000
,
0001
0000
0010
0000
0001
0100
0010
0000
1000
0000
0100
0000
0010
0100
1000
0000
,
0001
0000
1000
0000
0001
0010
0100
0000
1000
0000
0001
0000
0100
0010
1000
0000
,
0001
0000
0010
0000
0001
0010
0100
0000
0010
0000
0001
0000
0100
0010
1000
0000
,
0001
0000
0010
0000
0001
0010
0001
0000
1000
0000
0010
0000
0100
0010
0100
0000
,
0010
0000
1000
0000
0001
0010
0001
0000
1000
0000
0010
0000
0100
0001
0100
0000
,
0010
0000
1000
0000
0001
1000
0001
0000
1000
0000
0100
0000
0010
0100
0010
0000
,
0001
0010
0001
0010
0100
0010
0100
0010
0100
1000
0100
1000
0001
1000
0001
1000
,
0010
0000
0010
1000
0001
0000
0010
0000
0100
0000
1000
0100
0010
0001
1000
0000
,
0010
0100
0010
1000
0001
0010
0100
0010
,
0001
0000
0001
1000
0010
0000
0100
0000
0010
0000
1000
0001
0010
0100
0010
0000
,
0100
0000
1000
0000
0001
0000
1000
0000
0010
0100
0010
0100
0001
1000
0001
1000
,
0100
0000
0100
0010
0001
0000
1000
0000
0010
0000
0100
0001
1000
0100
0010
0000
,
0001
1000
0001
0100
0010
0100
0010
1000
,
0001
0000
0001
0100
0010
0000
1000
0000
0100
0000
0010
0100
1000
0001
0010
0000
,
0011
0000
0110
0000
1100
0000
1001
0000
1000
0010
1000
0010
0100
0001
0100
0001
,
1000
0010
1000
0010
0100
0010
0100
0010
0100
0001
0100
0001
1000
0001
1000
0001
,
0010
0100
0010
0100
1000
0100
1000
0100
1000
0001
1000
0001
1000
0010
1000
0010
,
0200
0000
0320
0000
,
1031
0000
4000
0004
0000
0000
0000
0000
0000
0000
0000
0000
0000
0000
3003
0000
,
0011
0000
0004
4000
0000
0000
3003
0000
2020
0000
3030
0000
0220
0000
0330
0000
,
0202
0300
1003
0100
0100
0100
0010
0001
,
0001
0001
1000
0010
0010
0010
0100
0001
,
0001
0001
0010
0001
0001
0001
1000
0100
,
0100
0100
0010
0001
0001
0001
1000
0010
,
0202
0300
1003
0010
0010
0010
0100
0001
,
0001
0000
0001
0000
1000
0000
1000
0100
0010
0000
0001
0100
0010
0000
0100
0000
,
0100
0000
0100
0000
0001
0000
1000
0000
1000
0000
1000
0000
0100
0000
0100
0010
,
0001
0000
0011
0000
1001
0000
1000
0100
0010
0001
1000
0000
0101
0000
0101
0000
,
1000
0100
1000
0000
0001
1000
0001
0000
0010
0001
0010
0000
0100
1000
0100
0000
,
1000
0010
0100
0000
0100
0000
0001
1000
0100
0000
0100
0000
0010
0001
0010
0001
,
1000
0010
1000
0000
0001
0100
0001
0000
1000
0100
1000
0000
0010
0100
0010
0000
,
0100
0000
0001
0000
1000
0100
1000
0000
0001
0010
0001
0010
0001
1000
0001
1000
,
0010
0100
0010
0000
1000
0001
1000
0000
0001
0010
0001
0000
1000
0100
1000
0000
,
0001
0010
0100
0000
0100
0000
1000
0010
0100
0000
0100
0000
0001
1000
0001
0000
,
0100
0010
0100
0000
0010
1000
0010
0000
1000
0001
1000
0000
0001
0010
0001
0000
,
1000
0000
0100
0000
0010
0001
0010
0000
0100
0000
1000
0000
0001
0100
0001
0000
,
1000
0000
0010
0000
0100
0001
0100
0000
0001
0000
1000
0000
0100
0010
0100
0000
,
1000
0000
0001
0000
0100
0010
0100
0000
0001
0000
1000
0000
0001
0010
0001
0000
,
1000
0000
0100
0000
1000
0001
1000
0000
0001
0000
0100
0000
0010
0100
0010
0000
,
0100
0000
0001
0000
1000
0100
1000
0000
0001
0000
0010
0000
0100
1000
0100
0000
,
0010
0001
1000
0001
0100
0010
1000
0001
0010
0001
1000
0100
1000
0010
0100
0001
,
1000
0100
0010
0001
0010
0001
1000
0010
0100
0001
0100
0010
1000
0001
0010
0100
,
1000
0001
0010
0100
1000
0010
0100
0001
1000
0010
0100
0001
0100
0001
1000
0100
,
0010
0001
0010
0001
1000
0010
0100
0001
1000
0100
0010
0001
1000
0001
1000
0001
,
0100
0010
1000
0001
0100
0010
1000
0001
0100
0010
1000
0001
0100
0010
1000
0001
,
1000
0100
0010
0001
1000
0100
0010
0001
1000
0100
0010
0001
1000
0100
0010
0001
,
1000
0010
1000
0010
1000
0010
0100
0001
0100
0001
0100
0001
0100
0001
0100
0001
,
1000
0100
1000
0100
1000
0100
0010
0001
0010
0001
0010
0001
0010
0001
0010
0001
,
1000
0000
0010
0000
0100
0001
1000
0000
0001
0000
0010
0000
0100
1000
0010
0000
,
0100
0000
0001
0000
1000
0010
0100
0000
0001
0000
1000
0000
0100
0010
0001
0000
,
2000
0000
0000
3200
0000
0000
0320
0000
,
0031
1000
0000
0000
0010
0100
0000
0000
0001
1000
0000
0000
0010
0100
0000
0000
,
0001
1000
0100
1000
0010
0100
0001
1000
0100
0010
0001
1000
0001
1000
0001
0100
,
0010
0100
0001
1000
0100
0010
0100
1000
0001
0010
0001
0010
0100
1000
0001
0100
,
0010
1000
0010
1000
0010
1000
0010
1000
0010
1000
0010
1000
0010
1000
0010
1000
,
0010
1000
0010
1000
0010
1000
0010
1000
0010
1000
0010
1000
0010
1000
0010
1000
,
0001
0010
0001
0010
0001
1000
0001
1000
0010
1000
0010
1000
0010
0100
0010
0100
,
0001
0100
0001
0100
0001
0010
0001
0010
0100
0010
0100
0010
0100
1000
0100
1000
,
0001
1000
0001
1000
0001
0100
0001
0100
0010
0100
0010
0100
0010
1000
0010
1000
,
0001
0010
0100
1000
0001
0010
0100
1000
0001
0010
0100
1000
0001
0010
0100
1000
,
0001
0000
0100
0000
0010
1000
0001
0000
1000
0000
0100
0000
0010
0100
1000
0000
,
0010
0000
0100
0000
0001
1000
0100
0000
1000
0000
0010
0000
0100
0001
0010
0000
,
0100
0000
1000
0000
0010
0100
0001
0000
0100
0000
0010
0000
1000
0001
1000
0000
,
0001
0000
0010
0000
0100
1000
0001
0000
0010
0000
0001
0000
1000
0010
0100
0000
,
0001
0000
1000
0000
0100
0010
0001
0000
1000
0000
0010
0000
0100
0001
0010
0000
,
0100
0000
1000
0000
0100
1000
0010
0000
0100
0000
0001
0000
1000
0010
0100
0000
,
0001
0000
0010
0000
0100
1000
0100
0000
0010
0000
0001
0000
1000
0010
0100
0000
,
0001
0100
0010
1000
0010
1000
0001
0100
0010
1000
0010
1000
0001
0010
0100
1000
,
0001
0000
0100
0000
0010
1000
0100
0000
1000
0000
0001
0000
0010
0100
1000
0000
,
0001
0000
0100
0000
0010
1000
0001
0000
1000
0000
0100
0000
0010
0100
1000
0000
,
0001
0000
0100
0000
0010
1000
0100
0000
0010
0000
0001
0000
0100
0001
1000
0000
,
0010
0000
0100
0000
0001
0100
0010
0000
1000
0000
0001
0000
1000
0100
1000
0000
,
0001
0000
0100
0000
0010
0100
0001
0000
1000
0000
0100
0000
0010
0100
1000
0000
,
0001
0000
0100
0000
0010
0100
0001
0000
1000
0000
0100
0000
0010
0001
0100
0000
,
0010
0000
0100
0000
0001
1000
0100
0000
1000
0000
0010
0000
0100
0001
0100
0000
,
0010
1000
0001
0100
0001
0100
0010
1000
0001
0100
0001
0100
0010
1000
0001
0100
,
0010
0000
0010
1000
0001
0000
1000
0000
0100
0010
0001
1000
0001
0000
0100
0000
,
0010
1000
0001
0010
0100
1000
0001
1000
,
0001
0000
0001
1000
0010
0000
0100
0000
0010
0100
0001
0010
0100
0000
1000
0000
,
0001
0000
0100
0000
1000
0000
0100
0000
0001
0010
0100
1000
0002
0000
0000
0000
,
1003
0000
1000
0010
0100
0000
0001
0000
1000
0100
1000
0001
0100
0000
0010
0000
,
1000
0001
1000
0100
0010
0001
1000
0010
,
0100
0000
0100
0010
1000
0000
0001
0000
1000
0100
0010
0001
0010
0000
0001
0000
,
1000
0010
1000
0010
1000
0001
1000
0001
0010
0001
0010
0001
0010
0100
0010
0100
,
1000
0010
0100
0001
1000
0100
0010
0100
1000
0001
0100
0010
1000
0001
0010
0001
,
1000
0010
0100
0001
1000
0100
1000
0001
0100
0001
0010
0100
1000
0010
0100
0001
,
1000
0000
0001
0000
1001
0110
0000
0000
,
2MM2
0000
0000
3003
,
2M2M
3030
MM22
0033
22MM
3300
M2M2
0303
,
2MM2
0000
0000
0000
,
0000
0000
0000
0000
,
0000
0000
0000
0000
,
0000
0000
0000
0000
,
0000
0000
0000
0000
,
0000
0000
0000
0000
,
0000
0000
0000
0000
,
0000
0000
0000
3003
,
2004
3000
0100
0100
0000
0000
0000
1000
,
2000
3000
0100
0100
0000
0000
0000
0000
,
0200
0300
1000
1000
0000
0000
0000
1000
,
2000
0000
0000
3000
0000
0000
0010
0000
0000
0013
0000
0000
1100
0000
0000
1000
0100
0010
0001
0000
0000
0100
0000
0000
,
4020
0030
0001
0001
0000
0000
0000
0001
,
0002
0003
0010
0010
0000
0000
0000
0000
,
0020
0030
0001
0001
0000
0000
0000
3001
,
1010
0000
0000
0000
0000
0000
1000
0000
0010
0000
0100
0000
0001
0000
0000
0000
0000
0000
0010
0000
0000
0000
0000
0000
0100
0000
0000
0000
0000
0000
1000
0000
0000
0100
0000
0000
0001
0000
0000
0000
0000
0000
0001
0000
0000
0100
0000
0000
,
2400
3000
0010
0020
0030
0000
0000
0010
,
0020
0030
1000
1000
0000
0000
0000
0000
,
2000
3000
0010
0010
0000
0000
0000
0010
,
0020
0000
0030
0000
1000
0000
1300
0000
0011
0000
0001
1000
1100
0000
0100
0000
,
0240
0300
0001
0001
0000
0000
0000
0001
,
0002
0003
0100
0100
0000
0000
0000
0000
,
0002
0003
0100
0100
0000
0000
0000
0130
,
1100
0000
0000
0000
0000
0000
1000
0000
0001
0000
0100
0000
0001
0000
0000
0000
0000
0000
0100
0000
0000
0000
0000
0000
0010
0000
0000
1000
0000
0000
0001
0000
0000
0100
0000
0000
0010
0000
0000
1000
0000
0000
0001
0000
0000
0100
0000
0000
,
0001
1000
0001
0010
0001
1000
0001
0100
0001
1000
0001
0010
0001
1000
0001
0100
,
0001
1000
0001
0010
0001
1000
0001
0100
0001
1000
0001
0010
0001
1000
0001
0100
,
0010
0100
0010
1000
0010
0100
0010
0001
0010
0100
0010
1000
0010
0001
0010
0100
,
0010
1000
0010
0100
0010
0001
0010
1000
0010
0100
0010
0001
0010
0100
0010
1000
,
0100
0010
0100
1000
0100
0010
0100
0001
0100
0010
0100
1000
0100
0010
0100
0001
,
0100
0010
0100
1000
0100
0010
0100
0001
0100
0010
0100
1000
0100
0010
0100
0001
,
0100
0010
0100
1000
0100
0010
0001
1000
0001
0100
0010
1000
0001
0010
0100
1000
,
0001
0100
0010
0100
0001
1000
0100
0001
0100
1000
0001
0100
0010
1000
0001
0010
,
0100
1000
0100
1000
0100
0010
0100
0010
0100
1000
0100
1000
0100
0010
0100
0010
,
0001
1000
0001
1000
0001
0100
0001
0100
0001
1000
0001
1000
0001
0100
0001
0100
,
0001
0010
0001
0010
0100
1000
0100
1000
0001
0010
0001
0010
0100
1000
0100
1000
,
0010
1000
0010
1000
0001
0100
0001
0100
0010
1000
0010
1000
0001
0100
0001
0100
,
0001
1000
0001
1000
0100
0010
0100
0010
0001
1000
0001
1000
0100
0010
0100
0010
,
0001
1000
0001
1000
0010
0100
0010
0100
0001
1000
0001
1000
0010
0100
0010
0100
,
0001
1000
0100
1000
0001
0010
0100
1000
0010
0100
0001
1000
0001
0010
0100
1000
,
1001
0000
0101
0000
0100
0010
0000
0010
1010
0000
1000
0000
0100
0010
0001
1000
,
0100
0010
0001
1000
0001
0100
0010
0100
0001
1000
0100
0010
0100
1000
0001
0100
,
0010
0000
0000
1000
0000
0000
0001
0000
0000
0010
0000
0000
0100
0000
0000
0010
0000
0000
0001
0000
0000
1000
0000
0000
0001
0000
0000
1000
0000
0000
0001
0000
1000
0000
0100
0000
1000
0000
0000
0000
0000
0000
0001
0000
0000
0000
0000
0000
,
0100
0010
1000
0001
0010
0100
1000
0010
0100
0010
0100
0001
1000
0100
0010
0001
,
1000
0100
1000
0010
0100
0001
1000
0100
0010
0001
1000
0100
0001
0000
0100
0000
,
1000
0100
1000
0010
0100
0001
0100
0010
1000
0001
0010
0001
1000
0100
1000
0010
,
0100
0000
0000
0001
0000
0000
0010
0000
0000
0100
0000
0000
1000
0000
0000
0001
0000
0000
0010
0000
0000
0100
0000
0000
1000
0000
0000
0001
0000
0000
1000
0000
0100
0000
1000
0000
0100
0000
0000
0000
0000
0000
0010
0000
0000
0000
0000
0000
,
0001
1000
0100
1000
0010
0100
0001
0010
0100
0010
0001
1000
0001
1000
0100
0010
,
0011
0000
1001
0000
0001
0101
0000
0100
0110
0000
0010
1000
1100
0000
0100
1000
,
0001
0010
0100
1000
0001
0010
0100
1000
0001
0100
0001
0100
0010
1000
0001
0010
,
0100
0000
0000
1000
0000
0000
0001
0000
0000
0100
0000
0000
0010
0000
0000
0100
0000
0000
0010
0000
0000
1000
0000
0000
0001
0000
0000
0010
0000
0000
0100
0000
1000
0000
0001
0000
0100
0000
0000
0000
0000
0000
0010
0000
0000
0000
0000
0000
,
0200
0000
0301
1000
0100
1000
0010
0100
0001
1000
0100
1000
0001
0010
0001
1000
,
0100
0010
0001
1000
1100
0100
0000
0000
0010
0000
0001
1000
1001
0001
0000
0000
,
0201
0000
0310
1000
0001
1000
0100
0010
0001
1000
0010
0100
0001
0100
0010
0100
,
0001
1000
0100
1000
1001
0000
0001
0000
0101
0000
0100
0010
1010
0000
1000
0000
,
1200
0000
0310
0001
0100
0000
0010
1000
0001
0000
1000
0100
0010
0000
0001
1000
,
0010
0000
1000
0000
0001
0000
1000
0000
0000
0100
0000
0000
0010
0000
0001
0000
1000
0000
0001
0000
0000
0100
0000
0000
0010
0000
0100
0000
0001
0000
1000
0000
0000
0100
0000
0000
0110
0000
0000
0000
0000
0000
0010
0000
0000
0000
0000
0000
,
0022
0000
0000
0000
,
0000
0000
0000
0000
0000
0000
0000
0033
,
2002
0000
0000
0000
,
0000
0000
0000
0000
0000
0000
0000
0000
0000
3003
0000
0000
1000
0000
0010
0000
0100
0000
0001
0000
1000
0000
0100
0000
,
0220
0000
0000
0000
,
0000
0000
0000
0000
0000
0000
0000
0330
,
0022
0000
0000
0000
,
0000
0000
0000
0000
0000
0000
0000
0000
0000
0033
0000
0000
1000
0000
0100
0000
0010
0000
0001
0000
1000
0000
0000
0000
,
2002
0000
0000
0000
,
3003
0000
0000
0000
0000
0101
0000
0000
0000
0110
0000
0000
0000
1010
0000
0000
0000
1001
0000
0000
0000
1100
0000
0000
,
0220
0000
0000
0000
,
0000
0000
0000
0000
0000
0000
0000
0000
0000
0330
0000
0000
0100
0000
1000
0000
0001
0000
0100
0000
0010
0000
1000
0000
,
2020
0000
0000
0000
,
0000
0000
0000
0000
0000
0000
0000
0000
0000
0000
0000
0000
0000
0000
0000
3030
0000
0000
0001
0000
1000
0000
0100
0000
,
2200
0000
0000
0000
,
0000
0000
0000
3300
,
1000
0010
0100
0001
1000
0100
0010
0100
1000
0001
1000
0010
0100
0001
1000
0100
,
0010
0001
0010
0100
1000
0001
1000
0010
0100
0001
0100
0001
1000
0100
1000
0100
,
0010
0001
1000
0010
0100
0001
1000
0001
0010
0100
1000
0010
0100
0001
1000
0001
,
0010
0100
1000
0010
0100
0001
0100
0010
1000
0001
1000
0001
0100
0010
0100
0010
,
1000
0100
0010
0001
0010
0100
1000
0001
0010
0100
0010
0001
1000
0001
0100
0010
,
1000
0001
0100
0010
1000
0001
0010
0001
1000
0100
1000
0100
0010
0001
0010
0001
,
1000
0010
0100
0001
1000
0100
1000
0001
0010
0001
1000
0010
0100
0001
1000
0010
,
0100
0001
1000
0001
1000
0010
0100
0001
1000
0010
1000
0010
0100
0001
0100
0001
,
1000
0100
1000
0100
1000
0100
1000
0100
0010
0100
0010
0100
0010
0100
0010
0100
,
0010
0001
0010
0001
0010
0001
0010
0001
1000
0010
1000
0010
0100
0001
0100
0001
,
1000
0100
1000
0100
1000
0100
1000
0100
1000
0001
1000
0001
1000
0001
1000
0001
,
0100
0001
0100
0001
0100
0001
0100
0001
1000
0010
1000
0010
0100
0001
0100
0001
,
0010
0001
0010
0001
0010
0001
0010
0001
0010
0100
0010
0100
0010
0100
0010
0100
,
1000
0100
1000
0100
1000
0100
1000
0100
0010
0001
0010
0001
1000
0100
1000
0100
,
0010
0001
0010
0001
0010
0001
0010
0001
1000
0001
1000
0001
1000
0001
1000
0001
,
0100
0001
0100
0001
0100
0001
0100
0001
1000
0010
1000
0010
0100
0001
0100
0001
,
1000
0001
1000
0001
1000
0001
1000
0001
0010
0001
0010
0001
0010
0001
0010
0001
,
0010
0100
0010
0100
0010
0100
0010
0100
1000
0001
1000
0001
0100
0010
0100
0010
,
1000
0010
1000
0010
1000
0010
1000
0010
0100
0010
0100
0010
0100
0010
0100
0010
,
0100
0001
0100
0001
0100
0001
0100
0001
1000
0100
1000
0100
0010
0001
0010
0001
,
1000
0010
1000
0010
1000
0010
1000
0010
1000
0001
1000
0001
1000
0001
1000
0001
,
0010
0001
0010
0001
0010
0001
0010
0001
1000
0010
1000
0010
0100
0001
0100
0001
,
1000
0001
1000
0001
1000
0001
1000
0001
0100
0010
0100
0010
0100
0010
0100
0000
,
1001
0110
1001
0110
,
0010
1000
0001
0000
0010
0000
0100
0000
1000
0000
0001
0000
0100
0000
0010
0000
,
0100
0000
0001
0000
1000
0100
0010
0001
0020
0000
0000
0000
0000
0000
0000
0000
,
0130
1000
0001
0100
0010
1000
0001
0010
0100
1000
0001
0100
0010
1000
0001
0010
,
0100
0010
0001
1000
0010
0100
0001
1000
0100
0010
0001
1000
0010
0100
0001
1000
,
0200
0000
0310
0001
0010
0001
0020
0000
0031
1000
0001
1000
0002
0000
0103
0010
,
1000
0000
1000
0001
0010
0000
0100
0000
1000
0000
0010
0000
0100
0000
0001
0000
,
1000
0100
0010
0001
1000
0001
0100
0010
1000
0001
0010
0001
1000
0100
1000
0010
,
0100
0001
0000
1000
0000
0000
0100
0000
0000
0010
0000
0000
0001
0010
0000
0100
0000
0000
1000
0000
0000
0001
0000
0000
,
0200
0000
0000
0320
0000
0000
2030
0000
,
3002
0000
0000
0000
0000
1003
0100
0010
,
0002
0000
0000
0203
0000
0000
0320
0000
,
0230
0000
0301
2000
0000
0000
0000
0000
,
3001
0101
0000
0200
0000
0310
1000
0001
,
0011
0000
0000
0010
0000
0000
0100
0000
0000
4000
0000
0000
0000
0000
0000
3001
0000
0000
0100
0010
0000
1000
0000
0000
,
0001
0010
0001
0010
0100
0010
0100
0010
0100
1000
0100
1000
0001
1000
0001
1000
,
0010
0100
0001
1000
0100
1000
0001
0010
0001
0100
0010
1000
0001
0010
0001
0010
,
0100
1000
0001
0100
0010
1000
0001
1000
0100
0010
0001
0100
0010
0100
0001
0010
,
0100
1000
0001
0100
0001
1000
0100
0010
0001
0010
0001
1000
0010
0100
0001
0100
,
0001
1000
0001
0010
0100
1000
0100
1000
0001
0100
0001
1000
0010
1000
0001
0010
,
0100
1000
0010
1000
0010
0100
0001
0010
0002
0000
0000
0000
4000
0000
0003
0000
,
3100
0000
0000
0010
0000
0000
0001
0000
0000
1000
0000
0000
0MMM
0000
0000
0000
0001
0000
0100
0000
0000
0010
0000
0000
1000
0000
0000
0001
0000
0000
0010
0000
0000
0000
0000
0000
MMM1
0000
0000
0100
0000
0000
0001
0000
0000
1000
0000
0000
,
0MMM
0000
0010
1000
0001
0100
M0MM
0000
2020
0000
0000
0000
0000
0000
0030
0000
,
3001
0001
0010
0100
1000
0001
1000
0100
,
1000
0100
1000
0001
1000
0010
1000
0100
1000
0001
0100
0010
1000
0001
0010
0100
,
1000
1000
1000
1000
0001
1000
0010
1000
,
0002
0000
0103
0020
0000
0000
0000
1030
,
0001
0001
0001
0001
1000
0001
0010
0001
,
0200
0000
0000
0000
0310
0000
0200
0000
0310
1000
0001
0100
0010
1000
0001
0100
,
0004
4000
0000
0000
0000
0000
0003
0000
3010
0000
0100
0000
0010
0000
0100
0000
,
0004
0040
0000
0000
0000
0000
0003
0000
0031
0000
0100
0000
0001
0000
0020
0000
,
0000
0000
0000
0000
0000
0000
0000
0000
0000
0000
0000
0000
0000
0000
0000
0000
0000
0000
0130
1000
0000
0000
0000
0000
,
0002
0000
0000
0000
0100
0000
1000
0000
0000
0000
0100
0000
1003
0010
1000
0000
,
0001
0010
0001
0010
0100
1000
0100
1000
0001
0100
0010
1000
0001
0010
0100
1000
,
0001
0100
0001
0100
0010
0100
0010
0100
0001
1000
0100
0010
0100
1000
0001
0100
,
0010
1000
0010
1000
0001
0010
0001
0010
0100
1000
0010
1000
0001
0010
0100
1000
,
0001
0000
0000
0000
0100
0000
0000
0000
0010
0000
0000
0000
1000
0000
0000
0000
0001
0000
0000
0000
0010
0000
0000
0000
0100
0000
0000
1000
0000
0000
0001
0000
0000
0100
0000
0000
0010
0000
0000
0000
0000
0000
MM0M
0000
0000
0000
0000
0000
,
1010
0000
1000
0010
0100
0001
0100
0001
1000
0100
0010
0001
1000
0001
0100
0000
,
0101
0000
0001
1000
0100
0010
0100
0010
0001
1000
0001
0100
0010
1000
0001
0000
,
1000
0100
1000
0100
0010
0001
0010
0001
1000
0010
0100
0010
1000
0001
1000
0010
,
0100
0001
0100
0001
1000
0100
1000
0100
0010
0100
0010
0100
1000
0001
0100
0010
,
1000
0000
1000
0000
1000
0000
2000
0000
0000
0000
3002
0000
0000
0000
1003
0100
,
0020
0000
0000
0000
0000
0000
0000
0000
0000
0000
0000
0000
0000
0000
0000
0000
0000
0000
0000
0000
0000
0000
0000
0000
0000
0000
0000
0000
0030
0002
0000
0000
0000
0000
0000
0000
0000
0000
0000
0000
0000
0000
0000
0000
0000
0000
0000
0000
0000
0000
0000
0000
0000
0000
0000
0000
0000
0000
0000
0000
0000
0000
0000
0000
,
1003
0000
0000
0000
0100
0000
0000
0000
0010
0000
0000
0000
0001
0000
0000
0000
1000
0000
0000
0000
0001
0000
0000
0000
0100
0000
0000
0010
0000
0000
1000
0000
0000
0001
0000
0000
0010
0000
0000
0100
0000
0000
1000
0000
0000
0001
0000
0000
,
0100
0000
0000
0010
0000
0000
1000
0000
0000
0001
0000
0000
1000
0000
0000
0100
0000
0000
0010
0000
0000
0100
0000
0000
1000
0000
0000
0000
0001
0000
0000
0000
0100
0000
0000
0000
0020
0000
0000
0000
0000
0000
0000
0000
0000
0000
0000
0000
,
1030
0010
0001
1000
0100
0001
1000
0100
0010
1000
0100
0010
,
0001
0100
0010
1000
0001
0100
0001
0100
0010
1000
0010
1000
0001
0010
0100
1000
,
0002
0000
0000
0203
0320
0000
0000
0000
,
1030
0001
0100
0001
1000
0100
0010
0001
0100
0020
0000
0000
,
1030
0001
1000
0100
0010
0100
1000
0001
0100
0010
1000
0001
0010
0001
1000
0100
,
1000
0010
0100
0001
0100
0010
1000
0001
1000
0100
0010
0001
0010
0001
1000
0010
,
0100
0010
0100
0001
1000
0001
0010
0100
1000
0010
0100
0010
1000
0010
1000
0001
,
0010
0100
1000
0001
1000
0010
0100
0001
2000
0000
0000
0000
3002
0000
0000
0000
,
1003
0100
0010
0001
1000
0001
0100
0010
1000
0001
1000
0100
0010
0001
1000
0100
,
1000
0010
0100
0001
1000
0100
0010
0001
1000
0001
0100
0010
0100
0001
1000
0100
,
0010
0000
0000
0001
0000
0000
1000
0000
0000
0001
0000
0000
0100
0000
0000
0010
0000
0000
1000
0000
0000
0001
0000
0000
1000
0000
0000
0000
0100
0000
0000
0000
0010
0000
0000
0000
0100
0000
0000
0000
1000
0000
0000
0000
0001
0000
0000
0000
,
0100
0010
1000
0001
0100
0010
1000
0001
0100
0010
1000
0001
0100
0010
1000
0001
,
0010
0000
0000
0100
0000
0000
0010
0000
0000
0000
0001
0100
0001
0100
0001
1000
,
0100
0000
0000
0010
0000
0000
0001
0000
0000
0000
1000
0010
1000
0010
0100
0001
,
1000
0000
0000
0100
0000
0000
0010
0000
0000
0000
0001
0010
0001
0010
0100
1000
,
0001
0000
0000
0100
0000
0000
0010
0000
0000
0000
1000
0010
1000
0010
0100
0001
,
1000
0100
1000
0100
0010
0001
1000
0010
0100
0001
0100
0001
1000
0100
0010
0001
,
1000
0000
0000
0010
0000
0000
0100
0000
0000
0001
0000
0000
1000
0000
0100
0000
0010
0000
0001
0000
0000
1000
0000
0000
0010
0000
0000
0100
0000
0000
0001
0000
1000
0000
0010
0000
1000
0000
0000
0001
0000
0000
0010
0000
0000
0100
0000
0000
,
1000
0001
1000
0001
1000
0001
0100
0001
0100
0001
0100
0001
1000
0010
1000
0010
,
0200
0000
0000
0000
0000
0000
0302
0000
2003
0000
3200
0000
0310
0001
1000
0010
,
0100
0001
1000
0100
0010
0100
1000
0001
0100
0010
1000
0001
,
0010
0100
1000
0001
0100
0001
0100
0010
1000
0004
0000
0000
,
1003
0100
1000
0001
1000
0010
0100
0001
,
1000
0000
0000
0100
0000
0000
0010
0000
0000
0001
0000
0000
2000
0000
0000
0000
0000
0000
3001
0100
0001
0200
0000
0000
,
0310
1000
0001
0010
0100
0010
0001
1000
0010
0100
0001
0010
,
0100
0000
0000
1000
0000
0000
0100
0000
0000
1000
0000
0000
0001
0000
0000
1000
0000
0000
0001
0000
0000
1000
0000
0000
0010
0000
0000
1000
0000
0000
0010
0000
0000
1000
0000
0000
0001
0000
0000
0000
0100
0000
0000
0000
0010
0000
0000
0000
,
1000
0100
0010
0001
1000
0010
0400
0000
,
1301
0000
0100
0000
0000
0000
1001
0000
0010
0000
0000
0000
1000
0001
1000
0001
,
0200
0000
0000
0320
0000
0000
2030
0000
,
3002
0000
0000
0000
0000
0000
2003
0000
0000
3010
0100
0010
0100
0000
0001
0000
1000
0000
0200
0000
0000
0000
0000
0000
,
2300
3000
1000
2000
0000
3002
0000
2003
,
3010
0100
0001
1000
0100
1000
0001
0010
0100
1000
0001
0010
0100
0010
0001
1000
,
0010
0000
0000
0000
1000
0000
0000
0000
0001
0000
0000
0000
0010
0000
0000
0000
0001
0000
0000
0000
1000
0000
0000
0000
0200
0000
0000
0000
0000
0000
0000
0000
0000
0000
0000
0000
1300
0000
0000
0001
0000
0000
1000
0000
0000
0001
0000
0000
,
0100
0010
1000
0010
1000
0001
0100
0010
1000
0010
1000
0001
,
1000
0100
0010
0001
0010
0001
0100
0010
2000
0000
0000
0000
3002
0000
0000
0000
,
1003
0100
0010
0001
1000
0010
0100
0001
1000
0001
0010
0100
1000
0010
1000
0001
,
0100
0010
1000
0001
0010
0001
1000
0100
0010
0001
1000
0010
1000
0010
0100
0001
,
1000
0010
1000
0001
0010
0001
1000
0100
1000
0001
0010
0100
1000
0010
0100
0010
,
1000
0001
1000
0100
0010
0001
0010
0100
1000
0010
0100
0001
1000
0001
0010
0100
,
1000
0100
0010
0001
0100
0001
1000
0010
2000
0000
0000
0000
3020
0000
0000
0000
,
1030
0001
1000
0001
1000
0001
1000
0001
1000
0001
1000
0001
1000
0001
1000
0001
,
0100
0010
0100
0010
0100
0010
0100
0010
0100
0010
0100
0010
0100
0010
0100
0010
,
1000
0001
1000
0001
1000
0001
1000
0001
1000
0001
1000
0001
1000
0001
1000
0001
,
0010
0100
1000
0001
0100
0010
1000
0001
0010
0001
0100
0010
1000
0001
0010
0001
,
2MM2
0000
0000
0000
,
3113
M000
0000
0M00
0000
000M
M000
0000
0000
00M0
0000
0M00
,
0001
0100
0010
1000
0001
1000
0100
0010
0001
1000
0001
0010
0100
1000
0010
0100
,
0001
1000
0100
1000
0001
0010
0001
0100
0010
1000
0001
0010
0001
0100
0010
1000
,
0200
0000
0000
2300
0000
0000
3002
0000
,
1003
0100
0010
0001
1000
0100
0010
0001
1000
0100
0010
0001
1000
0100
0010
0001
,
1000
0000
0010
0000
0100
0001
1000
0000
0010
0000
1000
0000
0001
0010
0100
0000
,
1000
0000
0001
0000
0100
0010
1000
0000
0010
0000
0100
0000
0001
0100
0010
1000
,
0001
0000
0010
0000
0100
1000
0001
0000
0100
0000
0010
0000
0100
0001
0010
0000
,
0100
0000
1000
0000
0001
0010
0100
0000
0010
0000
0001
0000
1000
0010
0100
0000
,
0002
0000
1003
0100
1000
0001
0020
0000
0130
1000
0001
0100
0020
0000
0130
0001
,
2000
0000
3010
0100
0001
1000
0200
0000
0310
0001
1000
0001
2000
0000
3001
0100
,
0020
0000
1030
0001
0010
0001
0200
0000
0310
1000
0001
0010
0200
0000
1300
0010
,
0100
0001
0100
0001
1000
0100
1000
0100
0010
0001
0010
0001
1000
0010
1000
0010
,
0100
0000
0010
0000
1000
0001
0010
0000
0100
0000
1000
0000
0010
0100
0010
0000
,
0100
0000
0001
0000
1000
0100
0010
0000
0001
0000
1000
0000
0001
0100
0010
0000
,
0110
0000
0100
0000
0001
1000
0100
0000
0010
0000
0001
0000
1000
0100
0010
0000
,
0001
0000
1000
0000
0010
0100
0001
0000
1000
0000
0001
0000
1000
0100
1000
0000
,
1001
0000
0001
0000
0100
0010
1000
0000
0001
0000
0010
0000
0100
1000
0100
0000
,
0010
0000
0001
0000
1000
0010
0100
0000
0001
0000
1000
0000
0001
0100
0001
0000
,
0101
0000
0100
0000
0010
1000
0001
0000
1000
0000
0100
0000
0010
0001
1000
0000
,
0001
0010
0000
0100
1000
0001
1000
0001
0010
0100
0010
0100
1000
0001
1000
0001
,
0100
0000
0010
0000
1000
0001
0100
0000
0001
0000
0010
0000
0001
1000
0100
0000
,
1000
0000
0010
0000
0100
0001
0010
0000
0100
0000
0010
0000
0001
1000
0001
0000
,
1001
0000
1000
0000
0100
0010
0001
0000
1000
0000
0010
0000
0100
0001
1000
0000
,
0010
0000
0100
0000
0001
0010
0100
0000
1000
0000
0001
0000
0010
0100
1000
0000
,
1010
0000
0010
0000
0100
0001
0100
0000
0010
0000
1000
0000
0001
0010
0100
0000
,
1000
0000
0001
0000
0100
0010
1000
0000
0001
0000
0010
0000
0001
1000
0100
0000
,
1100
0000
1000
0000
0010
0100
0001
0000
1000
0000
0100
0000
0010
0001
0100
0000
,
0010
1000
0001
1000
0010
1000
0001
1000
0100
0010
0001
1000
0010
0100
0001
1000
,
0100
0000
0100
0010
0001
0000
1000
0000
0010
0000
0100
0001
1000
0001
0100
0000
,
0010
1000
0100
0010
0001
1000
0100
1000
,
0010
0000
0010
0100
0001
0000
1000
0000
0100
0000
0010
0001
1000
0100
1000
0000
,
0001
0000
0100
0000
0010
0000
1000
0000
0001
0100
0001
0100
0010
1000
0010
1000
,
0001
0000
0001
0010
0100
0000
1000
0000
0001
0000
0100
0010
1000
0001
1000
0000
,
0100
0010
0100
1000
0001
0100
0010
1000
,
0100
0000
0100
1000
0001
0000
0100
0000
0010
0000
1000
0001
0100
0010
0100
0000
,
0001
0000
1000
0000
0100
0000
1000
0000
0001
0010
0001
0010
0100
1000
0100
1000
,
0001
0100
0010
1000
0001
0010
0001
1000
0100
1000
0001
0100
0010
1000
0001
1000
,
0100
0010
0100
1000
0001
0100
0010
1000
0001
0010
0100
0010
0001
1000
0001
0100
,
0010
1000
0001
0010
0100
1000
0100
0001
0100
1000
0001
0100
,
M1M1
M11M
1M1M
1MM1
,
1001
0000
1001
0000
0110
0000
2002
0000
0000
0000
0000
0000
,
0000
3000
M000
0003
000M
0000
0000
0000
0000
0000
0000
0000
0000
0000
0000
0000
;
