#TITLE:ELPIΣ;
#SUBTITLE:;
#ARTIST:DJ TAKA;
#TITLETRANSLIT:;
#SUBTITLETRANSLIT:;
#ARTISTTRANSLIT:;
#CREDIT:owenviau1;
#BANNER:../owenviau1 Simfiles 5-bn.png;
#BACKGROUND:../owenviau1 Simfiles 5-bg.png;
#LYRICSPATH:;
#CDTITLE:../ov1_title.png;
#MUSIC:dj TAKA - Elpis.mp3;
#OFFSET:-0.518;
#SAMPLESTART:67.702;
#SAMPLELENGTH:29.999;
#SELECTABLE:YES;
#DISPLAYBPM:175.000;
#BPMS:0.000=175.012,1.000=175.023,4.000=175.012,5.000=175.023,8.000=175.012,9.000=175.023,11.000=175.012,12.000=175.023,15.000=175.012,16.000=175.023,19.000=175.012,20.000=175.023,22.000=175.012,23.000=175.023,26.000=175.012,27.000=175.023,29.000=175.012,30.000=175.023,33.000=175.012,34.000=175.023,37.000=175.012,38.000=175.023,41.000=175.012,42.000=175.023,45.000=175.012,46.000=175.023,49.000=175.012,50.000=175.023,53.000=175.012,54.000=175.023,57.000=175.012,58.000=175.023,61.000=175.012,62.000=175.023,65.000=175.012,66.000=175.023,68.000=175.012,69.000=175.023,72.000=175.012,73.000=175.023,76.000=175.012,77.000=175.023,80.000=175.012,81.000=175.023,84.000=175.012,85.000=175.023,88.000=175.012,89.000=175.023,92.000=175.012,93.000=175.023,96.000=175.012,97.000=175.023,100.000=175.012,101.000=175.023,104.000=175.012,105.000=175.023,108.000=175.012,109.000=175.023,112.000=175.012,113.000=175.023,116.000=175.012,117.000=175.023,120.000=175.012,121.000=175.023,124.000=175.012,125.000=175.023,128.000=175.012,129.000=175.023,132.000=175.012,133.000=175.023,136.000=175.012,137.000=175.023,140.000=175.012,141.000=175.023,144.000=175.012,145.000=175.023,148.000=175.012,149.000=175.023,152.000=175.012,153.000=175.023,156.000=175.012,157.000=175.023,160.000=175.012,161.000=175.023,164.000=175.012,165.000=175.023,168.000=175.012,169.000=175.023,172.000=175.012,173.000=175.023,176.000=175.012,177.000=175.023,180.000=175.012,181.000=175.023,184.000=175.012,185.000=175.023,188.000=175.012,189.000=175.023,192.000=175.012,193.000=175.023,196.000=175.012,197.000=175.023,200.000=175.012,201.000=175.023,204.000=175.012,205.000=175.023,208.000=175.012,209.000=175.023,212.000=175.012,213.000=175.023,216.000=175.012,217.000=175.023,220.000=175.012,221.000=175.023,224.000=175.012,225.000=175.023,228.000=175.012,229.000=175.023,232.000=175.012,233.000=175.023,236.000=175.012,237.000=175.023,240.000=175.012,241.000=175.023,244.000=175.012,245.000=175.023,248.000=175.012,249.000=175.023,252.000=175.012,253.000=175.023,256.000=175.012,257.000=175.023,260.000=175.012,261.000=175.023,264.000=175.012,265.000=175.023,268.000=175.012,269.000=175.023,272.000=175.012,273.000=175.023,275.000=175.012,276.000=175.023,277.000=175.012,278.000=175.023,279.000=175.012,280.000=175.023,281.000=175.012,282.000=175.023,283.000=175.012,284.000=175.023,285.000=175.012,286.000=175.023,287.000=175.012,288.000=175.023,289.000=175.012,290.000=175.023,291.000=175.012,292.000=175.023,293.000=175.012,294.000=175.023,295.000=175.012,296.000=175.023,297.000=175.012,298.000=175.023,299.000=175.012,300.000=175.023,301.000=175.012,302.000=175.023,303.000=175.012,304.000=175.023,305.000=175.012,306.000=175.023,307.000=175.012,308.000=175.023,309.000=175.012,310.000=175.023,311.000=175.012,312.000=175.023,313.000=175.012,314.000=175.023,315.000=175.012,316.000=175.023,317.000=175.012,318.000=175.023,319.000=175.012,320.000=175.023,321.000=175.012,322.000=175.023,323.000=175.012,324.000=175.023,325.000=175.012,326.000=175.023,327.000=175.012,328.000=175.023,329.000=175.012,330.000=175.023,331.000=175.012,332.000=175.023,333.000=175.012,334.000=175.023,335.000=175.012,336.000=175.023,337.000=175.012,338.000=175.023,339.000=175.012,340.000=175.023,341.000=175.012,342.000=175.023,343.000=175.012,344.000=175.023,345.000=175.012,346.000=175.023,347.000=175.012,348.000=175.023,349.000=175.012,350.000=175.023,351.000=175.012,352.000=175.023,353.000=175.012,354.000=175.023,355.000=175.012,356.000=175.023,357.000=175.012,358.000=175.023,359.000=175.012,360.000=175.023,361.000=175.012,362.000=175.023,363.000=175.012,364.000=175.023,365.000=175.012,366.000=175.023,367.000=175.012,368.000=175.023,369.000=175.012,370.000=175.023,371.000=175.012,372.000=175.023,373.000=175.012,374.000=175.023,375.000=175.012,376.000=175.023,377.000=175.012,378.000=175.023,379.000=175.012,380.000=175.023,381.000=175.012,382.000=175.023,383.000=175.012,384.000=175.023,385.000=175.012,386.000=175.023;
#STOPS:;
#BGCHANGES:;
// cache tags:
#FIRSTBEAT:0.000;
#LASTBEAT:372.000;
#SONGFILENAME:Songs/owenviau1 Simfiles 5/ELPIS - [owenviau1] v1.4/ELPIS.sm;
#HASMUSIC:1;
#HASBANNER:1;
#MUSICLENGTH:133.206;
// end cache tags

//---------------dance-single - ----------------
#NOTES:
     dance-single:
     :
     Hard:
     99:
     0.765,0.768,0.098,0.030,0.124,696.000,13.000,4.000,18.000,1.000:
1000
0100
0010
0000
0001
0100
0010
0000
,
1000
0001
0010
0000
0100
1000
0001
0000
,
0100
0010
1000
0000
0100
0010
0001
0000
,
0100
0010
1000
0000
0100
0001
0010
0000
,
1001
0001
0100
0000
1000
0001
0100
0000
,
1000
0001
0010
0000
0001
1000
0010
0000
,
0100
0001
1000
0000
0010
0001
0100
0000
,
0010
0000
1000
0000
0001
0000
0000
0000
0100
0000
0010
0000
1000
0001
1000
0001
,
1000
0010
0100
0001
1000
0001
0100
0010
,
1000
0001
0100
0010
0001
0100
0010
1000
,
0010
0100
0001
0010
0100
1000
0010
0100
,
0001
0010
0001
1000
0001
0100
0010
0100
,
0001
1000
0010
0100
0010
1000
0100
0010
,
0001
0100
0001
0010
0100
1000
0010
0100
,
0001
1000
0001
0100
0010
1000
0100
1000
,
0010
0000
0100
0000
0001
0000
1000
0000
0100
0000
0010
0000
0001
0010
0100
1000
,
0001
0000
1000
0100
1000
0010
0100
0001
,
0010
0001
1000
0100
0010
0001
0100
0010
,
0100
0001
1000
0010
0100
0010
1000
0100
,
0010
0001
0100
0001
1000
0010
0100
0010
,
1000
0100
0010
0001
0100
0010
0100
0001
,
1000
0100
0010
0001
0100
0010
1000
0100
,
0010
0001
1000
0010
0100
0001
0010
0001
,
1000
0000
0010
0000
0100
0000
0001
0000
0010
0000
0100
0000
1000
0010
1000
0001
,
2000
0000
0000
0000
,
3020
0000
0000
0000
,
0230
0000
0000
0000
,
0302
0000
0000
0000
,
1013
1000
0100
0010
0000
0001
0100
0000
,
0010
0000
1000
0000
1000
0001
0000
0000
0010
0000
0000
0000
0100
0000
0000
0000
,
1000
0000
0000
0000
0001
0100
0010
0000
,
1000
0001
0100
0000
1000
0000
0001
0000
,
0010
0100
1000
0001
0100
0010
1000
0001
,
0100
0001
0010
0100
1000
0001
0100
0010
,
1000
0000
0001
0100
0000
0010
0000
1000
,
0000
0000
0000
0000
0010
0100
0000
0000
0001
0000
0000
0000
1000
0000
0000
0000
,
1MM1
1000
0100
0010
0001
0100
0010
1000
,
0001
0100
0001
0010
0100
1000
0010
0100
,
0010
1000
0001
0100
0001
0010
0100
1000
,
0001
0100
0001
1000
0010
0100
0001
1000
,
M1M1
0001
0010
0100
1000
0001
0100
0010
,
1000
0100
1000
0001
0100
0001
1000
0001
,
0100
0010
1000
0100
0010
0001
1000
0001
,
0010
0100
1000
0001
0100
0010
1000
0010
,
1M1M
1000
0100
0010
0001
1000
0001
0100
,
M11M
0010
0100
1000
0001
0100
0010
1000
,
1M1M
0000
1000
0100
0000
0100
0010
0000
0010
0001
0000
0001
,
0010
0100
1000
0001
0100
0010
1000
0100
0010
0001
0010
0100
,
1000
0010
0100
0001
1000
0001
0010
0100
,
1MM1
1000
0001
1000
0010
0100
0001
0010
,
0001
1000
0010
0100
0001
0010
0001
1000
,
0010
0100
0010
1000
0100
0010
0001
0100
,
0001
0010
0100
1000
0001
1000
0010
1000
,
0100
0010
0001
0100
0001
0010
0100
1000
,
0010
0100
0001
0010
0100
1000
0010
1000
,
0100
0010
0001
0100
0001
0010
0100
1000
,
0010
0100
0001
0010
0001
1000
0010
0100
,
M1M1
0001
1000
0001
0100
0010
1000
0100
,
0010
0001
0100
0001
1000
0100
0010
0001
,
0100
0001
0010
0100
1000
0010
1000
0001
,
1000
0010
0100
0001
0010
0001
1000
0100
,
0010
0001
0100
0001
0010
0100
1000
0001
,
1000
0010
0100
0010
1000
0001
0100
0010
,
0100
0001
0010
0100
1000
0010
1000
0100
,
0010
0001
0100
0001
1000
0100
0010
0001
,
1MM1
1000
0100
0010
0100
1000
0010
0100
,
0001
1000
0100
0010
0001
0100
0001
0010
,
0100
1000
0001
0010
0100
1000
0010
0100
,
0001
1000
0010
0100
0001
0010
0100
1000
,
0010
1000
0100
1000
0001
0010
0001
0100
,
0010
0100
0001
0010
0100
1000
0010
0100
,
0001
0010
0001
1000
0001
0100
0010
1000
,
0100
1000
0010
0100
0001
1000
0100
0010
,
MM11
0001
1000
0100
0001
0010
0100
1000
,
0010
0100
0001
0010
0001
0100
0010
1000
,
0100
1000
0010
0100
0001
0010
0100
1000
,
0010
1000
0100
0010
0001
1000
0001
0100
,
0010
1000
0010
0100
0001
0010
0001
1000
,
0100
0010
0001
0100
0001
0010
0100
1000
,
0010
0000
0100
0000
0001
0000
1000
0000
0100
0000
0010
0000
0001
0100
0000
0000
,
1000
0100
0000
0010
0000
0001
0000
1000
0100
0010
0001
1000
0001
0000
1000
0000
,
1001
0000
0000
0000
0000
0000
0000
0000
1000
0000
0001
1000
0001
0000
0010
0000
,
0100
1000
0001
1000
0000
0010
0100
0001
,
1000
0010
0100
0001
0010
0001
1000
0010
,
0100
0000
0001
0000
0010
0000
0100
0000
1000
0000
0001
0100
0001
0000
1000
0000
,
0010
0000
1000
0000
0001
0000
0100
0000
0010
0000
1000
0100
1000
0000
0010
0000
,
0100
0001
0010
0001
0000
0010
1000
0001
,
0010
0100
0001
0010
0100
1000
0010
1000
,
0001
0000
0100
0000
0001
0000
0010
0000
0100
0000
1000
0010
1000
0000
0001
0000
,
0100
0000
0010
0000
1000
0000
0100
0000
0010
0000
0001
0010
0001
0000
0100
0000
,
1000
0001
0010
0100
0000
1000
0100
0010
,
0001
1000
0001
0100
0010
1000
0100
0010
,
0001
0000
1000
0000
0001
0000
0100
0000
0010
0000
1000
0001
1000
0000
0001
0000
,
1001
0000
0000
0000
,
0000
0000
0000
0000
,
0000
0000
0000
0000
,
0000
0000
0000
0000
;

//---------------dance-single - ----------------
#NOTES:
     dance-single:
     :
     Challenge:
     99:
     1.000,1.000,0.293,0.045,1.000,1173.000,39.000,6.000,195.000,3.000:
1010
0000
0001
0000
1100
0000
0001
0010
0100
0000
1000
0000
0101
0000
0010
1000
,
0001
0000
1000
0000
0110
0000
1000
0001
0100
0000
0001
0000
1010
0000
0100
0010
,
0001
0000
1000
0000
0101
0000
0010
1000
0001
0000
1000
0000
0011
0000
0100
0010
,
0001
0000
0100
0000
1001
0000
0010
1000
0001
0000
1000
0000
0110
0000
0001
0100
,
0010
0000
0100
0000
1010
0000
0001
0010
0100
0000
1000
0000
0101
0000
1000
0001
,
0010
0000
0100
0000
1100
0000
0001
1000
0010
0000
0100
0000
0011
0000
1000
0100
,
0010
0000
0001
0000
1001
0000
0010
1000
0100
0000
0010
0000
0101
0000
0001
1000
,
0010
0000
0100
0000
1001
0000
1000
0001
0010
0000
0100
0000
1000
0100
0010
0001
,
1001
0100
0010
0001
1000
0001
0100
0010
1000
0100
0010
0001
0010
0100
1000
0001
,
0100
0010
1000
0010
0100
0001
0100
0010
1000
0100
0010
0001
1000
0010
0100
0010
,
1000
0001
0100
0010
0100
0001
1000
0001
0100
0010
1000
0100
0010
0001
1000
0100
,
1000
0010
0100
0001
0010
0001
1000
0010
1000
0001
1000
0100
0010
0001
1000
0001
,
0100
0001
0010
0100
1000
0001
0100
0010
1000
0010
0100
0001
0100
0010
1000
0100
,
0010
0001
0100
0001
1000
0010
0100
0001
1000
0010
0100
0001
0010
0100
1000
0001
,
0100
0010
1000
0001
0010
0100
1000
0100
0010
0001
1000
0001
0100
0001
0010
0100
,
1000
0001
1000
0010
1000
0001
0100
0010
1000
0100
0010
0001
0010
0100
1000
0001
,
1100
0001
0100
0010
1000
0100
0010
0001
0010
0100
1000
0001
0100
0010
1000
0010
,
0100
0001
0100
0010
1000
0100
0010
0001
1000
0010
0100
0010
1000
0001
0100
0010
,
0100
0001
1000
0001
0100
0010
1000
0100
0010
0001
1000
0100
1000
0010
0100
0001
,
0010
0001
1000
0001
0100
0010
1000
0100
0010
0001
1000
0001
0100
0001
0010
0100
,
1000
0001
0100
0010
1000
0010
0100
0001
0100
0010
1000
0100
0010
0001
0100
0001
,
1000
0010
0100
0001
1000
0010
0100
0001
0010
0100
1000
0001
0100
0010
1000
0001
,
0010
0100
1000
0100
0010
0001
1000
0001
0100
0001
0010
0100
1000
0001
1000
0010
,
1000
0001
0100
0010
1000
0100
0010
0001
1000
0010
0100
0010
1000
0001
1000
0001
,
2MM0
0MM0
0MM0
0MMM
0MMM
0MMM
0MMM
0MMM
0MMM
0MMM
0MMM
0MMM
0MMM
0MMM
0MMM
0MMM
0MMM
0MMM
0MMM
0MMM
0MMM
0MMM
0MMM
0MMM
0MMM
0MMM
0MMM
0MMM
0MMM
0MM0
0MM0
0MM0
,
0MM2
0MM0
0MM0
0MM0
0MM0
0MM0
0MM0
0MM0
0MM0
0MM0
0MM0
0MM0
0MM0
0MM0
0MM0
0MM0
0MM0
0MM0
0MM0
0MM0
0MM0
0MM0
0MM0
0MM0
0MM0
0MM0
0MM0
0MM0
0MM0
00M0
00M0
00M0
,
02M0
00M0
00M0
00M0
00M0
00M0
00M0
00M0
00M0
00M0
00M0
00M0
00M0
00M0
00M0
00M0
00M0
00M0
00M0
00M0
00M0
00M0
00M0
00M0
00M0
00M0
00M0
00M0
00M0
0000
0000
0000
,
3323
0000
0000
0000
,
1M31
0100
0010
0001
0000
1000
0010
0000
,
0100
0000
0001
0000
1000
0010
0000
0000
0100
0000
0000
0000
0010
0000
0000
0000
,
0002
0000
1000
0000
0103
0010
1000
0000
,
0100
0010
0001
0000
1001
0000
1010
0000
,
1000
0100
0010
0001
0010
0100
1000
0001
0100
0001
1000
0010
0100
0001
1000
0100
,
0010
0001
0010
0100
1000
0010
1000
0001
0010
0001
0100
0010
1000
0001
0100
0001
,
1000
0000
0100
0010
0000
0001
0000
1000
,
0000
0000
0000
0000
0010
0100
0000
0000
0001
0000
0000
0000
0100
0000
0000
0000
,
1M1M
1000
0001
0000
0010
0100
1000
0000
0001
0100
0010
0000
1000
0100
0010
0000
,
0010
0001
0100
0000
0001
1000
0010
0000
1000
0001
0100
0000
1000
0100
0010
0000
,
0010
0001
1000
0000
1000
0010
0100
0000
0001
1000
0001
0000
0100
0010
0100
0000
,
0001
0010
0001
0000
1000
0100
1000
0000
0010
1000
0001
0000
0100
0001
1000
0000
,
1MM1
0001
0100
0000
1000
0100
0010
0000
0001
0010
0100
0000
1000
0001
0100
0000
,
0010
1000
0001
0000
1000
0010
0100
0000
0010
0100
0001
0000
1000
0100
0010
0000
,
0010
0001
0100
0000
1000
0001
0010
0000
1000
0001
0100
0000
0010
1000
0001
0000
,
1000
0100
0010
0000
0100
0010
0001
0000
0001
1000
0010
0000
0001
0100
M010
0000
,
1MM1
1000
0100
0000
0010
0001
1000
0000
0010
0100
0001
0000
1000
0001
1MM0
0000
,
1M01
0010
0100
0000
1000
0001
0100
0000
0010
1000
0001
0000
1000
0100
M01M
0000
,
M1M1
0000
1000
1100
0000
0100
0110
0000
0010
0011
0000
1000
,
1001
0001
0010
0110
0100
1000
1010
0010
0100
0101
0001
1000
,
0010
0100
1000
0100
0010
0001
1000
0010
0100
0001
1000
0100
0010
0001
0010
0100
,
1001
0001
1000
0001
0010
0100
1000
0001
1000
0010
0100
0001
0010
0100
1000
0010
,
1000
0001
1000
0001
0010
0100
1000
0001
0100
0001
1000
0001
0010
0100
1000
0010
,
0100
0001
1000
0010
1000
0001
0100
0001
1000
0100
0010
0001
0100
0010
1000
0010
,
0100
0001
1000
0001
0010
0100
1000
0010
0100
0001
1000
0010
0100
0010
1000
0001
,
0100
0010
0100
0001
0010
0100
1000
0010
0100
0001
0100
0010
1000
0010
0100
0001
,
1000
0001
0010
0100
1000
0001
0010
0100
1000
0001
0100
0010
1000
0100
1000
0001
,
0100
0001
0010
0100
1000
0001
0100
0010
1000
0100
1000
0010
0100
0001
0010
0001
,
1000
0100
0010
0001
0100
0010
1000
0001
0010
0100
1000
0010
0100
0001
1000
0001
,
1001
0100
0010
0001
1000
0001
0100
0010
1000
0100
0010
0001
0010
0100
1000
0001
,
0100
0010
1000
0010
0100
0001
0100
0010
1000
0100
0010
0001
1000
0010
0100
0010
,
1000
0001
0100
0010
0100
0001
1000
0001
0100
0010
1000
0100
0010
0001
1000
0100
,
1000
0010
0100
0001
0010
0001
1000
0010
1000
0001
1000
0100
0010
0001
1000
0001
,
0100
0001
0010
0100
1000
0001
0100
0010
1000
0010
0100
0001
0100
0010
1000
0100
,
0010
0001
0100
0001
1000
0010
0100
0001
1000
0010
0100
0001
0010
0100
1000
0001
,
0100
0010
1000
0001
0010
0100
1000
0100
0010
0001
1000
0001
0100
0001
0010
0100
,
1000
0001
1000
0010
1000
0001
0100
0010
1000
0100
0010
0001
0010
0100
1000
0001
,
1100
0001
0100
0010
1000
0100
0010
0001
0010
0100
1000
0001
0100
0010
1000
0010
,
0100
0001
0100
0010
1000
0100
0010
0001
1000
0010
0100
0010
1000
0001
0100
0010
,
0100
0001
1000
0001
0100
0010
1000
0100
0010
0001
1000
0100
1000
0010
0100
0001
,
0010
0001
1000
0001
0100
0010
1000
0100
0010
0001
1000
0001
0100
0001
0010
0100
,
1000
0001
0100
0010
1000
0010
0100
0001
0100
0010
1000
0100
0010
0001
0100
0001
,
1000
0010
0100
0001
1000
0010
0100
0001
0010
0100
1000
0001
0100
0010
1000
0001
,
0010
0100
1000
0100
0010
0001
1000
0001
0100
0001
0010
0100
1000
0001
1000
0010
,
1000
0001
0100
0010
1000
0100
0010
0001
1000
0010
0100
0010
1000
0001
0100
0010
,
1001
0001
1000
0010
1000
0001
0100
0010
1000
0100
0010
0001
0010
0100
1000
0001
,
0010
0001
0100
0010
1000
0100
0010
0001
0010
0100
1000
0001
0100
0010
1000
0010
,
0100
0001
0100
0010
1000
0100
0010
0001
1000
0010
0100
0010
1000
0001
0100
0010
,
0100
0001
1000
0001
0100
0010
1000
0100
0010
0001
1000
0100
1000
0010
0100
0001
,
0010
0001
1000
0001
0100
0010
1000
0100
0010
0001
1000
0001
0100
0001
0010
0100
,
1000
0001
0100
0010
1000
0010
0100
0001
0100
0010
1000
0100
0010
0001
0100
0001
,
1000
0010
0100
0001
1000
0010
0100
0001
0010
0100
1000
0001
0100
0010
1000
0001
,
0010
0100
1000
0100
0010
0001
1000
0001
0100
0001
0010
0100
1000
0001
1000
0000
,
1002
0000
0000
0000
0000
0000
0000
0000
0000
0000
0000
0000
1003
0000
0000
0001
1000
0001
1000
0000
0000
0100
0000
0000
,
0010
0001
1000
0010
1000
0001
0010
0100
,
1000
0001
0100
0000
0010
1000
0001
0000
,
0100
0000
0000
0010
0000
0000
1000
0000
0000
0001
0000
0000
0100
0000
0000
0010
1000
0010
1000
0000
0000
0100
0000
0000
,
0010
0000
0000
0001
0000
0000
0010
0000
0000
0100
0000
0000
1000
0000
0000
0001
1000
0001
1000
0000
0000
0010
0000
0000
,
0100
0001
0010
0100
0000
1000
0100
1000
,
0001
0100
0010
1000
0100
0010
0001
0100
,
0010
0000
0000
1000
0000
0000
0001
0000
0000
0100
0000
0000
0001
0000
0000
1000
0010
1000
0010
0000
0000
0100
0000
0000
,
0001
0000
0000
0010
0000
0000
0100
0000
0000
1000
0000
0000
0010
0000
0000
0100
0001
0100
0001
0000
0000
0010
0000
0000
,
1000
0100
0010
0001
0000
1000
0010
0100
,
0001
1000
0001
0010
0100
1000
0001
0100
,
0010
0000
0000
1000
0000
0000
0001
0000
0000
0010
0000
0000
0100
0000
0000
1000
0001
1000
0001
0000
0000
1000
0000
0000
,
1001
0000
0000
0000
,
0000
0000
0000
0000
,
0000
0000
0000
0000
,
0000
0000
0000
0000
;
