#TITLE:esc+;
#SUBTITLE:;
#ARTIST:onoken;
#TITLETRANSLIT:;
#SUBTITLETRANSLIT:;
#ARTISTTRANSLIT:;
#CREDIT:;
#BANNER:Banner.png;
#BACKGROUND:bg.png;
#LYRICSPATH:;
#CDTITLE:../cdtitle.png;
#MUSIC:esc.mp3;
#OFFSET:-0.460;
#SAMPLESTART:78.980;
#SAMPLELENGTH:12.000;
#SELECTABLE:YES;
#DISPLAYBPM:137.000;
#BPMS:0.000=137.000,16.000=274.000,20.000=137.000;
#STOPS:16.000=1.740
,120.000=0.880
,162.500=0.220
,166.000=0.220
,169.500=0.220
,206.500=1.960
;
#BGCHANGES:;
// cache tags:
#FIRSTBEAT:9.000;
#LASTBEAT:206.750;
#SONGFILENAME:Songs/Japanese Collaboration Mix/esc/esc.sm;
#HASMUSIC:1;
#HASBANNER:1;
#MUSICLENGTH:96.279;
// end cache tags

//---------------dance-single - Copied from----------------
#NOTES:
     dance-single:
     Copied from:
     Challenge:
     11:
     0.629,0.805,0.727,0.364,0.213,319.000,70.000,35.000,0.000,0.000:
0000
0000
0000
0000
,
0000
0000
0000
0000
,
0000
1100
0101
0110
,
1010
1100
0011
1200
,
0002
0303
0100
0000
1000
0000
0100
0000
0010
0000
0001
0000
0010
0000
0100
0000
,
1010
0000
0000
0000
,
0000
0000
0000
0000
,
0000
0000
0000
0000
,
0000
0000
0000
1001
0100
0000
0100
0010
,
0000
0001
0010
0010
0000
1000
0100
1000
,
0001
0010
1000
0100
0101
0000
0100
0010
,
0000
1000
0010
0100
0000
0001
0100
1000
,
0010
0001
0100
0010
0100
0110
0001
0000
,
1000
0100
0010
0000
0100
1000
0001
1000
,
0100
0010
0100
0000
1100
0100
0001
0010
,
0001
1100
0000
0011
1000
0000
0100
0001
,
0010
0100
1000
0000
2001
0100
3002
0100
,
2003
0100
3002
0100
0003
1000
0100
0001
,
0010
0100
0011
0100
1002
0100
2003
0100
,
3002
0100
2003
0100
3000
0000
0001
0100
,
0010
1100
1100
0000
0011
1000
0100
0010
,
0100
1000
1010
0000
0100
0001
1000
0010
,
0100
0001
1100
0000
0010
0010
0100
0100
,
0001
1000
0100
1010
0000
0001
1000
1000
,
0001
0010
0110
0000
0001
0000
1100
0000
,
0001
0000
0011
0100
0001
0000
1010
0000
,
1000
0000
0000
0000
0011
0000
0100
1000
0001
0000
0000
0000
0110
0000
0000
0000
,
0010
0000
0000
0000
1100
0000
0000
0000
0001
0000
0010
1000
0100
0000
1000
0010
,
0000
0001
0100
0000
2010
0000
0100
0000
3100
0000
0000
0000
0021
0000
0031
0000
,
0000
1000
1002
0000
0103
0010
2000
3100
,
0102
0003
0110
2002
0000
3003
0100
0001
,
0100
1000
0010
0000
0001
0100
0000
0010
0100
0001
0100
0010
0000
0000
1000
0000
,
0100
0010
0000
0001
1000
0010
0000
0100
,
0001
0010
1000
0000
0100
0001
0000
1000
0010
0100
0001
0000
0000
0000
0010
0000
,
0100
0001
0000
1000
0001
0100
0000
0010
,
1000
0001
0100
0000
0010
1000
0000
0001
1000
0010
0100
0000
0000
0000
0110
0000
,
0000
0000
1010
0000
0110
0000
0000
1010
,
0110
0000
0101
0000
0000
0110
1001
0000
,
0011
0100
1000
0101
0010
0000
0100
1000
,
0100
0000
0010
0000
0001
0000
1000
0000
0100
0000
1000
0000
0000
0000
1000
0010
,
1000
0010
1000
0000
0100
0100
0000
0001
1000
0100
0010
0000
0001
0010
0001
0010
,
0001
0000
1000
1000
0000
0001
0100
0010
1000
0000
0100
0010
0100
0010
0100
0000
,
0001
0001
0000
1000
0100
0001
0010
0000
1000
0001
1000
0001
1000
0000
0110
0000
,
1001
0000
0010
1001
0000
0100
1001
0000
0010
0000
1000
0000
0100
0000
0001
0000
,
1010
0100
0100
0000
0010
1000
0001
0100
,
0010
0000
0000
0000
0001
0000
0000
0000
1001
0000
0000
0000
0000
0000
0000
0000
0000
0000
0000
0000
0000
0000
0000
0000
0202
0000
0000
0000
0000
0000
0000
0303
,
2200
0000
0000
0000
0000
0000
0000
3300
0202
0000
0000
0000
0000
0000
0000
0303
2200
0000
0000
0000
0000
0000
0000
3300
0202
0000
0000
0000
0000
0000
0000
0303
,
2200
0000
0000
0000
0000
0000
0000
3300
0202
0000
0000
0000
0000
0000
0000
0303
1001
0000
0000
0000
0100
0000
0000
0000
0010
0000
0000
0000
0001
0000
0100
0000
,
0000
0100
0010
0000
1010
0000
0000
0000
0001
0000
0010
0000
0100
0000
1000
0010
,
0000
0010
0100
0000
0101
0000
0000
0000
1000
0000
0001
0000
0110
0000
0000
0000
,
1010
0101
0110
1001
,
0100
0000
0000
0000
0000
0000
0000
0000
0220
0000
0000
0000
0000
0000
0000
0000
0000
0000
0330
0000
2002
3003
1001
0000
0000
0000
0000
0000
0000
0000
0000
0000
;
