#TITLE:Armored Armadillo;
#SUBTITLE:;
#ARTIST:Capcom;
#TITLETRANSLIT:;
#SUBTITLETRANSLIT:;
#ARTISTTRANSLIT:;
#CREDIT:;
#BANNER:Armored Armadillo.png;
#BACKGROUND:Armored Armadillo BG.png;
#LYRICSPATH:;
#CDTITLE:!XMaxX.png;
#MUSIC:Armored Armadillo.mp3;
#OFFSET:0.000;
#SAMPLESTART:21.662;
#SAMPLELENGTH:15.000;
#SELECTABLE:YES;
#BPMS:0.000=277.680;
#STOPS:;
#BGCHANGES:;
// cache tags:
#FIRSTBEAT:0.000;
#LASTBEAT:522.500;
#SONGFILENAME:Songs/keyboard/Armored Armadillo (Megaman X)/Armored Armadillo.sm;
#HASMUSIC:1;
#HASBANNER:1;
#MUSICLENGTH:115.469;
// end cache tags

//---------------dance-single - ----------------
#NOTES:
     dance-single:
     :
     Beginner:
     2:
     0.173,0.277,0.147,0.000,0.000,123.000,17.000,0.000,0.000,0.000:
0000
0000
0000
1000
,
0000
0000
0000
0001
,
0000
0000
0000
1001
,
0000
0000
0000
0000
,
0000
0000
0000
0001
,
0000
0000
0000
1000
,
0000
0000
0000
1001
,
0000
0000
0000
0000
,
0000
0000
0000
1000
,
0000
0000
0000
0001
,
0000
0000
0000
1001
,
0000
0000
0000
0000
,
0000
0000
0000
0001
,
0000
0000
0000
1000
,
0000
0000
0000
1001
,
0000
0000
0000
0000
,
0000
0000
0000
0000
,
1000
0000
0000
0000
,
0001
0000
0000
0000
,
1000
0000
0001
0000
,
0000
0000
0000
0000
,
0001
0000
0000
0000
,
1000
0000
0000
0000
,
0001
0000
1000
0000
,
0000
0000
0000
0000
,
0010
0000
0000
0000
,
0100
0000
0000
0000
,
0010
0000
0100
0000
,
0000
0000
0000
0000
,
0100
0000
0000
0000
,
0010
0000
0000
0000
,
0100
0000
0010
0000
,
0000
0000
0000
0000
,
0001
0000
0000
0000
,
1000
0000
0000
0000
,
0001
0000
1000
0000
,
0000
0000
0000
0000
,
1000
0000
0000
0000
,
0001
0000
0000
0000
,
1000
0000
0001
0000
,
0000
0000
0000
0000
,
0010
0000
0000
0000
,
0100
0000
0000
0000
,
0010
0000
0100
0000
,
0000
0000
0000
0000
,
1000
0000
0000
0000
,
0001
0000
0000
1001
,
0000
0000
1001
0000
,
0000
0000
0000
1000
,
0000
0000
0000
1000
,
0000
0000
0000
0001
,
0000
0000
0000
0001
,
0000
0000
0000
0100
,
0000
0000
0000
0100
,
0000
0000
0000
0010
,
0000
0000
0000
0110
,
0000
0000
0000
0100
,
0000
0000
0010
0000
,
0000
1000
0000
0000
,
0000
0001
0000
0000
,
0000
0000
0000
1000
,
0000
0001
0000
1000
,
0000
0001
0000
1001
,
0000
0000
0000
0000
,
0000
0000
0000
1000
,
0000
0000
0000
0001
,
0000
0000
0000
1001
,
0000
0000
0000
0000
,
0000
0000
0000
0001
,
0000
0000
0000
1000
,
0000
0000
0000
1001
,
0000
0000
0000
0000
,
0000
0000
0000
1000
,
0000
0000
0000
0001
,
0000
0000
0000
1001
,
0000
0000
0000
0000
,
0000
0000
0000
0001
,
0000
0000
0000
1000
,
0000
0000
0000
1001
,
0000
0000
0000
0000
,
0000
0000
0000
0000
,
1000
0000
0000
0000
,
0001
0000
0000
0000
,
1000
0000
0001
0000
,
0000
0000
0000
0000
,
0001
0000
0000
0000
,
1000
0000
0000
0000
,
0001
0000
1000
0000
,
0000
0000
0000
0000
,
0010
0000
0000
0000
,
0100
0000
0000
0000
,
0010
0000
0100
0000
,
0000
0000
0000
0000
,
0100
0000
0000
0000
,
0010
0000
0000
0000
,
0100
0000
0010
0000
,
0000
0000
0000
0000
,
0001
0000
0000
0000
,
1000
0000
0000
0000
,
0001
0000
1000
0000
,
0000
0000
0000
0000
,
1000
0000
0000
0000
,
0001
0000
0000
0000
,
1000
0000
0001
0000
,
0000
0000
0000
0000
,
0010
0000
0000
0000
,
0100
0000
0000
0000
,
0010
0000
0100
0000
,
0000
0000
0000
0000
,
1000
0000
0000
0000
,
0001
0000
0000
1001
,
0000
0000
1001
0000
,
0000
0000
0000
1000
,
0000
0000
0000
1000
,
0000
0000
0000
0001
,
0000
0000
0000
0001
,
0000
0000
0000
0100
,
0000
0000
0000
0100
,
0000
0000
0000
0010
,
0000
0000
0000
0110
,
0000
0000
0000
0100
,
0000
0000
0010
0000
,
0000
1000
0000
0000
,
0000
0001
0000
0000
,
0000
0000
0000
1000
,
0000
0001
0000
1000
,
0000
0001
0000
1001
,
0000
0000
0000
0000
,
1001
0000
0000
0000
;

//---------------dance-single - ----------------
#NOTES:
     dance-single:
     :
     Easy:
     5:
     0.379,0.396,0.251,0.294,0.000,243.000,29.000,34.000,0.000,0.000:
0010
1000
0001
0100
,
0000
0100
0000
0010
,
0000
0010
0000
1001
,
0000
0000
0000
0000
,
0100
0010
1000
0001
,
0000
1000
0000
1000
,
0000
0001
0000
1001
,
0000
0000
0000
0000
,
1000
0001
1000
0001
,
0000
0001
0000
1000
,
0000
1000
0000
1001
,
0000
0000
0000
0000
,
0001
1000
0001
1000
,
0000
1000
0000
0001
,
0000
0001
0000
1001
,
0000
1001
0000
0000
0000
0000
1000
0000
,
0001
1000
0001
0000
,
1000
0000
0001
0000
,
1000
0000
0001
0000
,
1000
0000
2002
0000
,
0000
0000
3003
0000
,
0001
0000
1000
0000
,
0001
0000
1000
0000
,
0001
0000
2002
0000
,
0000
0000
3003
0000
,
0010
0000
0100
0000
,
0010
0000
0100
0000
,
0010
0000
0220
0000
,
0000
0000
0330
0000
,
0100
0000
0010
0000
,
0100
0000
0010
0000
,
0100
0000
0220
0000
,
0000
0000
0330
0000
,
0001
0000
1000
0000
,
0001
0000
0100
0000
,
0010
0000
2002
0000
,
0000
0000
3003
0000
,
1000
0000
0001
0000
,
1000
0000
0001
0000
,
0100
0000
0220
0000
,
0000
0000
0330
0000
,
0010
0000
1000
0000
,
0001
0000
0100
0000
,
0010
0000
0220
0000
,
0000
0000
0330
0000
,
1000
0000
0001
0000
,
0100
0000
0010
1000
,
0000
0001
0000
0000
1001
0000
0000
0000
,
0001
1000
0001
1000
,
0000
1000
0000
0001
,
0000
0001
0000
0100
,
0000
0100
0000
0010
,
0000
0010
0000
1000
,
0000
1000
0000
0001
,
0000
0001
0000
1000
,
0001
1000
0000
1000
,
0001
0000
0000
0020
,
0000
0030
0000
0000
0200
0000
0000
0300
,
0000
0010
0000
1000
,
0001
0000
0100
0000
,
0010
0000
1000
0001
,
0000
1000
0000
0000
0001
0000
1000
0000
,
0000
0001
0000
0000
1000
0000
1001
0000
,
0000
0000
0000
0000
,
0100
0001
1000
0010
,
0000
0010
0000
0100
,
0000
0100
0000
1001
,
0000
0000
0000
0000
,
0010
0100
0001
1000
,
0000
0001
0000
0001
,
0000
1000
0000
1001
,
0000
0000
0000
0000
,
0001
1000
0001
1000
,
0000
1000
0000
0001
,
0000
0001
0000
1001
,
0000
0000
0000
0000
,
1000
0001
1000
0001
,
0000
0001
0000
1000
,
0000
1000
0000
1001
,
0000
1001
0000
0000
0000
0000
0001
0000
,
1000
0001
1000
0000
,
0001
0000
1000
0000
,
0001
0000
1000
0000
,
0001
0000
2002
0000
,
0000
0000
3003
0000
,
1000
0000
0001
0000
,
1000
0000
0001
0000
,
1000
0000
2002
0000
,
0000
0000
3003
0000
,
0100
0000
0010
0000
,
0100
0000
0010
0000
,
0100
0000
0220
0000
,
0000
0000
0330
0000
,
0010
0000
0100
0000
,
0010
0000
0100
0000
,
0010
0000
0220
0000
,
0000
0000
0330
0000
,
1000
0000
0001
0000
,
1000
0000
0010
0000
,
0100
0000
2002
0000
,
0000
0000
3003
0000
,
0001
0000
1000
0000
,
0001
0000
1000
0000
,
0010
0000
0220
0000
,
0000
0000
0330
0000
,
0100
0000
0001
0000
,
1000
0000
0010
0000
,
0100
0000
0220
0000
,
0000
0000
0330
0000
,
0001
0000
1000
0000
,
0010
0000
0100
0001
,
0000
1000
0000
0000
1001
0000
0000
0000
,
1000
0001
1000
0001
,
0000
0001
0000
1000
,
0000
1000
0000
0010
,
0000
0010
0000
0100
,
0000
0100
0000
0001
,
0000
0001
0000
1000
,
0000
1000
0000
0001
,
1000
0001
0000
0001
,
1000
0000
0000
0200
,
0000
0300
0000
0000
0020
0000
0000
0030
,
0000
0100
0000
0001
,
1000
0000
0010
0000
,
0100
0000
0001
1000
,
0000
0001
0000
0000
1000
0000
0001
0000
,
0000
1000
0000
0000
0001
0000
1001
0000
,
0000
0000
0000
0000
,
2002
0000
0000
0000
,
0000
0000
0000
0000
,
0000
0000
0000
0000
0000
3003
0000
0000
;

//---------------dance-single - ----------------
#NOTES:
     dance-single:
     :
     Medium:
     7:
     0.557,0.566,0.268,0.329,0.000,381.000,31.000,38.000,0.000,0.000:
1000
0001
1000
0001
,
0000
1000
0000
0000
0001
0000
1000
0000
,
0000
0001
0000
0000
1000
0000
1001
0000
,
0000
0000
0000
0000
,
0001
1000
0001
1000
,
0000
0001
0000
0000
1000
0000
0001
0000
,
0000
1000
0000
0000
0001
0000
1001
0000
,
0000
0000
0000
0000
,
1000
0001
1000
0001
,
0000
1000
0000
0000
0001
0000
1000
0000
,
0000
0001
0000
0000
1000
0000
1001
0000
,
0000
0000
0000
0000
,
0001
1000
0001
1000
,
0000
0001
0000
0000
1000
0000
0001
0000
,
0000
1000
0000
0000
0001
0000
1001
0000
,
0000
1001
0000
0000
0000
0000
0001
1000
,
0001
1000
0000
0000
1000
0001
0000
0000
,
0001
1000
0010
0100
,
0001
1000
0001
1000
,
0010
0100
0220
0000
,
0000
0000
0330
0000
,
0100
0001
0010
0100
,
1000
0001
0010
0100
,
1000
0001
2002
0000
,
0000
0000
3003
0000
,
1000
0010
0100
0001
,
0010
0100
1000
0001
,
1000
0010
0220
0000
,
0000
0000
0330
0000
,
0100
0001
1000
0100
,
0010
0001
1000
0001
,
1000
0010
0220
0000
,
0000
0000
0330
0000
,
0001
1000
0010
0100
,
0001
1000
0010
0100
,
0001
1000
2002
0000
,
0000
0000
3003
0000
,
0001
1000
0001
1000
,
0010
0100
0001
1000
,
0010
0100
0220
0000
,
0000
0000
0330
0000
,
0100
0001
0010
0100
,
1000
0100
0010
0001
,
1000
0010
0220
0000
,
0000
0000
0330
0000
,
0001
1000
0010
0100
,
0001
1000
0010
0100
,
0000
0001
0000
0000
1001
0000
0000
0000
,
0001
1000
0001
1000
,
0010
0100
0001
0010
,
0100
0000
1000
0001
1000
0000
0010
0000
,
0100
0001
1000
0001
,
1000
0000
0001
0010
0001
0000
1000
0000
,
0010
0100
0001
1000
,
0001
0000
1000
0001
1000
0000
0000
0000
,
1000
0001
1000
0000
0000
0000
0001
1000
,
0001
0000
0000
2000
,
0000
3000
0002
0000
,
0003
0001
1000
0001
,
1000
0010
0100
0001
,
1000
0010
0100
0001
,
0000
1000
0000
0000
0001
0000
1000
0000
,
0000
0001
0000
0000
1000
0000
1001
0000
,
0000
2002
0000
0000
0000
3003
0000
0000
,
0001
1000
0001
1000
,
0000
0001
0000
0000
1000
0000
0001
0000
,
0000
1000
0000
0000
0001
0000
1001
0000
,
0000
0000
0000
0000
,
1000
0001
1000
0001
,
0000
1000
0000
0000
0001
0000
1000
0000
,
0000
0001
0000
0000
1000
0000
1001
0000
,
0000
0000
0000
0000
,
0001
1000
0001
1000
,
0000
0001
0000
0000
1000
0000
0001
0000
,
0000
1000
0000
0000
0001
0000
1001
0000
,
0000
0000
0000
0000
,
1000
0001
1000
0001
,
0000
1000
0000
0000
0001
0000
1000
0000
,
0000
0001
0000
0000
1000
0000
1001
0000
,
0000
1001
0000
0000
0000
0000
1000
0001
,
1000
0001
0000
0000
0001
1000
0000
0000
,
1000
0001
0100
0010
,
1000
0001
1000
0001
,
0100
0010
0220
0000
,
0000
0000
0330
0000
,
0010
1000
0100
0010
,
0001
1000
0100
0010
,
0001
1000
2002
0000
,
0000
0000
3003
0000
,
0001
0100
0010
1000
,
0100
0010
0001
1000
,
0001
0100
0220
0000
,
0000
0000
0330
0000
,
0010
1000
0001
0010
,
0100
1000
0001
1000
,
0001
0100
0220
0000
,
0000
0000
0330
0000
,
1000
0001
0100
0010
,
1000
0001
0100
0010
,
1000
0001
2002
0000
,
0000
0000
3003
0000
,
1000
0001
1000
0001
,
0100
0010
1000
0001
,
0100
0010
0220
0000
,
0000
0000
0330
0000
,
0010
1000
0100
0010
,
0001
0010
0100
1000
,
0001
0100
0220
0000
,
0000
0000
0330
0000
,
1000
0001
0100
0010
,
1000
0001
0100
0010
,
0000
1000
0000
0000
1001
0000
0000
0000
,
1000
0001
1000
0001
,
0100
0010
1000
0100
,
0010
0000
0001
1000
0001
0000
0100
0000
,
0010
1000
0001
1000
,
0001
0000
1000
0100
1000
0000
0001
0000
,
0100
0010
1000
0001
,
1000
0000
0001
1000
0001
0000
0000
0000
,
0001
1000
0001
0000
0000
0000
1000
0001
,
1000
0000
0000
0002
,
0000
0003
2000
0000
,
3000
1000
0001
1000
,
0001
0100
0010
1000
,
0001
0100
0010
1000
,
0000
0001
0000
0000
1000
0000
0001
0000
,
0000
1000
0000
0000
0001
0000
1001
0000
,
0000
2002
0000
0000
0000
3003
0000
0000
,
2002
0000
0000
0000
,
0000
0000
0000
0000
,
0000
0000
0000
0000
0000
3003
0000
0000
;

//---------------dance-single - ----------------
#NOTES:
     dance-single:
     :
     Hard:
     9:
     0.713,0.962,0.459,0.537,0.000,461.000,53.000,62.000,0.000,0.000:
1000
0001
1000
0001
,
0000
0100
0000
0000
0010
0000
1000
0000
,
0000
0100
0000
0000
0010
0000
0001
0000
,
0000
2002
0000
0000
0000
0000
3003
0000
,
0001
1000
0001
1000
,
0000
0010
0000
0000
0100
0000
0001
0000
,
0000
0010
0000
0000
0100
0000
1000
0000
,
0000
2002
0000
0000
0000
0000
3003
0000
,
1100
1001
0011
0001
,
0000
0100
0000
0000
0001
0000
1000
0000
,
0000
0100
0000
0000
1000
0000
0001
0000
,
0000
2002
0000
0000
0000
0000
3003
0000
,
1001
1000
0001
1000
,
0000
0001
0000
0000
1000
0000
0001
0000
,
0000
1000
0000
0000
0001
0000
2002
0000
,
3003
0220
0000
0000
0330
0000
0010
0100
,
0010
1000
0001
0100
0010
1000
0000
0000
,
1000
0001
0000
0001
0000
0001
0100
0000
,
0010
1000
0000
1000
0000
0001
1000
0000
,
0001
1000
2002
0000
,
0000
0000
0000
3003
,
0001
1000
0000
1000
0000
1000
0001
0000
,
0001
0100
0000
0010
1000
0001
1000
0000
,
0001
1000
2002
0000
,
0000
0000
0000
3003
,
1000
0100
0000
0100
0000
0100
0010
0000
,
0010
0001
0000
0001
0000
0001
1000
0000
,
0010
0100
0220
0000
,
0000
0000
0000
0330
,
0001
1000
0000
1000
0000
1000
0100
0000
,
0010
0001
0000
0001
0100
0010
1000
0000
,
0100
0010
0220
0000
,
0000
0000
0000
0330
,
1000
0001
0000
1000
0010
1000
0010
1000
,
0001
0100
0010
1000
,
0001
1000
2002
0000
,
0000
0000
0000
3003
,
1000
0010
0100
0001
,
0010
0100
1000
0001
,
0100
0010
0220
0000
,
0000
0000
0000
0330
,
0010
1000
0100
0010
,
0001
0010
0100
1000
,
0001
0100
0220
0000
,
0000
0000
0000
0330
,
1000
0001
0100
0010
,
1000
0001
0100
0110
,
0000
1001
0000
0000
0110
0000
0000
0000
,
1000
0000
0001
0000
1000
0000
1000
0100
,
1000
0100
0010
0001
0010
0001
1000
0001
,
1000
0001
0100
0010
1000
0100
0010
0001
,
0010
0001
0010
0001
0010
0001
0100
0010
,
1000
0001
1000
0001
0100
0010
0000
0010
,
1000
0100
1000
0001
0100
0010
1000
0100
,
0010
0001
0010
0100
1000
0001
0000
0000
,
0001
0100
0002
0000
0000
0003
1000
0010
,
2000
0000
3001
0002
,
0000
1003
2000
0000
,
3000
1000
0001
1000
,
0100
0010
0001
1000
,
0001
0100
0010
1001
,
0000
1001
0000
0000
1100
0000
0110
0000
,
0000
0110
0000
0000
0001
0000
1001
0000
,
0000
2002
0000
0000
0000
0000
3003
0000
,
0001
1000
0001
1000
,
0000
0010
0000
0000
0100
0000
0001
0000
,
0000
0010
0000
0000
0100
0000
1000
0000
,
0000
2002
0000
0000
0000
0000
3003
0000
,
1000
0001
1000
0001
,
0000
0100
0000
0000
0010
0000
1000
0000
,
0000
0100
0000
0000
0010
0000
0001
0000
,
0000
2002
0000
0000
0000
0000
3003
0000
,
0011
1001
1100
1000
,
0000
0010
0000
0000
1000
0000
0001
0000
,
0000
0010
0000
0000
0001
0000
1000
0000
,
0000
2002
0000
0000
0000
0000
3003
0000
,
1001
0001
1000
0001
,
0000
1000
0000
0000
0001
0000
1000
0000
,
0000
0001
0000
0000
1000
0000
2002
0000
,
3003
0220
0000
0000
0330
0000
0100
0010
,
0100
0001
1000
0010
0100
0001
0000
0000
,
0001
1000
0000
1000
0000
1000
0010
0000
,
0100
0001
0000
0001
0000
1000
0001
0000
,
1000
0001
2002
0000
,
0000
0000
0000
3003
,
1000
0001
0000
0001
0000
0001
1000
0000
,
1000
0010
0000
0100
0001
1000
0001
0000
,
1000
0001
2002
0000
,
0000
0000
0000
3003
,
0001
0010
0000
0010
0000
0010
0100
0000
,
0100
1000
0000
1000
0000
1000
0001
0000
,
0100
0010
0220
0000
,
0000
0000
0000
0330
,
1000
0001
0000
0001
0000
0001
0010
0000
,
0100
1000
0000
1000
0010
0100
0001
0000
,
0010
0100
0220
0000
,
0000
0000
0000
0330
,
0001
1000
0000
0001
0100
0001
0100
0001
,
1000
0010
0100
0001
,
1000
0001
2002
0000
,
0000
0000
0000
3003
,
0001
0100
0010
1000
,
0100
0010
0001
1000
,
0010
0100
0220
0000
,
0000
0000
0000
0330
,
0100
0001
0010
0100
,
1000
0100
0010
0001
,
1000
0010
0220
0000
,
0000
0000
0000
0330
,
0001
1000
0010
0100
,
0001
1000
0010
0110
,
0000
1001
0000
0000
0110
0000
0000
0000
,
0001
0000
1000
0000
0001
0000
0001
0010
,
0001
0010
0100
1000
0100
1000
0001
1000
,
0001
1000
0010
0100
0001
0010
0100
1000
,
0100
1000
0100
1000
0100
1000
0010
0100
,
0001
1000
0001
1000
0010
0100
0000
0100
,
0001
0010
0001
1000
0010
0100
0001
0010
,
0100
1000
0100
0010
0001
1000
0000
0000
,
1000
0010
2000
0000
0000
3000
0001
0100
,
0002
0000
1003
2000
,
0000
3001
0002
0000
,
0003
0001
1000
0001
,
0010
0100
1000
0001
,
1000
0010
0100
1001
,
0000
1001
0000
0000
0011
0000
0110
0000
,
0000
0110
0000
0000
1000
0000
1001
0000
,
0000
2002
0000
0000
0000
0000
3003
0000
,
2002
0000
0000
0000
,
0000
0000
0000
0000
,
0000
0000
0000
0000
0000
3003
0000
0000
;
