#TITLE:Hej Hej;
#SUBTITLE:;
#ARTIST:Afasi & Filthy;
#TITLETRANSLIT:;
#SUBTITLETRANSLIT:;
#ARTISTTRANSLIT:;
#CREDIT:XOX;
#BANNER:Hej Hejbanner.PNG;
#BACKGROUND:Hej HejBG.png;
#LYRICSPATH:;
#CDTITLE:!XOX-cdtitle.png;
#MUSIC:Afasi & Filthy - 02 - Hej Hej.mp3;
#OFFSET:-0.280;
#SAMPLESTART:62.565;
#SAMPLELENGTH:12.000;
#SELECTABLE:YES;
#BPMS:0.000=168.000;
#STOPS:;
#BGCHANGES:;
// cache tags:
#FIRSTBEAT:0.500;
#LASTBEAT:486.500;
#SONGFILENAME:Songs/Bemani.se Megapack/(XOX) Hej Hej/Hej Hej.sm;
#HASMUSIC:1;
#HASBANNER:1;
#MUSICLENGTH:174.163;
// end cache tags

//---------------dance-single - ----------------
#NOTES:
     dance-single:
     :
     Challenge:
     12:
     1.000,1.000,1.000,0.011,0.296,868.000,469.000,2.000,0.000,0.000:
0000
0110
0100
0101
0100
0110
0010
1010
,
0000
0010
0000
1010
0000
0100
0000
1001
,
0010
1010
0010
0110
0010
0011
0010
1001
,
0000
0001
0000
1010
0000
0010
0000
0110
,
1000
1001
1000
1100
1000
1010
1000
1100
,
0000
0001
0000
1010
0000
0100
0000
0110
,
0000
0100
0100
1001
0000
0010
0010
1001
,
0000
0000
1000
0000
1000
0000
1001
0000
0001
0000
0001
0100
0010
1000
0110
0000
,
0000
0000
1100
0000
0000
0000
1100
0000
0000
0000
0010
0000
1000
0100
1010
0000
,
0011
0000
0010
0000
0110
0000
0010
0000
1001
0000
0010
1000
0100
1000
0011
0000
,
0000
0110
1010
0000
1000
0001
0110
0100
,
1010
0000
0100
0000
0011
0000
0001
1000
0010
0100
0010
0000
0010
0000
0110
0000
,
0000
0000
0101
0000
0001
0000
1001
0000
0100
0010
0001
0000
0001
0000
0101
0000
,
0100
0110
0010
1010
0010
0011
0100
1010
,
0100
0010
0001
0000
0010
0000
1010
0000
1000
0100
1010
0000
0100
0000
0110
0000
,
0100
0000
0101
0000
0010
0000
0011
1000
0010
0100
0011
0000
0011
0000
0000
0000
,
0001
1000
0010
0000
0100
0000
1100
0000
1000
0000
1100
0000
0010
0000
0011
0000
,
0001
0000
0011
0000
0001
0010
0100
0000
1010
0000
1010
0000
0000
0000
0000
0000
,
0100
0010
1000
0000
0001
0000
1010
0000
0010
0000
1000
0000
0001
0000
0110
0000
,
0100
0000
0001
0100
0010
1000
0110
0000
0110
0000
0110
0000
0000
0000
0000
0000
,
1010
1010
0100
0110
1010
1100
0010
0011
,
0010
1010
0010
1001
0000
0101
0011
1010
,
0110
0000
0101
0000
1001
0000
0110
0000
1000
0001
0100
0010
1000
0001
0110
0000
,
1010
0101
1010
1010
0000
1001
0000
0000
,
1001
0110
0101
1010
1100
0011
1001
0110
,
1010
0101
0110
1001
0000
1001
0000
0001
,
1000
0100
0010
0000
0100
0010
1000
0001
0010
0100
1000
0010
0100
0001
1000
0010
,
0100
0010
1000
0001
0100
0010
0100
0001
0000
0000
0001
0000
0000
0000
0000
0000
,
1010
0000
0000
0000
0100
0010
1000
0000
0010
0000
0110
0000
0010
0000
0011
0000
,
0010
0000
1010
0000
0100
0000
0110
0000
0100
0000
1001
0000
0000
0000
0010
0100
,
0010
1000
0100
0000
1010
0000
0100
0000
0110
0000
0100
0000
0101
0000
0100
0000
,
1100
1010
0110
0101
0011
1001
0000
1001
,
0011
1010
0101
0000
0000
0000
0000
0000
,
0101
1010
0110
1010
0011
0101
0110
1001
,
1010
0101
1001
1010
0000
0000
0000
0000
,
0101
0101
1001
1001
0110
0110
1010
1010
,
1001
1001
0110
0110
0000
0000
0000
0000
,
0011
0011
1100
1100
0110
0110
0101
0101
,
1010
0000
1010
0000
1001
0000
1001
0000
0001
0100
0010
0100
0000
0010
0000
0100
,
0000
0000
0110
0000
0110
0000
0010
0100
0010
0000
1000
0100
0010
0000
1001
0000
,
0000
1001
0000
0001
0100
0010
1000
0100
,
0010
0001
0100
0001
1000
0001
0001
0011
,
0000
0011
0000
0000
0110
0101
0110
1010
,
0110
0100
1100
1000
1010
1000
1000
1001
,
0000
1001
0000
1010
0110
1010
1010
0101
,
0101
0110
0110
1001
0000
0110
0000
0110
,
0000
0110
0000
1001
0000
0110
0000
1001
,
0000
0110
0000
1001
0010
0100
0001
0110
,
0000
0110
0000
0010
1010
0010
0101
0010
,
0110
1010
1100
0011
0101
0110
0100
1001
,
0000
1001
0000
0110
0101
0100
0100
0100
,
1010
0101
0110
1010
1100
0010
0100
1001
,
0000
1001
0000
1010
1010
0101
0101
0110
,
0110
1001
1001
0110
0000
1001
0000
1010
,
0000
0101
0000
1010
0000
0101
0000
1010
,
0000
0110
0000
1001
0000
1001
0000
1001
,
0000
0001
0100
0110
0000
1010
0101
0110
,
0000
1010
0101
0110
1001
1100
0011
0000
,
0001
0101
0001
0011
0001
1001
0001
0101
,
0000
0001
0000
1001
0000
0001
0000
1000
,
1100
1000
1010
1000
1001
1000
1100
1010
,
0000
0000
0010
0000
0000
0000
0101
0000
0101
0000
1010
0000
1010
0000
0100
0010
,
0101
0000
1000
0010
0100
0001
0100
0010
1000
0001
0110
0000
0100
0001
0100
0010
,
0100
0001
1000
0010
0100
0010
1000
0100
0010
0001
0110
0000
0000
0000
0000
0000
,
0010
0110
0001
0001
0101
0010
0010
1010
,
0100
0000
0101
0000
0100
0000
0110
0000
0010
0000
1001
0000
0000
0001
0100
0000
,
0100
0101
1010
1001
0010
0110
0010
0101
,
0010
0110
0000
1001
0000
0100
0000
1010
,
1000
1001
1000
1010
1000
1100
1000
1010
,
0000
1100
0000
1001
0000
0010
0000
1010
,
0000
0100
0100
1001
0000
0010
0010
1001
,
0000
0000
0100
0000
0100
0000
1010
0100
0001
1000
0010
0100
1001
0000
0000
0000
,
0100
0110
0100
1100
0100
1010
0100
0101
,
0000
0100
0000
1001
0000
0010
0000
0010
,
0011
0010
0101
0010
1010
0010
0010
1001
,
0000
0010
0000
1010
0000
0100
0000
1000
,
1010
1000
1100
1000
1001
1000
1100
1000
,
0000
0100
0000
1001
0000
1000
0000
0110
,
0000
0100
0100
1001
0000
0010
0010
1001
,
0000
0000
0110
0000
0110
0000
1010
0000
0101
1000
0001
0100
0010
1000
0010
0000
,
0000
0000
0000
0000
,
1100
1000
1000
1001
0000
0010
0000
1010
,
0000
0110
0001
0101
0001
0011
0001
1001
,
0000
0001
0000
0101
0000
0000
0000
1001
,
0000
0110
0000
0000
0000
0000
0000
0000
,
0110
0110
1010
1010
0101
0101
1001
0000
,
0101
1001
1010
1001
0101
1001
1010
1001
,
0101
0110
1010
1100
0110
0011
0110
1100
,
0000
1000
0000
1010
1010
0101
0101
0110
,
0110
1001
1001
1100
1100
0011
0011
1001
,
0000
1001
0000
0000
0101
0101
1010
1010
,
1001
1001
0011
0011
1100
1100
0110
0110
,
0000
0110
0000
1100
1010
1100
0011
0101
,
0011
1010
1010
0101
0000
0101
0000
1001
,
0000
1001
0000
0110
0000
0110
0000
1010
,
0000
1010
0000
1001
0011
0101
0110
1010
,
0000
1010
0000
1001
1010
1001
0101
1001
,
1010
1001
0101
0110
1010
0110
0101
1001
,
0000
1001
0000
0011
0110
1100
0110
0011
,
1100
0110
0011
0110
1100
1010
0101
1010
,
0000
1010
0000
1010
1010
0101
0101
0110
,
0110
1001
1001
1100
0000
1100
0000
0011
,
0000
0011
0000
0110
0000
0110
0000
1100
,
0000
1100
0000
1001
0000
1001
0000
0010
,
0010
0010
0010
0010
0010
0010
0010
0010
,
0010
1000
0010
0000
0010
0100
0010
0000
0010
1000
0010
0100
0010
1000
0001
0010
,
0100
1000
0010
0100
0011
0000
1010
0000
0101
0000
1100
0010
0100
0000
0101
0000
,
0101
0110
1010
2002
0000
3003
0000
0000
,
1000
0000
0010
0000
0100
0000
0011
0000
0100
0000
0100
0010
1100
0000
0110
0000
,
0101
0010
1000
0001
0100
0010
1000
0000
0011
0000
0001
1000
0010
0000
0100
0010
,
1000
0001
0100
0010
1000
0100
0010
0001
0100
0001
1000
0010
1100
0000
1100
0010
,
0100
0001
0010
0001
0100
1000
0100
0010
0001
1000
0101
0000
0000
0000
0000
0000
,
0010
0000
1000
0000
0001
0000
0000
0000
0010
0100
0011
0000
0110
0001
0010
1010
,
0000
0000
0000
1010
0000
0000
0000
0000
0000
0000
0000
0000
0101
0000
0000
0000
0000
0000
0000
0000
1100
0000
0000
0000
1100
0000
0000
0000
0000
0000
1100
0000
0000
0000
0000
0000
0010
0000
0000
0000
0100
0000
0000
0000
0000
0000
0000
0000
,
0001
0000
1000
1000
1000
0000
0001
0100
0010
0000
0001
0100
,
0010
0000
0100
0000
1000
0000
0001
0000
0100
0000
0010
0000
1000
0000
0100
0000
0000
0000
0000
0000
0000
0011
0000
0000
,
0001
1001
0001
0101
0001
0011
0001
1001
,
0000
0101
0000
1001
0000
0110
0000
1010
,
0000
0100
0100
1001
0000
0010
0010
1001
,
0000
0100
0100
1010
0110
1010
0101
0000
,
1000
1100
0100
0110
0100
0100
0110
0000
,
0001
0110
0010
1100
0010
0110
0000
0000
;
