#TITLE:Nautilus;
#SUBTITLE:;
#ARTIST:DM Ashura;
#TITLETRANSLIT:;
#SUBTITLETRANSLIT:;
#ARTISTTRANSLIT:;
#CREDIT:jammitch!;
#BANNER:Nautilus.png;
#BACKGROUND:Nautilus-bg.png;
#LYRICSPATH:;
#CDTITLE:jammitch!.png;
#MUSIC:Nautilus.ogg;
#OFFSET:-0.034;
#SAMPLESTART:52.454;
#SAMPLELENGTH:21.000;
#SELECTABLE:YES;
#BPMS:0.000=183.000;
#STOPS:;
#BGCHANGES:;
// cache tags:
#FIRSTBEAT:15.500;
#LASTBEAT:308.000;
#SONGFILENAME:Songs/lvsb tourney pack/Nautilus/Nautilus.sm;
#HASMUSIC:1;
#HASBANNER:1;
#MUSICLENGTH:103.011;
// end cache tags

//---------------dance-single - Beginner----------------
#NOTES:
     dance-single:
     Beginner:
     Beginner:
     1:
     0.096,0.148,0.000,0.000,0.000,69.000,0.000,0.000,0.000,0.000:
0000
0000
0000
0000
,
0000
0000
0000
0000
,
0000
0000
0000
0000
,
0000
0000
0000
0000
,
1000
0000
0000
0000
,
0001
0000
0000
0000
,
1000
0000
0000
0000
,
0001
0000
0100
0000
,
0010
0000
0000
0000
,
1000
0000
0000
0000
,
0100
0000
0000
0000
,
1000
0000
0000
0000
,
0001
0000
0000
0000
,
0100
0000
0000
0000
,
0010
0000
0000
0000
,
0100
0000
0000
0000
,
0001
0000
0000
0000
,
1000
0000
0000
0000
,
0100
0000
0000
0000
,
1000
0000
0000
0000
,
0100
0000
0000
0000
,
0010
0000
0000
0000
,
0001
0000
0000
0000
,
0100
0000
0010
0000
,
1000
0000
0000
0000
,
0000
0000
0000
0000
,
0000
0000
0000
0000
,
0000
0000
0000
0000
,
0001
0000
0000
0000
,
0000
0000
0000
0000
,
0000
0000
0000
0000
,
0000
0000
0000
0000
,
0010
0000
0000
0000
,
1000
0000
0000
0000
,
0001
0000
0000
0000
,
0100
0000
0000
0000
,
0001
0000
0000
0000
,
0010
0000
0000
0000
,
0100
0000
0000
0000
,
1000
0000
0001
0000
,
0100
0000
0000
0000
,
0010
0000
0000
0000
,
1000
0000
0000
0000
,
0100
0000
0000
0000
,
1000
0000
0000
0000
,
0001
0000
0000
0000
,
0010
0000
0000
0000
,
0001
0000
0000
0000
,
0100
0000
0000
0000
,
0010
0000
0000
0000
,
1000
0000
0000
0000
,
0100
0000
0000
0000
,
1000
0000
0000
0000
,
0010
0000
0000
0000
,
0100
0000
0000
0000
,
0001
0000
0010
0000
,
0001
0000
0000
0000
,
0100
0000
0000
0000
,
0010
0000
0000
0000
,
1000
0000
0000
0000
,
0100
0000
0000
0000
,
1000
0000
0000
0000
,
0010
0000
0000
0000
,
0100
0000
0000
0000
,
0001
0000
0000
0000
,
0010
0000
0000
0000
,
0001
0000
0000
0000
,
0100
0000
0000
0000
,
0010
0000
0000
0000
,
1000
0000
0000
0000
,
0100
0000
0000
0000
,
0010
0000
0001
0000
,
0100
0000
0000
0000
,
0000
0000
0000
0000
,
0000
0000
0000
0000
,
0000
0000
0000
0000
,
0010
0000
0000
0000
;

//---------------dance-single - Light----------------
#NOTES:
     dance-single:
     Light:
     Easy:
     3:
     0.183,0.224,0.000,0.107,0.000,121.000,0.000,11.000,0.000,0.000:
0000
0000
0000
0000
,
0000
0000
0000
0000
,
0000
0000
0000
0000
,
0000
0000
0000
0000
,
1000
0000
0000
0000
,
0001
0000
0000
0000
,
2000
0000
0000
0000
,
3001
0000
0001
0001
,
0100
0000
0010
0000
,
0100
0000
0001
0000
,
1000
0000
0100
0000
,
1000
0000
0010
0000
,
0100
0000
0001
0000
,
0010
0000
0001
0000
,
0100
0000
0010
0000
,
0100
0000
0001
0000
,
1000
0000
0010
0000
,
0100
0000
0010
0000
,
1000
0000
0001
0000
,
0010
0000
0100
0000
,
1000
0000
0010
0000
,
0100
0000
0010
0000
,
2000
0000
0000
0000
,
3100
0000
0100
0100
,
2000
0000
0000
3000
,
0000
0000
0000
0000
,
0000
0000
0000
0000
,
0000
0000
0000
0001
,
0002
0000
0000
0003
,
1000
0000
0000
0000
,
0000
0000
0000
0000
,
0000
0000
0000
0000
,
0020
0000
0000
0030
,
1000
0000
0000
0000
,
0001
0000
0000
0000
,
0100
0000
0000
0001
,
0002
0000
0000
0003
,
1000
0000
0000
0000
,
0200
0000
0000
0000
,
1300
0000
1000
1000
,
0010
0000
0100
0000
,
0010
0000
1000
0000
,
0001
0000
0010
0000
,
0100
0000
1000
0000
,
0010
0000
0100
0000
,
0010
0000
1000
0000
,
0001
0000
0010
0000
,
0001
0000
0100
0000
,
0010
0000
0001
0000
,
0100
0000
0010
0000
,
0100
0000
0001
0000
,
1000
0000
0010
0000
,
1000
0000
0100
0000
,
1000
0000
0010
0000
,
0200
0000
0000
0000
,
0301
0000
0001
0001
,
1000
0000
0100
0000
,
1000
0000
0010
0000
,
0001
0000
0100
0000
,
0001
0000
0010
0000
,
1000
0000
0100
0000
,
0001
0000
0100
0000
,
1000
0000
0010
0000
,
0001
0000
0010
0000
,
1000
0000
0001
0000
,
0010
0000
1000
0000
,
0001
0000
0100
0000
,
1000
0000
0001
0000
,
0100
0000
0010
0000
,
1000
0000
0100
0000
,
0002
0000
0000
0000
,
1003
0000
1000
1000
,
0020
0000
0000
0030
,
0000
0000
0000
0000
,
0000
0000
0000
0000
,
0000
0000
0000
0010
,
0020
0000
0000
0030
,
0010
0000
0000
0000
;

//---------------dance-single - Medium----------------
#NOTES:
     dance-single:
     Medium:
     Medium:
     6:
     0.323,0.448,0.000,0.049,0.000,228.000,0.000,5.000,0.000,0.000:
0000
0000
0000
0000
,
0000
0000
0000
0000
,
0000
0000
0000
0000
,
0000
0000
0000
0000
,
0010
0000
0000
0000
0000
1000
0000
0000
,
0100
0000
0000
0000
0000
1000
0000
0001
,
0200
0000
0000
0000
,
0310
0000
0000
0010
1000
0000
0001
0000
,
0010
0000
0001
0000
0100
0010
0000
0010
,
0100
0000
0001
0000
1000
0100
0000
0100
,
1000
0000
0010
0000
0100
0001
0000
0001
,
0100
0000
0010
0000
1000
0100
0000
0100
,
1000
0000
0001
0000
0010
0100
0000
0100
,
0010
0000
0001
0000
1000
0010
0000
0010
,
1000
0000
0100
0000
0010
0001
0000
0001
,
0010
0000
0001
0000
1000
0100
0000
0100
,
1000
0000
1000
0010
0100
0010
0000
0010
,
1000
0000
0001
0000
0100
0010
0000
0010
,
1000
0000
0001
0000
0010
0100
0000
0100
,
1000
0000
0010
0000
0100
0001
0000
0001
,
1000
0000
0010
0100
0001
0100
0000
0010
,
1000
0000
0100
0000
1000
0010
0000
0010
,
0200
0000
0000
0000
,
0301
0000
0000
0001
1000
0000
0100
0000
,
1000
0000
0000
0010
0000
0000
0100
0000
,
0000
0000
0000
0000
,
0000
0000
0000
0000
,
0000
0000
0000
0000
0000
0001
0010
0001
,
0010
0000
0000
0100
0000
0000
1000
0000
,
0001
0000
0000
0000
,
0000
0000
0000
0000
,
0000
0000
0000
0000
0000
1000
0100
1000
,
0001
0000
0000
0010
0000
0000
0100
0000
,
1000
0000
0000
0000
0000
0000
0000
0010
,
0100
0000
0000
0000
,
0001
0000
0000
0000
0000
0001
1000
0001
,
0100
0000
0000
0010
0000
0000
1000
0000
,
0100
0000
0000
0000
0000
1000
0000
0001
,
0200
0000
0000
0000
,
0310
0000
0000
0010
1000
0010
0100
0010
,
1000
0000
0000
0001
0000
0000
0100
0000
,
0010
0000
0000
0000
0000
1000
0000
0001
,
0100
0000
0000
0000
0000
0010
0000
0000
,
0100
0000
0000
0000
0000
0001
0010
0001
,
1000
0000
0000
0100
0000
0000
1000
0000
,
0010
0000
0000
0000
0000
0100
0000
0001
,
1000
0000
0000
0000
,
0100
0000
0000
0000
0000
0010
1000
0010
,
0100
0000
0000
0001
0000
0000
1000
0000
,
0100
0000
0000
0000
0000
1000
0000
0010
,
0100
0000
0000
0000
0000
0001
0000
0000
,
0010
0000
0000
0000
0000
0001
0100
0001
,
1000
0000
0000
0010
0000
0000
0100
0000
,
0010
0000
0000
0000
0000
1000
0000
0001
,
0020
0000
0000
0000
,
0130
0000
0000
1000
0100
1000
0001
1000
,
0010
0000
0000
0100
0000
0000
0001
0000
,
0010
0000
0000
0000
0000
0100
0000
1000
,
0100
0000
0000
0000
0000
1000
0000
0000
,
0010
0000
0000
0000
0000
0100
0001
0100
,
0010
0000
0000
1000
0000
0000
0100
0000
,
1000
0000
0000
0000
0000
0010
0000
0100
,
0001
0000
0000
0000
0000
0010
0000
0000
,
0001
0000
0000
0000
0000
1000
0010
1000
,
0001
0000
0000
0100
0000
0000
0010
0000
,
1000
0000
0000
0000
0000
0100
0000
1000
,
0100
0000
0000
0000
0000
0010
0000
0000
,
0001
0000
0000
0000
0000
0100
0010
0100
,
0001
0000
0000
0010
0000
0000
0001
0000
,
0100
0000
0000
0000
0000
0010
0000
1000
,
0200
0000
0000
0000
,
0310
0000
0000
0010
0001
0000
1000
0000
,
0010
0000
0000
0010
0000
0000
0010
0000
,
0000
0000
0000
0000
,
0000
0000
0000
0000
,
0000
0000
0000
0000
0000
0100
0001
0100
,
0010
0000
0000
0010
0000
0000
0010
0000
,
0010
0000
0000
0000
;

//---------------dance-single - Heavy----------------
#NOTES:
     dance-single:
     Heavy:
     Hard:
     9:
     0.589,0.635,0.049,0.029,0.024,417.000,5.000,3.000,0.000,0.000:
0000
0000
0000
0000
,
0000
0000
0000
0000
,
0000
0000
0000
0000
,
0000
0000
0000
0000
,
0010
1000
0100
1000
0001
0010
0000
0100
,
1000
0001
1000
0010
1000
0001
0000
0100
,
0020
0000
0000
0000
,
1030
0000
0000
1000
0000
0000
1000
0000
0001
0000
0010
0000
0100
0000
1000
0000
,
0010
0100
0010
1000
0100
0010
0000
0010
,
0001
0100
0010
0100
0001
1000
0000
1000
,
0001
0010
0100
1000
0010
0100
0000
0100
,
0001
1000
0100
1000
0010
0100
0000
0001
,
1000
0010
1000
0001
0100
0001
0000
0001
,
0010
0100
1000
0010
1000
0100
0000
0100
,
1000
0010
0100
0001
1000
0100
0000
0100
,
0010
0001
0100
0010
0100
0001
0000
1000
,
0100
1000
0010
0100
0010
1000
0001
0010
,
0100
1000
0010
0100
0010
1000
0001
0100
,
0010
0100
0001
1000
0100
0010
0001
0100
,
0010
0100
0001
1000
0100
1000
0010
0100
,
0010
1000
0001
0010
0100
0010
0001
1000
,
0001
0100
0010
0100
0001
1000
0100
0010
,
0200
0000
0000
0000
,
1300
0000
0000
1000
0000
0000
1000
0000
0010
0000
0100
0000
0010
0000
1000
0000
,
0010
0000
0000
0010
0000
0000
0010
0000
,
0000
0000
0000
0000
,
0000
0000
0000
0000
,
0000
0000
0000
0000
0000
0001
1000
0010
,
0100
0000
0000
0100
0000
0000
0100
0000
,
0100
0000
0000
0000
,
0000
0000
0000
0000
,
0000
0000
0000
0000
0000
0001
1000
0100
,
1000
0000
0000
0010
0000
0000
0100
0000
,
1001
0000
0000
0000
0000
0000
0000
0001
,
0101
0000
0000
0000
,
1100
0000
0000
0000
0000
1000
0001
0010
,
0001
0000
0000
0100
0000
0010
1000
0000
,
0110
0000
0000
0000
0000
1000
0000
0001
,
0012
0000
0000
0000
,
1003
0000
0000
1000
0000
0000
1000
0000
0010
0000
0100
0000
0001
0000
1000
0000
,
0100
1000
0010
0100
0010
1000
0000
1000
,
0001
0100
0010
1000
0100
0010
0000
0010
,
0001
0100
0001
1000
0010
1000
0000
1000
,
0100
0010
0001
1000
0010
0100
0001
1000
,
0100
0010
0001
1000
0010
0100
0001
0100
,
0010
1000
0001
0010
0100
0010
0000
0010
,
0001
0100
0010
1000
0001
0010
0000
0010
,
0100
0010
0001
1000
0010
1000
0100
0010
,
0001
0000
1000
0100
0000
1000
0010
0100
,
0010
0000
1000
0001
0000
0010
0001
0100
,
0010
0000
1000
0100
0000
1000
0010
0100
,
0010
0000
1000
0001
0000
0100
0001
0010
,
0100
0000
0010
0001
0000
1000
0010
0100
,
0010
0000
1000
0100
0000
1000
0001
0010
,
0100
0000
0010
0001
0000
0100
0010
0100
,
0001
0000
0000
0001
0000
0000
0001
0000
0010
0000
0100
0000
1000
0000
0010
0000
,
0100
0001
0100
0010
1000
0100
1000
0001
,
0010
0001
0100
0010
0100
0001
1000
0100
,
1000
0010
0100
0010
1000
0001
0010
0100
,
1000
0010
0100
0010
1000
0001
0010
0001
,
0100
0010
0100
0001
1000
0100
1000
0010
,
0100
0001
0010
0100
1000
0010
0100
0010
,
1000
0001
0010
0001
0100
0010
0100
0001
,
1000
0100
1000
0010
0100
0010
1000
0001
,
0100
0010
0100
0001
1000
0010
0100
0010
,
1000
0001
0010
0001
0100
0010
1000
0100
,
1000
0001
0010
0100
1000
0010
0100
0010
,
1000
0001
0010
0100
1000
0001
0100
0001
,
0010
0001
0100
0010
0100
0001
1000
0100
,
1000
0010
0100
0010
1000
0001
0010
0100
,
1000
0010
0100
0010
1000
0001
0100
0001
,
1000
0000
0000
1000
0000
0000
1000
0000
0010
0000
0100
0000
0010
0000
1000
0000
,
0001
0000
0000
0001
0000
0000
0001
0000
,
0000
0000
0000
0000
,
0000
0000
0000
0000
,
0000
0000
0000
0000
0000
0001
0010
0100
,
1000
0000
0000
1000
0000
0000
1000
0000
,
1000
0000
0000
0000
;

//---------------dance-single - Challenge----------------
#NOTES:
     dance-single:
     Challenge:
     Challenge:
     12:
     1.000,1.000,0.262,0.078,0.854,706.000,27.000,8.000,52.000,0.000:
0000
0000
0000
0000
,
0000
0000
0000
0000
,
0000
0000
0000
0000
,
0000
0000
0000
0000
0000
0000
0000
0000
0000
0000
0000
0000
0000
0000
0010
0100
,
0010
1000
0001
0010
0001
0100
0010
0001
,
0010
1000
0001
0010
0100
0010
0001
1000
,
0020
0000
0000
0000
1030
0100
1000
0100
1000
0001
1000
0001
0100
0010
1000
0001
,
0010
0000
0000
0100
0000
0000
0010
0000
0001
0000
0001
0000
1000
0010
1000
0010
,
1000
0000
0001
0000
0010
0000
0001
0000
0100
0000
0010
0000
1000
0000
1000
0001
,
0100
0000
0010
0000
0100
0000
0001
0000
1000
0000
0010
0000
0100
0000
0100
0001
,
1000
0000
0010
0000
0100
0000
1000
0000
0100
0000
0001
0000
1000
0000
1000
0010
,
0100
0000
0001
0000
0010
0000
1000
0000
0010
0000
0001
0000
0100
0000
0100
0010
,
1000
0001
0010
0000
0100
0000
1000
0000
0010
0000
0100
0000
0010
0000
0010
1000
,
0001
1000
0100
0000
0010
0000
0001
0000
0100
0000
0010
0000
0100
0000
0100
0001
,
1000
0001
0010
0000
0100
0000
0001
0000
0100
0000
1000
0000
0010
0000
0010
0100
,
0001
1000
0100
0000
0010
0000
1000
0000
0010
0000
0001
0000
0100
0000
0100
0001
,
1000
0100
0010
0000
0100
0000
1000
0001
0010
0001
0000
1000
0010
1000
0001
0000
,
0010
0001
1000
0000
0010
0000
0100
0001
1000
0010
0100
0010
1000
0100
0010
0001
,
1000
0000
0001
0000
0100
0000
0010
1000
0001
0000
0100
0010
1000
0001
0010
0000
,
0100
0000
1000
0001
0100
0000
0010
0100
1000
0100
0010
0000
1000
0100
0000
0100
,
1000
0100
0010
0000
0100
0000
1000
0001
0010
0001
0000
1000
0010
1000
0001
0000
,
0010
0001
1000
0000
0010
0000
0100
0001
1000
0010
0100
0010
1000
0100
0010
0001
,
1000
0000
0001
0000
0100
0000
0010
1000
0001
0000
0100
0010
1000
0001
0010
0001
,
1000
0000
0000
M100
0000
0000
0M10
0000
1000
0000
1000
0000
0010
0001
0010
0001
,
2000
0100
3001
0020
0100
0031
0200
0001
,
0310
1000
0010
0100
0010
1000
0100
0100
,
0001
0100
1000
0010
0100
1000
0100
0100
,
0001
0010
1000
0010
0100
0001
0100
0100
,
2000
0001
3100
0020
0001
0130
2000
0010
,
3002
1000
0103
0010
1000
0100
0001
0001
,
0100
0010
0001
1000
0100
0010
1000
1000
,
0010
0001
0100
1000
0001
1000
0100
0100
,
1001
0100
1000
0010
0001
0010
1000
1000
,
1001
0010
1000
0010
0100
0001
0100
0101
,
1001
0010
0100
0010
1000
0001
0010
0010
,
1100
0000
1000
0000
0010
0000
0001
0000
0010
0000
1000
0000
0001
0000
0001
1000
,
0100
0010
0100
1000
0001
0010
0100
0010
0001
1000
0010
0100
0010
1000
0001
0010
,
0100
0010
0001
1000
0010
0100
0001
1000
0100
1000
0001
0100
0010
0100
0001
1000
,
0100
M000
000M
00M0
1000
0001
0010
0100
0010
0001
1000
0010
1000
0001
0010
0100
,
1000
0000
0000
M010
0000
0000
01M0
0000
0001
0000
0001
0000
1000
0010
0100
0010
,
1000
0001
0100
0010
0100
1000
0100
0001
,
1100
0010
0001
0100
0010
1001
0010
0110
,
1010
0001
0100
0010
0100
0101
1000
0010
,
1100
0000
0001
0000
0010
0000
0001
0000
0100
0000
0010
0000
0100
0000
0001
1000
,
0001
0100
0010
0100
0001
1000
0100
0010
,
1100
0001
0010
0001
1000
0101
1000
0011
,
1001
0100
0010
1000
0100
1001
0010
0100
,
0101
0000
0010
0000
1000
0000
0001
0000
0100
0000
0010
0000
1000
0000
0001
0100
,
0010
1000
0001
0100
1000
0100
0001
1000
,
1100
0010
0001
0100
0010
1001
0100
0011
,
1001
0100
0010
0001
0100
1010
0001
1000
,
1100
0000
0010
0000
0001
0000
0100
0000
0010
0000
0100
0000
0001
0000
1000
0010
,
0100
0001
0010
0001
1000
0010
0100
0010
,
1100
0001
0010
0001
1000
0110
1000
0101
,
1001
0000
0000
0000
1000
0010
1000
0001
1000
0010
0100
0010
1000
0001
0010
0100
,
1000
0000
0000
M100
0000
0000
0M10
0000
0001
0000
0001
0000
1000
0010
0100
0001
,
1000
0010
0100
0000
0010
0000
1000
0100
0010
0001
0000
1000
0100
0010
0001
0000
,
1000
0100
0010
0000
0100
0000
1000
0010
0100
0001
1000
0001
0010
0100
0010
0001
,
1000
0000
0010
0000
0100
0000
0001
0010
0100
0000
1000
0001
0100
0010
1000
0000
,
0100
0000
0010
0001
1000
0000
0010
0100
0001
1000
0100
0000
0010
0001
0000
0001
,
1000
0010
0100
0000
0010
0000
1000
0001
0010
0001
0000
1000
0100
1000
0001
0000
,
0100
0010
1000
0000
0100
0000
1000
0010
0100
0001
1000
0100
0010
0001
1000
0001
,
0100
0000
0001
0000
0010
0000
0100
1000
0001
0000
0010
0100
0010
0001
1000
0000
,
0010
0000
1000
0001
0100
0000
0010
0100
0001
0100
0010
0000
1000
0100
0000
0010
,
0001
1000
0100
0000
1000
0000
0010
1000
0001
0010
0000
0001
1000
0001
0100
0000
,
0010
1000
0001
0000
0010
0000
0100
0010
0001
0010
0100
1000
0010
0100
0010
1000
,
0001
0000
0010
0000
0001
0000
1000
0010
0100
0000
0001
0010
0100
0010
0001
0000
,
1000
0000
0010
0100
0001
0000
0010
0100
1000
0001
0010
0000
0001
1000
0000
1000
,
0100
0010
0100
0000
1000
0000
0001
0010
0100
1000
0000
0010
0100
0001
1000
0000
,
0001
0010
0100
0000
0010
0000
0001
0010
0100
0010
1000
0010
0100
0010
0001
1000
,
0100
0000
1000
0000
0010
0100
0001
0100
0010
1000
0010
0100
0001
0010
0100
1000
,
0010
0000
0000
01M0
0000
0000
0M01
0000
1000
0000
1000
0000
0001
0010
0100
0010
,
M001
0M00
00M0
100M
000M
00M0
0M01
M000
,
M000
0M00
00M0
000M
000M
00M0
0M00
M000
,
M000
0M00
00M0
000M
000M
00M0
0M00
M000
,
M000
0M00
00M0
000M
000M
00M1
1M00
M100
,
M010
0M00
00M0
010M
000M
00M0
0M10
M000
,
M001
0000
0000
0000
;
