#TITLE:World's End;
#SUBTITLE:The Battle of the Ivory Plains (2001);
#ARTIST:Dragonland;
#TITLETRANSLIT:;
#SUBTITLETRANSLIT:;
#ARTISTTRANSLIT:;
#CREDIT:;
#BANNER:Worlds EndBN.PNG;
#BACKGROUND:Worlds EndBG.png;
#LYRICSPATH:;
#CDTITLE:Joe Dcd title.png;
#MUSIC:Dragonland - 10 - World's end.mp3;
#OFFSET:-0.860;
#SAMPLESTART:106.500;
#SAMPLELENGTH:16.260;
#SELECTABLE:YES;
#BPMS:0.000=176.000,907.000=150.000,908.000=140.000,912.000=125.000,914.000=115.000;
#STOPS:;
#BGCHANGES:;
// cache tags:
#FIRSTBEAT:0.000;
#LASTBEAT:920.000;
#SONGFILENAME:Songs/Astronomic Metal Collection 2/(Joe D) World's End/Dragonland - 10 - World's end.sm;
#HASMUSIC:1;
#HASBANNER:1;
#MUSICLENGTH:326.207;
// end cache tags

//---------------dance-single - ----------------
#NOTES:
     dance-single:
     :
     Hard:
     12:
     1.000,1.000,0.852,1.000,1.000,2542.000,278.000,607.000,0.000,16.000:
1001
0000
0000
1100
0022
0000
0033
0000
,
1001
0000
0000
1100
0022
0000
0033
0000
,
1001
0000
0000
0011
2200
0000
3300
0000
,
1001
0000
0000
0011
2200
3300
0110
1001
,
0220
0330
0000
0011
2200
0000
3300
0000
,
1001
0000
0000
1001
1100
0011
2200
3300
,
1001
0000
0000
0011
2200
0000
3300
0000
,
1001
0000
0000
0011
2200
3300
0110
1001
,
0120
0030
0001
0010
0100
1000
0012
0003
2100
3000
0100
0010
1000
0001
0100
0010
,
2001
3000
0001
0010
0100
1000
0012
0003
2100
3000
0100
0010
1000
0001
0100
0010
,
1002
0003
1000
0100
0010
0001
2100
3000
0012
0003
0010
0100
0001
1000
0010
0100
,
1002
0003
1000
0100
0010
0001
2100
3000
0012
0003
0010
0100
0022
0033
0220
0330
,
2001
3000
0001
0010
0100
1000
0012
0003
2100
3000
0100
0010
1000
0001
0100
0010
,
2001
3000
0001
0010
0100
1000
0012
0003
2200
3300
0022
0033
0220
0000
1330
0000
,
1002
0003
1000
0100
0010
0001
2100
3000
0012
0003
0010
0100
0001
1000
0010
0100
,
1002
0003
1000
0100
0010
0001
2200
3300
2001
3000
0010
0100
0022
0033
2200
3300
,
2002
0000
0000
3003
0220
0000
0000
0330
0022
0000
0000
0033
2200
0000
0000
3300
,
1001
0100
0010
0001
0100
0010
0100
0010
1000
0100
0010
0001
0100
0010
0100
0010
,
1000
0100
0010
0001
0100
0010
0100
0010
2200
0000
0000
3300
0022
0000
0000
0033
,
1001
0010
0100
1000
0010
0100
0010
0100
0001
0010
0100
1000
0010
0100
0010
0100
,
0001
0010
0100
1000
0010
0100
0010
0100
0022
0000
0000
0033
2200
0000
0000
3300
,
1001
0010
0001
0010
1000
0100
1000
0100
0001
0010
0001
0010
1000
0100
1000
0100
,
0001
0010
0001
0010
1000
0100
1000
0100
0220
0000
0000
0330
2002
0000
0000
3003
,
1001
0100
1000
0100
0010
0001
0010
0001
1000
0100
1000
0100
0010
0001
0010
0001
,
2200
0000
0000
3300
0022
0000
0000
0033
2020
0000
0000
3030
0202
0000
0000
0303
,
1001
0100
0010
0001
0100
0010
0100
0010
1000
0100
0010
0001
0100
0010
0100
0010
,
1000
0100
0010
0001
0100
0010
0100
0010
2200
0000
0000
3300
0022
0000
0000
0033
,
1001
0010
0100
1000
0010
0100
0010
0100
0001
0010
0100
1000
0010
0100
0010
0100
,
0001
0010
0100
1000
0010
0100
0010
0100
0022
0000
0000
0033
2200
0000
0000
3300
,
1001
0010
0001
0010
1000
0100
1000
0100
0001
0010
0001
0010
1000
0100
1000
0100
,
0001
0010
0001
0010
1000
0100
1000
0100
0220
0000
0000
0330
2002
0000
0000
3003
,
1001
0100
1000
0100
0010
0001
0010
0001
1000
0100
1000
0100
0010
0001
0010
0001
,
2200
0000
0000
3300
0022
0000
0000
0033
2020
0000
0000
3030
0202
0000
0000
0303
,
2001
3200
0320
0032
2003
3200
0320
0032
0203
0300
0001
0010
0200
0300
0001
0010
,
2000
3000
0001
0010
2000
3000
0001
0010
0200
0300
0001
0010
0200
0300
0001
0010
,
0200
1300
0020
1030
0002
1003
0020
1030
0200
1300
0001
0010
0200
0300
0001
0010
,
2000
3000
0001
0010
2000
3000
0001
0010
0200
0300
0001
0010
0200
0300
0001
0010
,
0200
0300
0020
0030
2000
3200
0320
0032
0203
0300
0001
0010
0200
0300
0001
0010
,
2000
3000
0001
0010
2000
3000
0001
0010
0200
0300
0001
0010
0200
0300
0001
0010
,
0200
1300
0020
1030
0002
1003
0020
1030
0200
1300
0001
0010
0200
0300
0001
0010
,
2000
3000
0001
0010
0200
0300
1000
0100
0001
0010
0100
1000
0001
0010
0100
1000
,
0001
0010
0100
1000
0100
1000
0100
1000
0020
0030
1000
0100
0020
0030
1000
0100
,
0002
0003
1000
0100
0002
0003
1000
0100
0020
0030
1000
0100
0020
0030
1000
0100
,
0020
0031
0200
0301
2000
3001
0200
0301
0020
0030
1000
0100
0020
0030
1000
0100
,
0002
0003
1000
0100
0002
0003
1000
0100
0020
0030
1000
0100
0020
0030
1000
0100
,
0002
0023
0230
2300
3002
0023
0230
2300
3020
0030
1000
0100
0020
0030
1000
0100
,
0002
0003
1000
0100
0002
0003
1000
0100
0020
0030
1000
0100
0020
0030
1000
0100
,
0020
0031
0200
0301
2000
3001
0200
0301
0020
0030
1000
0100
0020
0030
1000
0100
,
0002
0003
1000
0100
0002
0003
1000
0100
0020
0030
1000
0100
0020
0030
1000
0100
,
0002
0023
0230
2300
3002
0023
0230
2300
3120
0030
0001
0010
0100
1000
0012
0003
,
2100
3000
0100
0010
1000
0001
0100
0010
2001
3000
0001
0010
0100
1000
0012
0003
,
2100
3000
0100
0010
1000
0001
0100
0010
1002
0003
1000
0100
0010
0001
2100
3000
,
0012
0003
0010
0100
0001
1000
0010
0100
1002
0003
1000
0100
0010
0001
2100
3000
,
0012
0003
0010
0100
0022
0033
0220
0330
2001
3000
0001
0010
0100
1000
0012
0003
,
2100
3000
0100
0010
1000
0001
0100
0010
2001
3000
0001
0010
0100
1000
0012
0003
,
2200
3300
0022
0033
0220
0000
1330
0000
1002
0003
1000
0100
0010
0001
2100
3000
,
0012
0003
0010
0100
0001
1000
0010
0100
1002
0003
1000
0100
0010
0001
2200
3300
,
2001
3000
0010
0100
0022
0033
2200
3300
1001
0100
0010
0001
0100
0010
0100
0010
,
1000
0100
0010
0001
0100
0010
0100
0010
1000
0100
0010
0001
0100
0010
0100
0010
,
2200
0000
0000
3300
0022
0000
0000
0033
1001
0010
0100
1000
0010
0100
0010
0100
,
0001
0010
0100
1000
0010
0100
0010
0100
0001
0010
0100
1000
0010
0100
0010
0100
,
0022
0000
0000
0033
2200
0000
0000
3300
1001
0010
0001
0010
1000
0100
1000
0100
,
0001
0010
0001
0010
1000
0100
1000
0100
0001
0010
0001
0010
1000
0100
1000
0100
,
0220
0000
0000
0330
2002
0000
0000
3003
1001
0100
1000
0100
0010
0001
0010
0001
,
1000
0100
1000
0100
0010
0001
0010
0001
2200
0000
0000
3300
0022
0000
0000
0033
,
2020
0000
0000
3030
0202
0000
0000
0303
1001
0100
0010
0001
0100
0010
0100
0010
,
1000
0100
0010
0001
0100
0010
0100
0010
1000
0100
0010
0001
0100
0010
0100
0010
,
2200
0000
0000
3300
0022
0000
0000
0033
1001
0010
0100
1000
0010
0100
0010
0100
,
0001
0010
0100
1000
0010
0100
0010
0100
0001
0010
0100
1000
0010
0100
0010
0100
,
0022
0000
0000
0033
2200
0000
0000
3300
1001
0010
0001
0010
1000
0100
1000
0100
,
0001
0010
0001
0010
1000
0100
1000
0100
0001
0010
0001
0010
1000
0100
1000
0100
,
0220
0000
0000
0330
2002
0000
0000
3003
1001
0100
1000
0100
0010
0001
0010
0001
,
1000
0100
1000
0100
0010
0001
0010
0001
2200
0000
0000
3300
0022
0000
0000
0033
,
2020
0000
0000
3030
0202
0000
0000
0303
0200
0300
0001
0010
0200
0300
0001
0010
,
2000
3000
0001
0010
2000
3000
0001
0010
0200
0300
0001
0010
0200
0300
0001
0010
,
0200
1300
0020
1030
0002
1003
0020
1030
0200
0300
0001
0010
0200
0300
0001
0010
,
2000
3000
0001
0010
2000
3000
0001
0010
0200
0300
0001
0010
0200
0300
0001
0010
,
0200
0300
0020
0230
2300
3200
0320
0032
0203
0300
0001
0010
0200
0300
0001
0010
,
2000
3000
0001
0010
2000
3000
0001
0010
0200
0300
0001
0010
0200
0300
0001
0010
,
0200
1300
0020
1030
0002
1003
0020
1030
0200
0300
0001
0010
0200
0300
0001
0010
,
2000
3000
0001
0010
2000
3000
0001
0010
0001
0010
0100
1000
0001
0010
0100
1000
,
0001
0010
0100
1000
0100
1000
0100
1000
0020
0030
1000
0100
0020
0030
1000
0100
,
0002
0003
1000
0100
0002
0003
1000
0100
0020
0030
1000
0100
0020
0030
1000
0100
,
0020
0031
0200
0301
2000
3001
0200
0301
0020
0030
1000
0100
0020
0030
1000
0100
,
0002
0003
1000
0100
0002
0003
1000
0100
0020
0030
1000
0100
0020
0030
1000
0100
,
0002
0023
0230
2300
3002
0023
0230
2300
3020
0030
1000
0100
0020
0030
1000
0100
,
0002
0003
1000
0100
0002
0003
1000
0100
0020
0030
1000
0100
0020
0030
1000
0100
,
0020
0031
0200
0301
2000
3001
0200
0301
0020
0030
1000
0100
0020
0030
1000
0100
,
0002
0003
1000
0100
0002
0003
1000
0100
0020
0030
1000
0100
0020
0030
1000
0100
,
0002
0023
0230
2300
3002
0023
0230
2300
3210
0000
0000
0000
0010
0000
0000
0000
,
0010
0010
2301
0001
,
0001
0000
0001
0000
3011
1100
0011
0000
,
1100
0000
0011
0000
0000
0000
1100
0000
0011
0000
1000
0001
1000
0000
0010
0000
,
0220
0000
0000
0330
0220
0000
0000
0330
2001
0000
0000
0000
0001
0000
0000
0000
,
0001
0001
3120
0100
,
0100
0000
0100
0000
1130
0011
1100
0000
,
0011
0000
1100
0000
0000
0000
0011
0000
1100
0000
0001
1000
0000
0001
1000
0000
,
0110
0000
1000
0001
1000
0001
1000
0001
1000
0100
0010
0001
1000
0010
1000
0001
,
1000
0100
0010
0001
1000
0010
1000
0010
0001
0010
0100
1000
0001
0010
0001
1000
,
0001
0010
0100
1000
0001
0100
0001
1000
0010
0100
0001
1000
0010
0100
0010
0001
,
0010
0100
0001
1000
0010
0100
0010
0001
0010
0100
0001
1000
0010
0100
0010
0001
,
0220
0000
0000
0330
0220
0000
0000
0330
1000
0100
0010
0001
1000
0010
1000
0001
,
1000
0100
0010
0001
1000
0010
1000
0010
0001
0010
0100
1000
0001
0010
0001
1000
,
0001
0010
0100
1000
0001
0100
0001
1000
0010
1000
0010
1000
0001
1000
0001
1000
,
0100
1000
0100
1000
0010
1000
0010
1000
0001
1000
0001
1000
0010
1000
0010
1000
,
0220
0000
0000
0330
0220
0000
0000
0330
1001
0100
0010
0100
0010
0100
0010
0100
,
0020
0000
0000
0000
0000
0000
0000
0000
1000
0100
1000
0100
1000
0100
1000
0100
,
1001
0000
0000
0000
0000
0000
0000
0000
0000
0000
0000
0000
0000
0000
0000
0000
0000
0000
0000
0000
0000
0030
0000
0000
0001
0000
0010
0000
0001
0000
0010
0000
0100
0000
1000
0000
0001
0000
0010
0000
0001
0000
0010
0000
0100
0000
1000
0000
,
0001
0000
0010
0000
0001
0000
0010
0000
0100
0000
1000
0000
0001
0000
0010
0000
0001
0000
0010
0000
0100
0000
1000
0000
0010
0000
0000
0001
0000
0000
0100
0000
0000
0001
0000
0000
0010
0000
0100
0000
1000
0000
0100
0000
0010
0000
0001
0000
,
0020
0000
0000
0000
0000
0000
0000
0000
0000
0030
0000
0000
1000
0000
0100
0000
1000
0000
0010
0000
1000
0000
0100
0000
,
0010
0000
0000
0000
0001
0000
0000
0000
0010
0000
0000
0000
0100
0000
0000
0000
1000
0000
0000
0000
0001
0000
0000
0000
1000
0000
0000
0000
0100
0000
0000
0000
1000
0000
0000
0000
0100
0000
0000
0010
0000
0000
0001
0000
0000
0010
0000
0000
,
0100
0000
0000
0000
1000
0000
0000
0000
0001
0000
0000
0000
1000
0000
0000
0000
0100
0000
0000
0000
1000
0000
0000
0000
0100
0000
0000
0000
1000
0000
0000
0000
0020
0000
0000
0000
0000
0000
0000
0000
0000
0000
0000
0000
0100
0000
0000
0030
0020
0000
0000
0000
0000
0000
0000
0000
0000
0000
0000
0000
0100
0000
0000
0030
,
0020
0000
0000
0000
0000
0000
0000
0000
0000
0000
0000
0000
0000
0000
0000
0000
0000
0000
0000
0000
0000
0000
0000
0000
0000
0000
0000
0000
0000
0000
0000
0000
0000
0000
0000
0000
0100
0000
0000
0000
0000
0000
0000
0000
0000
0030
0000
0000
0020
0000
0000
0000
0000
0000
0000
0000
0000
0000
0000
0000
0000
0000
0000
0000
0000
0000
0000
0000
0000
0000
0000
0000
0000
0000
0000
0000
0000
0000
0000
0000
0000
0000
0000
0000
0000
0000
0000
0000
0000
0000
0000
0000
0000
0000
0000
0000
1030
0000
0000
0000
0000
0000
0000
0000
0000
0000
0000
0000
0100
0000
0000
0000
0000
0000
0000
0000
0000
0000
0000
0000
0010
0000
0000
0000
0000
0000
0000
0000
0000
0000
0000
0000
0001
0000
0000
0000
0000
0000
0000
0000
0000
0000
0000
0000
0010
0000
0000
0000
0000
0000
0000
0000
0100
0000
0000
0000
0000
0000
0000
0000
1000
0000
0000
0000
0000
0000
0000
0000
0001
0000
0000
0000
0000
0000
0000
0000
1000
0000
0000
0000
0000
0000
0000
0000
0100
0000
0000
0000
0000
0000
0000
0000
,
0020
0000
0000
0000
0000
0000
0000
0030
1000
0100
1000
0010
1000
0001
1000
0010
,
1000
0100
1000
0001
1000
0010
1000
0100
0001
0010
0001
0100
0001
1000
0001
0100
,
0001
0010
0001
0100
0001
1000
0001
0100
0010
1000
0010
0001
0010
0100
0010
1000
,
0010
0001
0010
0100
0010
1000
0010
0001
0100
0010
0100
1000
0100
0010
0100
0001
,
0100
1000
0100
0010
0100
1000
0100
0010
0200
0000
0000
0000
0000
0000
0000
0000
,
0000
0000
0000
0000
0000
0000
0000
0300
0002
0000
0000
0000
0000
0000
0013
0000
,
0200
0000
0000
0000
0320
0000
0130
1000
,
0200
0000
0300
0000
0001
0000
1000
0000
0001
0000
0000
0010
0000
0000
0100
0000
,
2000
0000
0000
0000
3000
0000
0000
0000
0001
0010
0100
1000
0010
0001
0010
0001
,
0010
0100
1000
0010
1000
0001
1000
0100
1000
0100
0010
0100
0001
0010
0001
0010
,
0001
0010
0100
1000
0100
0010
0100
1000
0100
0010
0100
1000
0001
0010
0001
0010
,
0001
0010
0100
1000
0001
1000
0100
1000
0001
0010
0001
1000
0010
0001
0010
1000
,
0100
0000
0000
1000
0000
0000
0001
0000
0000
0100
0000
0000
0002
0000
0000
0000
0000
0000
0003
0000
0000
0000
0000
0000
0001
0000
0000
0010
0000
0000
0100
0000
0000
1000
0000
0000
0100
0000
0010
0000
0001
0000
0010
0000
0100
0000
0010
0000
,
1000
0000
0000
0001
0000
0000
1000
0000
0000
0100
0000
0000
0010
0000
0000
0100
0000
0000
0010
0000
0000
0001
0000
0000
0010
0000
0100
0000
1000
0000
0100
0000
0010
0000
0001
0000
1000
0000
0001
0000
0010
0000
0100
0000
0010
0000
0001
0000
,
0110
0000
0000
0000
0000
0000
1001
0000
0000
0000
0000
0100
0010
0000
0100
0000
1000
0000
0100
0000
0010
0000
0100
0000
1000
0000
0001
0000
1000
0000
0001
0000
,
1000
0100
0010
0001
1000
0100
0010
0001
1000
0100
0010
0001
0200
0000
0000
0000
0000
0000
0000
0000
0000
0000
0000
0000
,
0000
0000
0000
0000
0000
0000
0000
0000
0000
0300
0000
0000
1000
0000
0100
0000
0010
0000
0100
0000
0100
0000
0100
0000
,
0010
0001
0010
0100
0100
0100
0001
1000
0010
1000
1000
1000
,
0001
0010
0001
0100
0100
0100
0020
0000
0000
0000
0000
0000
,
0000
0000
0000
0000
0000
0000
0000
0000
0000
0030
0000
0000
1001
0010
0100
1000
0001
0010
0100
1000
0001
0010
0100
1000
,
0001
0000
0010
0000
0100
0000
1000
0000
0001
0000
0010
0000
0100
0000
1000
0000
0001
0000
0010
0000
0100
0000
1000
0000
0202
0000
0000
0000
0000
0000
0000
0000
0000
0303
0000
0000
0022
0000
0000
0000
0000
0000
0000
0000
0000
0033
0000
0000
,
2200
0000
0000
3300
0220
0000
0000
0330
2001
0000
3002
0000
2003
0000
3002
0000
,
2003
3002
2003
3002
2003
0000
0000
0000
,
0000
0000
0000
0000
0000
0000
0000
0000
0000
3000
0000
0000
0110
0000
1000
0000
1000
0000
0010
0000
1000
0000
1000
0000
,
0010
1000
1000
0010
1000
1000
0100
1000
1000
0100
1000
1000
,
0001
1000
1000
0001
1000
1000
0110
0110
0110
0110
0000
0000
,
0110
0000
0110
0000
0110
0000
0110
0000
0000
0000
0000
0000
1000
0000
0100
0010
0001
0000
0100
0000
0100
0000
0100
0000
,
1000
0000
0000
0000
0001
0000
0000
0000
1000
0000
0000
0000
0020
0030
0000
0000
0020
0030
0000
0000
0020
0030
0000
0000
0010
0000
0000
0000
1000
0000
0000
0000
1000
0000
0000
0000
0010
0000
0000
0000
1000
0000
0000
0000
1000
0000
0000
0000
,
0010
1000
1000
0010
1000
1000
0100
1000
1000
0100
1000
1000
,
0001
1000
1000
0001
1000
1000
0100
0001
0001
0100
0001
0001
,
1000
0001
0001
1000
0001
0001
0010
0001
0001
0010
0001
0001
,
0100
0001
0001
0100
0001
0001
0010
1000
1000
0010
1000
1000
,
0010
1000
1000
0010
1000
1000
0001
1000
1000
0001
1000
1000
,
0100
1000
1000
0100
1000
1000
0220
0000
0000
0000
0000
0000
,
0000
0000
0000
0000
0330
0000
1000
0100
0010
0001
0001
0001
,
0100
0001
0010
0100
0100
0100
0010
1000
1000
0010
1000
1000
,
0010
1000
1000
0010
1000
1000
0100
1000
1000
0100
1000
1000
,
0001
1000
1000
0001
1000
1000
0100
0001
0001
0100
0001
0001
,
0100
0001
0001
0100
0001
0001
1000
0001
0001
1000
0001
0001
,
0100
0001
0001
0100
0001
0001
0010
1000
1000
0010
1000
1000
,
0010
1000
1000
0010
1000
1000
0001
1000
1000
0001
1000
1000
,
0010
1000
1000
0010
1000
1000
0220
0000
0000
0000
0000
0000
,
0000
0000
0000
0000
0000
0000
0000
0000
0000
0000
0000
0000
0000
0000
0000
0000
0330
0000
0000
0000
0000
0000
0000
0000
1000
0000
0000
0000
0100
0000
0000
0000
0010
0000
0000
0000
0100
0000
0000
0010
0000
0000
0100
0000
0000
0010
0000
0000
,
1000
0100
0010
0001
1000
0100
1000
0100
1001
0100
0010
0001
0100
0010
0100
0010
,
1000
0100
0010
0001
0100
0010
0100
0010
1000
0100
0010
0001
0100
0010
0100
0010
,
2200
0000
0000
3300
0022
0000
0000
0033
1001
0010
0100
1000
0010
0100
0010
0100
,
0001
0010
0100
1000
0010
0100
0010
0100
0001
0010
0100
1000
0010
0100
0010
0100
,
0022
0000
0000
0033
2200
0000
0000
3300
1001
0010
0001
0010
1000
0100
1000
0100
,
0001
0010
0001
0010
1000
0100
1000
0100
0001
0010
0001
0010
1000
0100
1000
0100
,
0220
0000
0000
0330
2002
0000
0000
3003
1001
0100
1000
0100
0010
0001
0010
0001
,
1000
0100
1000
0100
0010
0001
0010
0001
2200
0000
0000
3300
0022
0000
0000
0033
,
2020
0000
0000
3030
0202
0000
0000
0303
1001
0100
0010
0001
0100
0010
0100
0010
,
1000
0100
0010
0001
0100
0010
0100
0010
1000
0100
0010
0001
0100
0010
0100
0010
,
2200
0000
0000
3300
0022
0000
0000
0033
1001
0010
0100
1000
0010
0100
0010
0100
,
0001
0010
0100
1000
0010
0100
0010
0100
0001
0010
0100
1000
0010
0100
0010
0100
,
0022
0000
0000
0033
2200
0000
0000
3300
1001
0010
0001
0010
1000
0100
1000
0100
,
0001
0010
0001
0010
1000
0100
1000
0100
0001
0010
0001
0010
1000
0100
1000
0100
,
0220
0000
0000
0330
2002
0000
0000
3003
1001
0100
1000
0100
0010
0001
0010
0001
,
1000
0100
1000
0100
0010
0001
0010
0001
2200
0000
0000
3300
0022
0000
0000
0033
,
2020
0000
0000
3030
0202
0000
0000
0303
2001
3200
0320
0032
2003
3200
0320
0032
,
0203
0300
0001
0010
0200
0300
0001
0010
2000
3000
0001
0010
2000
3000
0001
0010
,
0200
0300
0001
0010
0200
0300
0001
0010
0200
1300
0020
1030
0002
1003
0020
1030
,
0200
1300
0001
0010
0200
0300
0001
0010
2000
3000
0001
0010
2000
3000
0001
0010
,
0200
0300
0001
0010
0200
0300
0001
0010
0200
0300
0020
0030
2000
3200
0320
0032
,
0203
0300
0001
0010
0200
0300
0001
0010
2000
3000
0001
0010
2000
3000
0001
0010
,
0200
0300
0001
0010
0200
0300
0001
0010
0200
1300
0020
1030
0002
1003
0020
1030
,
0200
1300
0001
0010
0200
0300
0001
0010
2000
3000
0001
0010
0200
0300
1000
0100
,
0001
0010
0100
1000
0001
0010
0100
1000
0001
0010
0100
1000
0100
1000
0100
1000
,
0020
0030
1000
0100
0020
0030
1000
0100
0002
0003
1000
0100
0002
0003
1000
0100
,
0020
0030
1000
0100
0020
0030
1000
0100
0020
0031
0200
0301
2000
3001
0200
0301
,
0020
0030
1000
0100
0020
0030
1000
0100
0002
0003
1000
0100
0002
0003
1000
0100
,
0020
0030
1000
0100
0020
0030
1000
0100
0002
0023
0230
2300
3002
0023
0230
2300
,
3020
0030
1000
0100
0020
0030
1000
0100
0002
0003
1000
0100
0002
0003
1000
0100
,
0020
0030
1000
0100
0020
0030
1000
0100
0020
0031
0200
0301
2000
3001
0200
0301
,
0020
0030
1000
0100
0020
0030
1000
0100
0002
0003
1000
0100
0002
0003
1000
0100
,
0020
0000
0000
0000
0030
0000
0000
0000
1000
0000
0000
0000
0100
0000
0000
0000
0020
0000
0000
0000
0030
0000
0000
0000
1000
0000
0000
0000
0100
0000
0000
0000
0002
0000
0000
0000
0023
0000
0000
0000
0230
0000
0000
0000
2300
0000
0000
0000
3002
0000
0000
0000
0023
0000
0000
0000
0230
0000
0000
0000
2300
0000
0000
3000
,
0210
0010
0010
0010
,
2301
0001
0001
0001
,
3011
1100
0011
0000
1100
0011
0000
1100
,
0011
0000
1000
0001
1000
0000
0010
0000
0220
0000
0000
0330
0220
0000
0000
0330
,
2001
0001
0001
0001
,
3120
0100
0100
0100
,
1130
0011
1100
0000
0011
1100
0000
0011
,
1100
0000
1000
0001
1000
0000
0010
0000
2002
0000
0000
3003
2002
0000
0000
3003
,
1000
0100
0010
0001
1000
0010
1000
0001
1000
0100
0010
0001
1000
0010
1000
0010
,
0001
0010
0100
1000
0001
0010
0001
1000
0001
0010
0100
1000
0001
0100
0001
1000
,
0010
0100
0001
1000
0010
0100
0010
0001
0010
0100
0001
1000
0010
0100
0010
0001
,
0010
0100
0001
1000
0010
0100
0010
0001
0220
0000
0000
0330
0220
0000
0000
0330
,
1000
0100
0010
0001
1000
0010
1000
0001
1000
0100
0010
0001
1000
0010
1000
0010
,
0001
0010
0100
1000
0001
0010
0001
1000
0001
0010
0100
1000
0001
0100
0001
1000
,
0010
1000
0010
1000
0001
1000
0001
1000
0100
1000
0100
1000
0010
1000
0010
1000
,
0001
1000
0001
1000
0010
1000
0010
1000
0220
0000
0000
0330
0220
0000
0000
0330
,
2002
0000
0000
0000
0000
0000
0000
3003
,
0022
0000
0000
0000
0000
0000
0000
0033
,
2200
0000
0000
0000
,
0000
0000
0000
0000
0000
0000
3300
0000
2002
0000
0000
3003
2002
0000
0000
3003
,
2002
0000
0000
0000
0000
0000
0000
3003
,
0022
0000
0000
0000
0000
0000
0000
0033
,
2200
0000
0000
0000
,
3301
0000
0011
0000
1000
0000
1100
0000
0100
0010
0100
0010
1000
0001
1000
0001
,
0100
0010
0100
1000
0100
0010
0100
0001
0100
1000
0100
0010
0100
1000
0100
0001
,
0010
0100
0010
0001
0010
1000
0010
0100
0010
0001
0010
1000
0010
0100
0010
0001
,
1000
0010
1000
0001
1000
0100
1000
0010
1000
0001
1000
0100
1000
0010
1000
0100
,
0001
0010
0001
0100
0001
0010
0001
1000
0022
0000
0000
0033
2200
0000
0000
3300
,
0100
0010
0100
1000
0100
0010
0100
0001
0100
1000
0100
0010
0100
1000
0100
0001
,
0010
0100
0010
0001
0010
1000
0010
0100
0010
0001
0010
1000
0010
0100
0010
0001
,
1000
0010
1000
0001
1000
0100
1000
0010
1000
0001
1000
0100
1000
0010
1000
0100
,
0001
0010
0001
0100
0001
0010
0001
1000
0022
0000
0000
0033
2200
0000
0000
3300
,
0210
0010
0010
0010
,
2301
0000
0000
0000
0000
0000
0001
0000
0000
0001
0010
0100
0001
0000
0000
0000
0000
0000
0001
0000
0000
0000
0000
0000
,
3102
0010
0010
0010
,
0013
0000
0001
1000
0001
0000
1000
0100
1000
0100
0010
0001
1000
0100
0010
0001
,
0210
0000
0010
0000
0310
1000
1100
0011
,
0220
0000
0000
0000
0000
0000
0000
0000
0000
0330
0000
0000
0010
0000
0000
0100
0000
0000
1000
0000
0000
0001
0000
0000
1000
0000
0000
0000
0001
0000
0000
0000
0010
0000
0000
0000
1000
0000
0000
0000
0001
0000
0000
0000
0010
0000
0000
0000
,
2002
0000
0000
0000
0000
0000
3003
0000
0022
0000
0000
0000
0000
0000
0000
0033
,
2200
0000
0000
0000
0000
0000
0000
3300
2002
0000
0000
0000
0000
0000
0000
3003
,
0220
0000
0000
0000
,
0330
0000
0000
0000
;
