#TITLE:19,November;
#SUBTITLE:;
#ARTIST:good-cool;
#TITLETRANSLIT:;
#SUBTITLETRANSLIT:;
#ARTISTTRANSLIT:;
#CREDIT:;
#BANNER:19,November.png;
#BACKGROUND:19,November-bg.png;
#LYRICSPATH:;
#CDTITLE:!tear-cdtitle.png;
#MUSIC:19,November.mp3;
#OFFSET:0.537;
#SAMPLESTART:41.868;
#SAMPLELENGTH:11.780;
#SELECTABLE:YES;
#BPMS:0.000=125.000;
#STOPS:;
#BGCHANGES:;
// cache tags:
#FIRSTBEAT:4.000;
#LASTBEAT:243.500;
#SONGFILENAME:Songs/Fresh Flock of Fantastic Files F4/(Tear) 19,November/19, November.sm;
#HASMUSIC:1;
#HASBANNER:1;
#MUSICLENGTH:123.797;
// end cache tags

//---------------dance-single - ----------------
#NOTES:
     dance-single:
     :
     Hard:
     11:
     0.934,0.934,1.000,0.000,0.965,681.000,128.000,0.000,0.000,0.000:  // measure 1
0000
0000
0000
0000
,  // measure 2
1001
0000
0100
0010
1001
0000
0100
0001
0010
0001
0100
0010
1001
0000
1000
0000
,  // measure 3
0011
0000
1000
0011
0100
0000
0001
1000
0100
1000
0010
0100
0011
0000
0001
0000
,  // measure 4
0101
0000
1010
0001
0100
0000
0001
0010
0001
1000
0100
0010
1001
0000
0001
0000
,  // measure 5
1000
0100
1000
0100
0010
0000
0001
1000
0000
0010
0100
0000
0001
0010
0001
0010
,  // measure 6
1100
0000
0001
1100
0010
0000
0001
1000
0010
0100
0001
0010
1100
0000
0001
0000
,  // measure 7
0110
0000
0001
1000
0110
0000
0001
1000
0100
0010
0100
1000
0011
0000
1000
0000
,  // measure 8
0101
0000
0011
0100
1000
0000
0010
0100
0010
1000
0001
0100
0011
0000
1000
0000
,  // measure 9
0001
0010
0001
0010
0100
0000
1000
0001
0000
1000
0100
0000
0010
0001
0010
0001
,  // measure 10
1010
0000
0001
0000
1000
0000
0001
0010
0000
0100
1000
0000
0001
0100
0001
0000
,  // measure 11
1000
0100
1000
0000
0010
0000
0100
0001
0000
1000
0100
0000
0010
0100
0010
0000
,  // measure 12
0100
1000
0001
0100
0010
0000
0100
0010
0000
1000
0100
0000
0010
0001
0100
0010
,  // measure 13
1001
1000
0010
0100
0000
0110
1000
1001
,  // measure 14
0101
0000
0000
0001
0010
0000
0100
1000
0100
0000
0000
0010
0001
0000
1000
0010
,  // measure 15
0100
0000
0000
0001
1000
0000
0001
0010
0100
0000
0000
1000
0010
0000
0100
0001
,  // measure 16
1100
0000
0000
1000
0010
0000
0100
0000
0011
0000
0000
0001
0010
0000
0100
0000
,  // measure 17
1010
0000
0000
0001
0100
0000
0010
0000
1001
0000
0011
0000
0101
0000
1001
0000
,  // measure 18
1010
0000
0000
1000
0010
0000
0100
0010
0100
0000
0000
0001
0010
0000
0100
1000
,  // measure 19
0100
0000
0000
0010
0100
0000
1000
0001
1000
0000
0001
0000
0101
0000
0010
0000
,  // measure 20
1100
0000
0000
1000
0001
0000
0100
0010
0100
0000
0000
0001
1000
0000
0001
1000
,  // measure 21
0110
0001
1000
0001
0100
0000
0001
1000
0000
0010
1000
0000
0001
0100
0001
0100
,  // measure 22
1010
0000
1001
0000
0001
0100
0010
1000
0001
0000
1000
0000
0100
0000
1100
0000
,  // measure 23
0000
0000
0011
0000
0000
0000
1010
0000
1000
0000
0010
0000
0100
0010
0100
0001
,  // measure 24
1100
0000
0011
0000
1010
0001
0100
0000
0001
0000
0010
0000
0000
0000
1100
0000
,  // measure 25
0000
0000
0011
0000
0000
0000
1010
0000
1000
0000
0011
0000
0100
0001
1000
0010
,  // measure 26
0110
0000
0100
1001
0100
0000
0001
0010
1100
0000
0001
1000
0101
0000
0010
0100
,  // measure 27
0001
1000
0100
0000
0011
0000
0001
0000
0000
0000
0001
0000
0001
0000
0001
0000
,  // measure 28
1010
0001
0100
0000
0001
0000
1000
0001
1100
1100
0000
0000
1000
0000
0001
1000
,  // measure 29
0110
0001
1000
0001
1000
0001
1000
0001
1000
0001
1000
0001
1000
0001
1000
0001
,  // measure 30
0110
0000
1000
0010
1100
0000
0001
0100
0011
1000
0010
0100
0001
0000
1000
0001
,  // measure 31
0110
0000
0001
0010
1100
0000
0001
1000
0110
0001
1000
0100
1000
0000
0001
0010
,  // measure 32
1100
0000
1010
0100
0001
0000
1000
0001
1100
0010
0100
0001
1000
0000
0001
0100
,  // measure 33
0011
1000
0010
1000
0010
0000
0100
0001
0000
1000
0100
0000
0010
0001
0010
0001
,  // measure 34
1100
0000
1000
0110
1000
0000
0001
0010
1100
0001
0100
0010
1000
0000
0001
1000
,  // measure 35
0110
0000
0001
1100
0010
0000
0100
1000
0011
1000
0010
0100
0001
0000
1000
0100
,  // measure 36
0011
0000
1000
0010
1100
0000
0001
0010
1001
0100
1000
0010
0100
0000
0001
1000
,  // measure 37
0011
0100
0010
0100
0010
0100
0010
0100
0010
0100
0010
0100
0010
0100
0010
0100
,  // measure 38
1001
0000
0100
0000
0011
0000
1000
0000
0110
0000
0001
0000
1100
0000
0010
0100
,  // measure 39
1001
0010
0100
0010
1100
0000
0001
0000
1010
0000
0100
0000
1001
0000
0100
1000
,  // measure 40
0011
1000
0010
1000
0110
0000
0001
0000
1100
0000
0010
0000
0101
0000
1000
0001
,  // measure 41
0110
1000
0001
1000
0110
0000
1000
0000
0101
0000
0010
0000
1001
0000
1000
0100
,  // measure 42
0011
1000
0010
1000
0101
0000
0010
0000
1001
0000
0100
0000
0011
0000
1000
0001
,  // measure 43
1100
0010
0100
0001
1010
0000
0100
0100
1001
0000
0100
0000
0011
0000
0001
0010
,  // measure 44
1100
0001
0100
0010
1100
0000
0001
0001
1010
0000
0100
0000
0011
0000
1000
0001
,  // measure 45
1010
0100
0001
0100
0010
0000
1000
0010
0000
1000
0100
0000
0010
0100
0010
0100
,  // measure 46
1001
0000
1000
0000
0010
0000
0100
0001
0010
0000
0100
0000
1000
0000
0010
0100
,  // measure 47
0011
0000
1000
0000
0010
0000
0100
0001
1000
0000
0001
0000
0100
0000
0001
0000
,  // measure 48
1000
0010
1000
0010
0100
0001
0100
0001
1000
0100
1000
0100
0010
0001
0010
0001
,  // measure 49
0100
0010
0100
0010
1000
0001
1000
0001
0010
0100
0010
0100
1000
0010
1000
0010
,  // measure 50
0101
0000
0001
0000
1000
0100
0010
0000
,  // measure 51
0100
0000
0000
0000
1000
0000
0000
0000
0001
0000
0010
0000
0100
0000
1000
0100
,  // measure 52
1100
1000
0100
0000
0000
0000
0100
1000
1100
1000
0100
1000
1100
0100
1000
0100
,  // measure 53
1100
0010
0100
0010
0101
0010
0100
0010
1100
0010
0100
0010
0101
0010
0100
0010
,  // measure 54
1100
0000
1010
0001
0100
0000
0001
0100
0010
1000
0100
0010
1001
0000
0001
0010
,  // measure 55
1100
0000
0101
1000
0010
0000
1000
0010
0100
0010
1000
0001
0110
0000
0001
0100
,  // measure 56
0011
0000
0101
1000
0010
0000
1000
0100
1000
0001
0010
0001
1010
0000
0010
0100
,  // measure 57
1001
0010
0100
0010
0100
0000
0001
1000
0000
0010
0100
0000
0001
0100
0001
0100
,  // measure 58
1010
0000
1000
0000
0100
0000
0010
0001
0000
0100
0010
0000
1000
0000
0001
0000
,  // measure 59
0101
0000
0001
0000
1000
0000
0010
1000
0000
0010
0100
0000
0001
0000
1000
0000
,  // measure 60
1100
0000
0100
0000
1000
0000
0010
0100
0000
0001
1000
0000
0100
0000
0010
0000
,  // measure 61
0001
0100
0010
1000
0100
0010
0100
1000
0010
0100
0001
0010
0100
1000
0110
0000
;
