#TITLE:Plantman Stage(Megaman 6);
#SUBTITLE:;
#ARTIST:Capcom Sound Team;
#TITLETRANSLIT:;
#SUBTITLETRANSLIT:;
#ARTISTTRANSLIT:;
#CREDIT:Megaman 6(Capcom);
#BANNER:plantman-banner.jpg;
#BACKGROUND:plantman-bg.JPG;
#LYRICSPATH:;
#CDTITLE:PhoenixW-cdtitle.JPG;
#MUSIC:11 - Plant Man Stage.mp3;
#OFFSET:-1.795;
#SAMPLESTART:45.110;
#SAMPLELENGTH:12.000;
#SELECTABLE:YES;
#BPMS:0.000=138.520;
#STOPS:;
#BGCHANGES:;
// cache tags:
#FIRSTBEAT:4.000;
#LASTBEAT:211.500;
#SONGFILENAME:Songs/keyboard/11 - Plant Man Stage/11 - Plant Man Stage.sm;
#HASMUSIC:1;
#HASBANNER:1;
#MUSICLENGTH:99.090;
// end cache tags

//---------------dance-single - ----------------
#NOTES:
     dance-single:
     :
     Challenge:
     10:
     0.719,0.880,0.161,0.283,0.893,455.000,16.000,28.000,0.000,4.000:
0000
0000
0000
0000
,
1000
0100
1000
0001
0010
0100
0010
0000
0001
1000
0000
0100
0010
0000
0010
0000
,
0001
0100
0001
1000
0010
0100
0010
0000
1000
0001
0000
0010
0100
0000
0100
0000
,
1000
0000
0001
0020
0000
0000
0000
0000
0030
0000
1000
0000
0100
0000
0010
0000
,
0002
0000
0000
0103
0000
0010
1000
0100
,
0010
0001
0010
0100
1000
0001
0100
0000
0001
0100
0000
0010
1000
0000
1000
0000
,
0100
0010
0100
1000
0010
0100
0001
0000
0100
0010
0000
1000
0001
0000
0001
0000
,
0100
0000
0010
2000
0000
0000
0000
0000
3000
0000
0010
0000
0100
0000
0001
0000
,
2000
0000
0000
3002
0000
1003
0100
0010
,
0001
0100
0010
1000
0001
0100
0010
1000
0100
0010
0001
1000
0100
0010
0001
0100
,
0010
1000
0010
0100
0010
1000
0100
0010
0001
0100
0001
1000
0001
0100
0010
1000
,
0001
0010
0100
1000
0001
0010
0100
1000
0010
0100
0001
1000
0010
0100
0001
1000
,
0010
0100
0010
0001
0010
1000
0001
0010
0100
1000
0100
0010
0100
0001
1000
0000
,
0001
0010
0000
0100
0000
0000
0001
0000
0100
0001
0000
0100
0000
0000
1000
0000
,
0010
0100
0000
1000
0000
0000
0001
0000
1000
0000
0010
0000
0100
0000
0001
0000
,
0202
0000
0000
0000
0000
1303
0110
1001
,
0000
0000
1100
0000
0000
0110
0000
0000
0011
0000
0000
0000
0000
0000
0000
0000
,
1000
0001
1000
0001
0000
0000
0000
0000
0000
0000
0010
0100
0000
0100
0010
0000
,
0100
0001
0100
0001
0000
0000
0000
0000
0000
0000
1000
0010
0000
0010
1000
0000
,
0001
0010
0001
0010
0000
0000
0000
0000
0000
0000
0100
1000
0000
1000
0100
0000
,
0020
0000
0032
0000
0103
0210
0000
0000
,
0301
0010
0001
0100
0000
0000
0000
0000
0000
0000
0010
0100
0000
0100
0001
0000
,
1000
0010
1000
0100
0000
0000
0000
0000
0000
0000
0010
0001
0000
0001
1000
0000
,
0010
0100
0010
1000
0000
0000
0000
0000
0000
0001
0100
0000
0010
0000
1000
0000
,
2000
0000
0000
3220
0000
0000
0000
0330
,
0001
0010
0001
1000
0100
0010
0100
0000
1000
0001
0000
0010
0100
0000
0100
0000
,
1000
0010
1000
0001
0100
0010
0100
0000
0001
1000
0000
0100
0010
0000
0010
0000
,
0001
0000
1000
0200
0000
0000
0000
0000
0300
0000
0001
0000
0010
0000
0100
0000
,
2000
0000
0000
3010
0000
0100
0001
0010
,
0100
1000
0100
0010
0001
1000
0010
0000
1000
0010
0000
0100
0001
0000
0001
0000
,
0010
0100
0010
0001
0100
0010
1000
0000
0010
0100
0000
0001
1000
0000
1000
0000
,
0010
0000
0100
0002
0000
0000
0000
0000
0003
0000
0100
0000
0010
0000
1000
0000
,
0002
0000
0000
2003
0000
3001
0010
0100
,
1000
0010
0100
0001
1000
0010
0100
0001
0010
0100
1000
0001
0010
0100
1000
0010
,
0100
0001
0100
0010
0100
0001
0010
0100
1000
0010
1000
0001
1000
0010
0100
0001
,
1000
0100
0010
0001
1000
0100
0010
0001
0100
0010
1000
0001
0100
0010
1000
0001
,
0100
0010
0100
1000
0100
0001
1000
0100
0010
0001
0010
0100
0010
1000
0001
0000
,
1000
0100
0000
0010
0000
0000
1000
0000
0010
1000
0000
0010
0000
0000
0001
0000
,
0100
0010
0000
0001
0000
0000
1000
0000
0001
0000
0100
0000
0010
0000
1000
0000
,
2020
0000
0000
0000
0000
3130
1001
0110
,
0000
0000
0101
0000
0000
0110
0000
0000
1010
0000
0000
0000
0000
0000
0000
0000
,
0001
1000
0001
1000
0000
0000
0000
0000
0000
0000
0100
0010
0000
0010
0100
0000
,
0010
1000
0010
1000
0000
0000
0000
0000
0000
0000
0001
0100
0000
0100
0001
0000
,
1000
0100
1000
0100
0000
0000
0000
0000
0000
0000
0010
0001
0000
0001
0010
0000
,
0200
0000
2300
0000
3010
0120
0000
0000
,
1030
0100
1000
0010
0000
0000
0000
0000
0000
0000
0100
0010
0000
0010
1000
0000
,
0001
0100
0001
0010
0000
0000
0000
0000
0000
0000
0100
1000
0000
1000
0001
0000
,
0100
0010
0100
0001
0000
0000
0000
0000
0000
1000
0010
0000
0100
0000
0001
0000
,
0002
0000
0000
0223
0000
0000
0000
0330
,
0010
1000
0010
0100
0001
0010
0001
0000
0100
1000
0000
0010
1000
0000
0001
0000
,
0100
1000
0100
0001
1000
0010
1000
0000
0001
0010
0000
0100
0001
0000
1000
0000
,
0010
0000
0100
0002
0000
0000
0000
0000
0003
0000
1000
0000
0010
0000
0001
0000
,
0200
0000
0000
0310
0000
1000
0001
0100
;

//---------------dance-single - ----------------
#NOTES:
     dance-single:
     :
     Hard:
     9:
     0.624,0.534,0.202,0.444,0.580,369.000,20.000,44.000,0.000,4.000:
0000
0000
0000
0000
,
1000
0100
1000
0001
0010
0100
0010
0000
0001
1000
0000
0100
0010
0000
0010
0000
,
0001
0100
0001
1000
0010
0100
0010
0000
1000
0001
0000
0010
0100
0000
0100
0000
,
1000
0000
0001
0020
0000
0000
0000
0000
0030
0000
1000
0000
0100
0000
0010
0000
,
0002
0000
0000
0103
0000
0010
1000
0100
,
0010
0001
0010
0100
1000
0001
0100
0000
0001
0100
0000
0010
1000
0000
1000
0000
,
0100
0010
0100
1000
0010
0100
0001
0000
0100
0010
0000
1000
0001
0000
0001
0000
,
0100
0000
0010
2000
0000
0000
0000
0000
3000
0000
0010
0000
0100
0000
0001
0000
,
2000
0000
0000
3002
0000
1003
0100
0010
,
2002
0000
0000
0000
3003
0001
0100
0010
,
2000
0000
3001
0200
0000
0310
1000
0001
,
0220
0000
0000
0000
0330
1000
0100
0001
,
0200
0000
1300
0002
0000
1003
0010
1000
,
0001
0010
0000
0100
0000
0000
0001
0000
0100
0001
0000
0100
0000
0000
1000
0000
,
0010
0100
0000
1000
0000
0000
0001
0000
1000
0000
0010
0000
0100
0000
0001
0000
,
0202
0000
0000
0000
0000
1303
0110
1001
,
0000
0000
1100
0000
0000
0110
0000
0000
0011
0000
0000
0000
0000
0000
0000
0000
,
1000
0001
1000
0001
0000
0000
0000
0000
0000
0000
0010
0100
0000
0100
0010
0000
,
0100
0001
0100
0001
0000
0000
0000
0000
0000
0000
1000
0010
0000
0010
1000
0000
,
0001
0010
0001
0010
0000
0000
0000
0000
0000
0000
0100
1000
0000
1000
0100
0000
,
0020
0000
0032
0000
0103
0210
0000
0000
,
0301
0010
0001
0100
0000
0000
0000
0000
0000
0000
0010
0100
0000
0100
0001
0000
,
1000
0010
1000
0100
0000
0000
0000
0000
0000
0000
0010
0001
0000
0001
1000
0000
,
0010
0100
0010
1000
0000
0000
0000
0000
0000
0001
0100
0000
0010
0000
1000
0000
,
2000
0000
0000
3220
0000
0000
0000
0330
,
0001
0010
0001
1000
0100
0010
0100
0000
1000
0001
0000
0010
0100
0000
0100
0000
,
1000
0010
1000
0001
0100
0010
0100
0000
0001
1000
0000
0100
0010
0000
0010
0000
,
0001
0000
1000
0200
0000
0000
0000
0000
0300
0000
0001
0000
0010
0000
0100
0000
,
2000
0000
0000
3010
0000
0100
0001
0010
,
0100
1000
0100
0010
0001
1000
0010
0000
1000
0010
0000
0100
0001
0000
0001
0000
,
0010
0100
0010
0001
0100
0010
1000
0000
0010
0100
0000
0001
1000
0000
1000
0000
,
0010
0000
0100
0002
0000
0000
0000
0000
0003
0000
0100
0000
0010
0000
1000
0000
,
0002
0000
0000
2003
0000
3001
0010
0100
,
2002
0000
0000
0000
3003
1000
0010
0100
,
0002
0000
1003
0020
0000
0130
0001
1000
,
0220
0000
0000
0000
0330
0001
0010
1000
,
0020
0000
0031
2000
0000
3001
0100
0001
,
1000
0100
0000
0010
0000
0000
1000
0000
0010
1000
0000
0010
0000
0000
0001
0000
,
0100
0010
0000
0001
0000
0000
1000
0000
0001
0000
0100
0000
0010
0000
1000
0000
,
2020
0000
0000
0000
0000
3130
1001
0110
,
0000
0000
0101
0000
0000
0110
0000
0000
1010
0000
0000
0000
0000
0000
0000
0000
,
0001
1000
0001
1000
0000
0000
0000
0000
0000
0000
0100
0010
0000
0010
0100
0000
,
0010
1000
0010
1000
0000
0000
0000
0000
0000
0000
0001
0100
0000
0100
0001
0000
,
1000
0100
1000
0100
0000
0000
0000
0000
0000
0000
0010
0001
0000
0001
0010
0000
,
0200
0000
2300
0000
3010
0120
0000
0000
,
1030
0100
1000
0010
0000
0000
0000
0000
0000
0000
0100
0010
0000
0010
1000
0000
,
0001
0100
0001
0010
0000
0000
0000
0000
0000
0000
0100
1000
0000
1000
0001
0000
,
0100
0010
0100
0001
0000
0000
0000
0000
0000
1000
0010
0000
0100
0000
0001
0000
,
0002
0000
0000
0223
0000
0000
0000
0330
,
0010
0001
0010
0100
1000
0010
1000
0000
0100
0010
0000
0100
1000
0000
0001
0000
,
1000
0100
1000
0010
0100
0001
0100
0000
0010
1000
0000
0100
0001
0000
1000
0000
,
0010
0000
0100
0002
0000
0000
0000
0000
0003
0000
0100
0000
0010
0000
1000
0000
,
0020
0000
0000
1030
0000
0001
0100
0010
;

//---------------dance-single - ----------------
#NOTES:
     dance-single:
     :
     Medium:
     7:
     0.492,0.427,0.161,0.444,0.207,281.000,16.000,44.000,0.000,4.000:
0000
0000
0000
0000
,
1000
0000
1000
0001
0001
0001
0100
0100
,
0010
0000
1000
0001
0001
0001
0010
0010
,
0100
0000
1000
0020
0000
0000
0000
0000
0030
0000
1000
0000
0100
0000
0010
0000
,
0002
0000
0000
0103
0000
0010
1000
0010
,
0100
0000
0100
0001
0001
0001
0010
0010
,
0100
0000
0010
0001
0001
0001
0100
0100
,
0001
0000
0010
0200
0000
0000
0000
0000
0300
0000
0100
0000
0010
0000
0001
0000
,
2000
0000
0000
3002
0000
0013
0100
0010
,
2002
0000
0000
0000
3003
0001
0100
0010
,
2000
0000
3001
0200
0000
0310
1000
0001
,
0220
0000
0000
0000
0330
1000
0100
0010
,
0200
0000
1300
0002
0000
1003
0010
1000
,
0001
0000
0000
0100
0000
0000
0001
0000
0000
0001
0000
0100
0000
0000
1000
0000
,
0000
0100
0000
1000
0000
0000
0001
0000
1000
0000
0010
0000
0100
0000
0001
0000
,
0202
0000
0000
0000
0000
1303
0010
0001
,
0000
0000
1100
0000
0000
0110
0000
0000
0011
0000
0000
0000
0000
0000
0000
0000
,
1000
0000
1000
0001
0000
0000
0000
0000
0000
0000
0010
0000
0000
0100
0000
0000
,
0100
0000
0100
0001
0000
0000
0000
0000
0000
0000
1000
0000
0000
0010
0000
0000
,
0001
0000
0001
0010
0000
0000
0000
0000
0000
0000
0100
0000
0000
1000
0000
0000
,
0020
0000
0032
0000
0103
0210
0000
0000
,
0301
0000
0001
0100
0000
0000
0000
0000
0000
0000
0010
0000
0000
0100
0000
0000
,
1000
0000
1000
0010
0000
0000
0000
0000
0000
0000
0010
0000
0000
0001
0000
0000
,
0010
0000
0010
0100
0000
0000
0000
0000
0000
0001
0100
0000
0010
0000
1000
0000
,
2000
0000
0000
3220
0000
0000
0000
0330
,
0001
0000
0001
1000
1000
1000
0010
0010
,
0100
0000
0001
1000
1000
1000
0100
0100
,
0010
0000
0001
0200
0000
0000
0000
0000
0300
0000
0001
0000
0010
0000
0100
0000
,
2000
0000
0000
3010
0000
0100
0001
0100
,
0010
0000
0010
1000
1000
1000
0100
0100
,
0010
0000
0100
1000
1000
1000
0010
0010
,
1000
0000
0100
0020
0000
0000
0000
0000
0030
0000
0010
0000
0100
0000
1000
0000
,
0002
0000
0000
2003
0000
3100
0010
0100
,
2002
0000
0000
0000
3003
1000
0010
0100
,
0002
0000
1003
0020
0000
0130
0001
1000
,
0220
0000
0000
0000
0330
0001
0010
0100
,
0020
0000
0031
2000
0000
3001
0100
0001
,
1000
0000
0000
0010
0000
0000
1000
0000
0000
1000
0000
0010
0000
0000
0001
0000
,
0000
0010
0000
0001
0000
0000
1000
0000
0001
0000
0100
0000
0010
0000
1000
0000
,
2020
0000
0000
0000
0000
3031
0100
1000
,
0000
0000
0011
0000
0000
0110
0000
0000
1100
0000
0000
0000
0000
0000
0000
0000
,
0001
0000
0001
1000
0000
0000
0000
0000
0000
0000
0100
0000
0000
0010
0000
0000
,
0010
0000
0010
1000
0000
0000
0000
0000
0000
0000
0001
0000
0000
0100
0000
0000
,
1000
0000
1000
0100
0000
0000
0000
0000
0000
0000
0010
0000
0000
0001
0000
0000
,
0200
0000
2300
0000
3010
0120
0000
0000
,
1030
0000
1000
0010
0000
0000
0000
0000
0000
0000
0100
0000
0000
0010
0000
0000
,
0001
0000
0001
0100
0000
0000
0000
0000
0000
0000
0100
0000
0000
1000
0000
0000
,
0100
0000
0100
0010
0000
0000
0000
0000
0000
1000
0010
0000
0100
0000
0001
0000
,
0002
0000
0000
0223
0000
0000
0000
0330
,
0001
0000
1000
0100
0100
0100
0010
0010
,
0001
0000
1000
0010
0010
0010
0100
0100
,
0001
0000
1000
0020
0000
0000
0000
0000
0030
0000
0100
0000
0001
0000
1000
0000
,
0020
0000
0000
1030
0000
0010
0100
0001
;

//---------------dance-single - ----------------
#NOTES:
     dance-single:
     :
     Easy:
     5:
     0.404,0.427,0.333,0.444,0.207,203.000,33.000,44.000,0.000,4.000:
0000
0000
0000
0000
,
1000
1000
1001
0011
,
0001
0001
1001
0101
,
0100
0000
0000
0020
0000
0000
0000
0000
0030
0000
0000
0000
0100
0000
0000
0000
,
0002
0000
0000
0103
0000
0110
0000
0000
,
1000
0100
0110
1010
,
0010
0001
0110
1100
,
1000
0000
0000
0200
0000
0000
0000
0000
0300
0000
0000
0000
0010
0000
0000
0000
,
2000
0000
0000
3002
0000
1003
1000
1000
,
2002
0000
0000
0000
3003
0001
0001
0001
,
2000
0000
3100
0200
0000
0310
0010
0010
,
0220
0000
0000
0000
0330
1000
1000
0100
,
0200
0000
1300
0002
0000
1003
0000
1000
,
0001
0000
0000
0100
0000
0000
0000
0000
0000
0001
0000
0100
0000
0000
0000
0000
,
0000
0010
0000
1000
0000
0000
0001
0000
0000
0000
1010
0000
0000
0000
0001
0000
,
0202
0000
0000
0000
0000
1303
0000
0001
,
0000
0000
1000
0000
0000
0100
0000
0000
0010
0000
0000
0000
0000
0000
0000
0000
,
0001
0000
0000
1000
0000
0000
0000
0000
0000
0000
0010
0000
0000
0100
0000
0000
,
0100
0000
0000
0001
0000
0000
0000
0000
0000
0000
1000
0000
0000
0010
0000
0000
,
0001
0000
0000
0010
0000
0000
0000
0000
0000
0000
0100
0000
0000
1000
0000
0000
,
0020
0000
0032
0000
0103
0200
0000
0000
,
0301
0000
0000
0100
0000
0000
0000
0000
0000
0000
0010
0000
0000
0100
0000
0000
,
1000
0000
0000
0010
0000
0000
0000
0000
0000
0000
0010
0000
0000
0001
0000
0000
,
0010
0000
0000
0100
0000
0000
0000
0000
0000
0001
0000
0000
0000
0000
1000
0000
,
2000
0000
0000
3220
0000
0000
0000
0330
,
0001
0001
1001
1100
,
1000
1000
1001
1010
,
0010
0000
0000
0200
0000
0000
0000
0000
0300
0000
0000
0000
0010
0000
0000
0000
,
2000
0000
0000
3010
0000
0110
0000
0000
,
0001
0010
0110
0101
,
0100
1000
0110
0011
,
0001
0000
0000
0020
0000
0000
0000
0000
0030
0000
0000
0000
0100
0000
0000
0000
,
0002
0000
0000
2003
0000
3001
0001
0001
,
2002
0000
0000
0000
3003
1000
1000
1000
,
0002
0000
0013
0020
0000
0130
0100
0100
,
0220
0000
0000
0000
0330
0001
0001
0010
,
0020
0000
0031
2000
0000
3001
0000
0001
,
1000
0000
0000
0010
0000
0000
0000
0000
0000
1000
0000
0010
0000
0000
0000
0000
,
0000
0100
0000
0001
0000
0000
1000
0000
0000
0000
0101
0000
0000
0000
1000
0000
,
2020
0000
0000
0000
0000
3031
0000
1000
,
0000
0000
0001
0000
0000
0010
0000
0000
0100
0000
0000
0000
0000
0000
0000
0000
,
1000
0000
0000
0001
0000
0000
0000
0000
0000
0000
0100
0000
0000
0010
0000
0000
,
0010
0000
0000
1000
0000
0000
0000
0000
0000
0000
0001
0000
0000
0100
0000
0000
,
1000
0000
0000
0100
0000
0000
0000
0000
0000
0000
0010
0000
0000
0001
0000
0000
,
0200
0000
2300
0000
3010
0020
0000
0000
,
1030
0000
0000
0010
0000
0000
0000
0000
0000
0000
0100
0000
0000
0010
0000
0000
,
0001
0000
0000
0100
0000
0000
0000
0000
0000
0000
0100
0000
0000
1000
0000
0000
,
0100
0000
0000
0010
0000
0000
0000
0000
0000
1000
0000
0000
0000
0000
0001
0000
,
0002
0000
0000
0223
0000
0000
0000
0330
,
0001
1000
0110
1001
,
0010
0100
1010
0011
,
0001
0000
0000
0020
0000
0000
0000
0000
0030
0000
0000
0000
0001
0000
0000
0000
,
0200
0000
0000
1300
0000
0010
0000
1001
;
