#TITLE:Final Battle With Sigma;
#SUBTITLE:- Final Battle;
#ARTIST:Unknown artist;
#TITLETRANSLIT:;
#SUBTITLETRANSLIT:;
#ARTISTTRANSLIT:;
#CREDIT:;
#BANNER:;
#BACKGROUND:;
#LYRICSPATH:;
#CDTITLE:;
#MUSIC:Megaman X4 - Final Battle.mp3;
#OFFSET:0.000;
#SAMPLESTART:100.000;
#SAMPLELENGTH:12.000;
#SELECTABLE:YES;
#BPMS:0.000=173.000;
#STOPS:;
#BGCHANGES:;
// cache tags:
#FIRSTBEAT:0.000;
#LASTBEAT:406.750;
#SONGFILENAME:Songs/zelda et megaman/Megaman X4 - Final Battle/Megaman X4 - Final Battle.sm;
#HASMUSIC:1;
#HASBANNER:0;
#MUSICLENGTH:140.944;
// end cache tags

//---------------dance-single - ----------------
#NOTES:
     dance-single:
     :
     Challenge:
     15:
     1.000,1.000,0.163,1.000,1.000,1695.000,23.000,546.000,0.000,0.000:
1000
0100
0010
0001
0010
0001
0100
1000
0010
0001
1010
0100
0001
1000
0010
0001
,
0100
1000
0001
0010
0100
1000
1000
0100
0010
0001
0001
0010
1000
0100
0010
0001
,
0001
0001
0001
0010
0010
0010
0010
0100
0100
0100
0100
1000
1000
1000
1000
0100
,
0100
0001
0010
0100
1000
0001
0010
0100
1001
0010
0100
1000
0001
0010
0100
1000
0001
0010
0100
1000
0001
0010
0100
1000
,
0001
0000
0010
0000
0100
0000
2000
3000
0000
0200
0300
0000
0002
0003
0000
0020
0030
0000
2000
3000
0000
0200
0300
0000
0020
0030
0000
0002
0003
0000
2000
3000
0000
0200
0300
0000
0020
0030
0000
0002
0003
0000
0002
0003
0000
0020
0030
0000
,
2000
3000
0000
0200
0300
0000
0020
0030
0000
2000
3000
0000
0200
0300
0000
0020
0030
0000
0002
0003
0000
0002
0003
0000
0020
0030
0000
0200
0300
0000
2000
3000
0000
0002
0003
0000
0020
0030
0000
0200
0300
0000
2000
3000
0000
2000
3000
0000
,
0200
0300
0000
0020
0030
0000
0002
0003
0000
0002
0003
0000
0020
0030
0000
0200
0300
0000
2000
3000
0000
0020
0030
0000
0200
0300
0000
0002
0003
0000
2000
3000
0000
2000
3000
0000
0200
0300
0000
0020
0030
0000
0002
0003
0000
0002
0003
0000
,
2000
3000
0000
0200
0300
0000
0020
0030
0000
0002
0003
0000
0000
0000
0000
2002
0000
0000
0000
0000
0000
0000
0000
0000
0000
0000
0000
0000
0000
0000
0000
0000
0000
0000
0000
0000
0000
0000
0000
0000
0000
0000
0000
0000
0000
0000
0000
0000
,
0000
0000
0000
0000
0000
0000
0000
0000
0000
3003
0000
0000
0000
0000
0000
2000
3000
0000
0200
0300
0000
0200
0300
0000
0020
0030
0000
0002
0003
0000
0002
0003
0000
0020
0030
0000
0200
0300
0000
2000
3000
0000
2000
3000
0000
0002
0003
0000
,
2000
3000
0000
0002
0003
0000
2000
3000
0000
0002
0003
0000
2000
3000
0000
0002
0003
0000
2000
3000
0000
0002
0003
0000
2000
3000
0000
0002
0003
0000
2000
3000
0000
0200
0300
0000
0020
0030
0000
0200
0300
0000
0020
0030
0000
0200
0300
0000
,
0020
0030
0000
0200
0300
0000
0020
0030
0000
0200
0300
0000
0020
0030
0000
0200
0300
0000
0020
0030
0000
0200
0300
0000
0020
0030
0000
0200
0300
0000
0020
0030
0000
0002
0003
0000
2000
3000
0000
0002
0003
0000
2000
3000
0000
0002
0003
0000
,
2000
3000
0000
0002
0003
0000
2000
3000
0000
0002
0003
0000
2000
3000
0000
0002
0003
0000
2002
0000
0000
0000
0000
0000
0000
0000
0000
0000
0000
0000
0000
0000
0000
0000
0000
0000
0000
0000
0000
0000
0000
0000
0000
0000
0000
0000
0000
0000
,
0000
0000
0000
0000
0000
3003
0010
0100
1000
0001
0010
0100
1000
1000
0100
0010
,
0001
1000
0100
0010
0001
0001
0010
0100
1000
0001
0010
0100
1000
1000
0100
0010
,
0001
0001
0010
0100
1000
1000
0100
0010
0001
0001
0010
0100
1000
1000
0100
0010
,
0001
0000
0000
0001
0000
0000
0010
0000
0000
0100
0000
0000
1000
0000
0000
1000
0000
0000
0100
0000
0000
0010
0000
0000
0001
0000
0010
0000
0100
0000
1000
0000
0001
0000
0010
0000
0100
0000
1000
0000
0001
0000
0010
0000
0100
0000
1000
0000
,
0001
0000
0010
0000
0100
0000
1000
0000
0010
0000
0001
0000
0010
0000
0100
0000
1000
0000
1000
0000
0100
0000
0010
0000
0001
0000
0010
0000
0100
0000
1000
0000
0000
0100
0000
0000
0010
0000
0000
0001
0000
0000
0001
0000
0000
0010
0000
0000
,
0100
1000
0001
0010
0100
1000
1000
0001
1000
0001
0100
0010
0100
0100
0001
0010
,
0001
1000
0100
1000
0010
0100
0010
0001
0010
0001
0010
1000
0100
0010
0001
0001
,
0010
0000
0000
0001
0000
0000
0010
0000
0000
0001
0000
0000
1000
0000
0000
0100
0000
0000
0010
0000
0000
0001
0000
0000
0001
0000
0000
0010
0000
0000
0100
0000
0000
1000
0000
0000
0001
0000
0010
0000
0100
0000
1000
0000
0001
0000
0010
0000
,
0100
0000
1000
0000
0001
0000
0010
0000
0100
0000
1000
0000
0001
0000
0010
0000
0100
0000
1000
0000
0001
0000
0010
0000
0100
0000
1000
0000
0001
0000
0010
0000
0100
0000
1000
0000
1000
0000
0000
0100
0000
0000
0010
0000
0000
0001
0000
0000
,
1000
0100
0010
0001
0001
0010
0100
1000
0001
0010
0100
1000
0001
0010
0100
1000
,
1000
0100
0010
0001
0001
0010
0100
1000
0100
0010
0001
0001
0010
0100
1000
1000
,
0100
0010
0001
0001
0010
0100
1000
1000
0100
0010
0001
0010
1000
0100
0001
0010
,
1000
0100
1000
0100
0010
0100
0001
0010
0001
1000
0100
1000
0010
0100
0010
0001
,
0010
0100
1000
0100
0010
0001
0001
0010
0100
0010
0001
0010
0100
0010
0100
1000
,
0100
1000
0100
0001
0010
0100
1000
0100
0010
0001
0001
0001
0010
0010
0100
0100
,
1000
0000
0000
1000
0000
0000
0100
0000
0000
0010
0000
0000
0001
0000
0000
0010
0000
0000
0001
0000
0000
0010
0000
0000
0001
0000
0000
0100
0000
0000
1000
0000
0000
0100
0000
0000
1000
0000
0000
0100
0000
0000
0010
0000
0001
0000
0010
0000
,
0100
0000
1000
0000
0001
0000
0010
0000
0100
0000
1000
0000
0001
0000
0010
0000
0100
0000
1000
0000
1000
0000
0100
0000
0010
0000
0001
0000
0001
0000
0010
0000
0100
0000
1000
0000
0001
0000
0010
0000
0100
0000
1000
0000
0000
1000
0000
0000
,
0100
0010
0001
0001
0010
0100
1000
1000
0100
0010
0001
0001
0001
0010
0010
0100
,
0100
0011
1100
0011
1001
0110
1000
0100
0010
0001
0001
0010
0100
0100
1000
0100
,
0010
0001
0001
0010
0100
1000
0110
0001
1001
0100
0011
1000
0110
0001
1000
0100
,
0010
2002
0000
0000
0000
0000
0000
0000
0000
0000
0000
0000
0000
0000
0000
0000
,
0000
3003
0001
0010
0100
1000
1000
0100
0010
0010
0001
0001
0001
0010
0100
1000
,
1000
0100
0010
0001
0001
0010
0100
1000
1000
0100
0011
0001
0010
0100
1000
0100
,
0010
0001
0001
0010
0100
1000
1000
0100
0010
0001
0001
0010
0001
0010
0001
0010
,
0001
0000
0000
0010
0000
0000
0001
0000
0000
0010
0000
0000
0001
0000
0010
0000
0100
0000
1000
0000
0001
0000
0010
0000
0100
0000
1000
0000
1000
0000
0100
0000
0010
0000
0001
0000
1000
0000
0100
0000
0010
0000
0001
0000
1000
0000
0100
0000
,
0010
0000
0001
0000
1000
0000
0100
0000
0010
0001
0000
0000
0010
0000
0000
0100
0000
0000
1000
0000
0000
0100
0000
0000
0010
0000
0000
0001
0000
0000
0001
0000
0000
0010
0000
0000
0001
0000
0000
0010
0000
0000
0100
0000
0000
1000
0000
0000
,
0100
1000
0100
0010
0100
0010
0001
0010
0001
0100
0010
0100
1000
0100
1000
1100
,
0100
0010
0001
0001
0010
0100
1000
0100
0010
0001
0001
0001
0010
0010
0010
1000
,
0100
0000
0000
0010
0000
0000
0001
0000
0000
0001
0000
0000
0010
0000
0000
0100
0000
0000
1000
0000
0000
1000
0000
0000
1000
0000
0100
0000
0010
0000
0001
0000
0001
0000
0010
0000
0100
0000
1000
0000
1000
0000
0100
0000
0001
0000
0010
0000
,
0001
0000
1000
0000
0100
0000
0010
0000
0001
0000
0010
0000
0100
0000
1000
0000
1000
0000
0100
0000
0010
0001
0000
0000
0010
0000
0000
0100
0000
0000
1000
0000
0000
1000
0000
0000
0100
0000
0000
0010
0000
0000
0001
0000
0000
0001
0000
0000
,
0010
1000
0100
0001
1000
0100
0010
0001
1000
0100
0010
0010
0001
0001
1000
0100
,
0100
1000
0100
0010
0001
0000
0100
0010
1000
0100
0010
0001
1000
0100
0010
0001
,
0001
0000
0000
0010
0000
0000
1000
0000
0000
1000
0000
0000
0100
0000
0000
0010
0000
0000
0001
0000
0000
1000
0000
0000
0100
0000
0000
0010
0001
0000
0010
0000
0100
0000
1000
0000
1000
0000
0100
0000
0010
0000
0001
0000
0001
0000
1000
0000
,
0001
0000
1000
0000
0001
0000
1000
0000
0001
0000
1000
0000
0100
0000
0010
0000
0100
0000
0010
0000
1000
0000
0001
0000
1000
0000
0100
0000
1001
0000
0001
0000
0000
0010
0000
0000
0100
0000
0000
1000
0000
0000
1000
0000
0000
0100
0000
0000
,
0010
0001
0001
0010
0100
1000
1000
0100
0010
0001
0001
0010
0100
1000
1000
0100
,
0010
0001
0001
0010
0100
1000
1000
0100
0010
0001
0001
0010
0100
1000
0001
0010
,
0100
1000
0001
0010
0100
1001
0010
0100
1000
0001
0010
0100
1000
0001
0010
0100
,
1000
0001
0010
0100
1000
0001
0010
0100
1000
0001
0010
0100
1000
0001
0010
0100
,
1000
1000
0100
0010
0001
0001
0010
0100
1000
1000
0100
0010
0000
0001
0001
0010
,
0100
1000
1000
0100
0010
0001
0001
0010
0100
1000
1000
0100
0010
0001
0001
0010
,
0100
0000
0000
1000
0000
0000
0100
0000
0000
0010
0000
0000
1001
0000
0000
0001
0000
0000
0010
0000
0000
0100
0000
0000
1001
0000
0000
0001
0000
0000
0010
0000
0000
0100
0000
0000
1000
0000
0000
1000
0000
0000
0100
0000
0001
0000
1000
0000
,
0001
0000
1000
0000
0001
0000
1000
0000
0001
0000
1000
0000
0001
0000
1000
0000
0001
0000
1000
0000
0001
0000
1000
0000
0001
0000
1000
0000
0001
0000
1000
0000
0001
0000
1000
0000
0001
0000
1000
0000
0001
0000
0001
0000
0000
0010
0000
0000
,
0100
1000
0001
0010
0100
1000
0001
0010
0100
1000
0001
0010
0100
1000
0001
0010
,
0100
1000
0001
0010
0100
1000
0001
0010
0100
1000
0001
0010
0100
1000
0001
0010
,
0100
1000
0001
0010
0100
1000
0001
0010
0100
1000
0001
0010
0100
1000
0001
0010
,
0100
0000
0001
0000
0010
0000
0100
0000
1000
0000
0001
0000
0010
0000
0100
0000
1000
0000
0001
0000
0010
0000
0100
0000
1000
0000
0001
0000
0010
0000
0100
0000
1000
0000
0001
0000
0010
0000
0100
0000
1000
0000
0001
0000
0010
1000
0000
0000
,
0100
0010
0001
1000
0100
0010
0001
1000
0100
0010
0001
1000
0100
0010
0001
1000
,
0100
0010
0001
1000
0100
0010
0001
1000
0100
0010
0001
1000
0100
0010
0001
1000
,
0100
0010
0001
1000
0100
0010
0001
1000
0100
0010
0001
1000
0100
0010
0001
1000
,
0100
0000
0000
0010
0000
0000
0001
0000
0100
0000
0010
0000
0100
0000
0010
0000
0100
0000
0010
0000
0100
0000
0010
0000
0100
0000
0010
0000
0100
0000
0010
0000
0100
0000
0010
0000
0100
0000
0010
0000
0100
0000
0010
0000
0100
0000
0010
0000
,
0100
0000
0010
0000
0100
0000
0001
0000
0000
0010
0000
0000
0100
0000
0000
1000
0000
0000
0001
0000
0000
0010
0000
0000
0100
0000
0000
1000
0000
0000
0001
0000
0000
0010
0000
0000
0100
0000
0000
1000
0000
0000
0001
0000
0000
0010
0000
0000
,
0100
1000
0001
0010
0100
1000
0001
0010
0100
1000
0001
0010
0100
1000
0001
0010
,
0100
1000
0001
0010
0100
1000
0001
0010
0100
1000
0001
0010
0100
1000
0001
0010
,
0100
0000
0000
1000
0000
0000
0001
0000
0000
0010
0000
0000
0100
0000
0001
0000
1000
0000
0001
0000
1000
0000
0001
0000
1000
0000
0001
0000
0100
0000
0010
0000
0100
0000
0010
0000
1000
0000
0001
0000
0100
0000
0010
0000
1000
0000
0001
0000
,
0001
0000
0010
0000
0100
0000
1000
0000
1000
0000
0100
0000
0010
0000
0001
0000
0001
0000
0001
0000
0000
0010
0000
0000
0100
0000
0000
1000
0000
0000
0001
0000
0000
0010
0000
0000
0100
0000
0000
1000
0000
0000
1000
0000
0000
0100
0000
0000
,
0010
0001
1000
0100
0010
0001
0001
0010
0100
1000
0001
0010
0100
1000
0001
0010
,
1000
0100
1000
0100
0010
0001
1000
0100
0001
0010
1000
0100
0001
0010
0001
0010
,
1000
0000
0000
0100
0000
0000
0001
0000
0000
0010
0000
0000
1000
0000
0000
0100
0000
0000
0010
0000
0001
0000
0010
0000
0100
0000
1000
0000
0001
0000
0010
0000
0100
0000
1000
0000
0001
0000
0010
0000
0100
0000
1000
0000
0001
0000
0010
0000
,
0100
0000
1000
0000
0002
0000
0023
0000
0230
0000
0300
0000
2000
0000
3000
0000
0002
0000
0023
0000
0230
0000
0300
0000
1000
0000
0000
0100
0000
0000
0010
0000
0000
0001
0000
0000
0001
0000
0000
0010
0000
0000
0100
0000
0000
1000
0000
0000
,
0001
0010
0100
1000
0001
0010
1000
0100
0001
0010
1000
0100
0001
0010
0100
1000
,
0001
0010
0100
1000
0001
0010
0100
1000
0001
0010
0100
1000
0001
0010
0100
1000
,
0001
0010
0100
1000
0001
0010
0100
1000
0001
0010
0100
1000
0001
0010
1000
0100
,
1000
0100
0001
0010
1000
0100
0001
0010
0010
0100
1000
0001
0020
0032
0023
0230
,
2300
3002
0023
0230
2300
3002
0023
0230
2300
3002
0023
0230
2300
3002
0023
0230
,
2300
3002
0023
0230
0300
2000
3002
0023
0230
2300
3002
0023
0230
2300
3002
0023
,
0230
2300
3002
0023
0230
2300
3000
0002
0023
0230
2300
3000
0002
0023
0230
0300
,
2000
0000
3002
0000
0003
0000
2000
0000
3200
0000
0320
0000
0032
0000
0003
0000
0002
0000
0023
0000
0230
0000
2300
0000
3002
0000
0023
0000
0230
0000
2300
0000
3002
0000
0003
0000
2000
0000
0000
3200
0000
0000
0320
0000
0000
0032
0000
0000
,
0023
0230
2300
3000
0200
0320
0032
0023
0230
2300
3200
0320
0032
0023
0230
2300
,
3000
2000
3200
0320
0032
0023
0230
2300
3002
0023
0230
2300
3000
0002
0023
0230
,
2300
0000
0000
3000
0000
0000
0002
0000
0000
0023
0000
0000
0230
0000
0000
2300
0000
0000
3002
0000
0000
0023
0000
0000
0230
0000
0000
2300
0000
0000
3002
0000
0000
0023
0000
0000
0230
0000
0000
2300
0000
0000
3200
0000
0000
0300
0002
0000
,
0023
0000
0230
0000
2300
0000
3002
0000
0023
0000
0230
0000
2300
0000
3002
0000
0023
0000
0230
0000
2300
0000
3002
0000
0023
0000
0230
0000
2300
0000
3002
0000
0023
0000
0230
0000
2300
0000
3002
0000
0023
0000
0230
0000
0000
2300
0000
0000
,
3200
0320
0032
0023
0230
2300
3002
0023
0230
2300
3002
0023
0230
2300
3002
0023
,
0230
2300
3002
0023
0230
2300
3002
0023
0230
2300
3002
0023
0230
2300
3002
0023
,
0230
2300
3002
0023
0230
2300
3002
0023
0230
2300
3002
0023
0230
2300
3002
0023
,
0230
0000
0000
0300
0002
0000
0023
0000
0230
0000
2300
0000
3002
0000
0023
0000
0230
0000
2300
0000
3002
0000
0023
0000
0230
0000
2300
0000
3002
0000
0023
0000
0230
0000
2300
0000
3002
0000
0023
0000
0230
0000
2300
0000
3002
0000
0023
0000
,
0230
0000
2300
0000
3002
0000
0003
0000
0000
0002
0000
0000
0023
0000
0000
0230
0000
0000
0300
0000
0000
2000
0000
0000
3002
0000
0000
0023
0000
0000
0230
0000
0000
2300
0000
0000
3002
0000
0000
0023
0000
0000
0230
0000
0000
2300
0000
0000
,
3002
0023
0230
2300
3002
0023
0230
2300
3002
0023
0230
2300
3002
0023
0230
2300
,
3002
0023
0230
2300
3002
0023
0230
2300
3002
0023
0230
2300
3002
0023
0230
2300
,
3000
0000
0000
0002
0000
0000
0023
0000
0000
0030
0000
0000
0002
0000
0023
0000
0230
0000
2300
0000
3002
0000
0023
0000
0230
0000
2300
0000
3002
0000
0023
0000
0230
0000
2300
0000
3002
0000
0023
0000
0230
0000
2300
0000
3002
0000
0023
0000
,
0230
0000
2300
0000
3000
0000
0002
0000
0023
0000
0030
0000
0200
0000
0000
2300
0000
0000
3002
0000
0000
0023
0000
0000
0230
0000
0000
2300
0000
0000
3002
0000
0000
0023
0000
0000
0230
0000
0000
2300
0000
0000
3002
0000
0000
0023
0000
0000
,
0230
2300
3002
0023
0230
2300
3002
0023
0230
2300
3002
0023
0230
2300
3002
0023
,
0230
2300
3002
0023
0230
2300
3002
0023
0230
2300
3002
0023
0230
2300
3002
0023
,
0230
0000
0000
2300
0000
0000
3002
0000
0000
0023
0000
0000
0230
0000
0000
0300
0002
0000
0023
0000
0230
0000
2300
0000
3002
0000
0023
0000
0230
0000
2300
0000
3002
0000
0023
0000
0230
0000
2300
0000
3002
0000
0023
0000
0230
0000
2300
0000
,
3002
0000
0023
0000
0230
0000
2300
0000
3002
0000
0023
0000
0230
0000
2300
0000
3000
0000
0002
0000
0000
0023
0000
0000
0230
0000
0000
2300
0000
0000
3002
0000
0000
0023
0000
0000
0230
0000
0000
2300
0000
0000
3002
0000
0000
0023
0000
0000
,
0230
2300
3002
0023
0230
2300
3002
0023
0230
2300
3002
0023
0230
2300
3002
0023
,
0230
2300
3002
0023
0230
2300
3200
0320
0032
0023
0230
2300
3002
0023
0230
2300
,
3002
0023
0230
2300
3020
0032
0203
2300
3200
2300
3020
0032
0023
0032
0203
2300
,
3020
0032
0023
0032
0023
0032
0023
0032
0203
0320
0230
0320
0230
2300
3200
2300
,
3200
0320
0032
0023
0230
2300
3002
0023
0230
2300
3001
0010
0200
0300
1000
0001
,
0010
0100
1000
0001
1001
0100
0010
1001
0100
0010
1001
0100
0000
0000
0000
0000
;
