#TITLE:Pikkon's Theme;
#SUBTITLE:;
#ARTIST:Bruce Faulconer;
#TITLETRANSLIT:;
#SUBTITLETRANSLIT:;
#ARTISTTRANSLIT:;
#CREDIT:;
#BANNER:../Jawn - ban.png;
#BACKGROUND:../Jawn - bg.png;
#LYRICSPATH:;
#CDTITLE:;
#MUSIC:Pikkon's Theme.ogg;
#OFFSET:0.010;
#SAMPLESTART:41.678;
#SAMPLELENGTH:12.000;
#SELECTABLE:YES;
#BPMS:0.000=240.000;
#STOPS:;
#BGCHANGES:;
// cache tags:
#FIRSTBEAT:12.000;
#LASTBEAT:524.000;
#SONGFILENAME:Songs/Jimmy Jawns/Pikkon's Theme - [Aoreo]/Pikkon's Theme.sm;
#HASMUSIC:1;
#HASBANNER:1;
#MUSICLENGTH:131.000;
// end cache tags

//---------------dance-single - J. Nero----------------
#NOTES:
     dance-single:
     J. Nero:
     Challenge:
     20:
     1.000,1.000,0.160,0.229,1.000,1317.000,21.000,30.000,1.000,0.000:
0000
0000
0000
0000
,
0000
0000
0000
0000
,
0000
0000
0000
0000
,
0001
0100
0000
0001
0000
0010
0100
0000
,
0000
1000
0010
0100
,
0001
0010
0100
0000
1000
0010
0100
0000
,
0001
0100
0000
0001
0000
1000
0100
0000
,
0000
0000
0010
0000
0001
0000
0100
0001
,
1000
0100
1000
0001
0010
0100
1000
0000
,
0001
0100
0000
0001
0000
0010
0100
0000
,
0000
1000
0100
1000
,
0001
0100
0010
0000
0200
0000
0300
0000
,
0001
0010
0000
0100
0000
1000
0001
0000
,
0000
0000
0100
0000
0001
0000
0010
0100
,
1000
0000
0001
0100
0001
0010
0100
0000
,
1000
0001
0000
0100
0000
0001
0010
0000
,
0000
0100
1000
0010
,
0100
0001
0010
0000
0100
1000
0001
0000
,
1000
0100
0000
1000
0000
0001
0100
0000
,
0000
0001
0010
0100
,
1000
0001
0100
0001
0010
0100
1000
0000
,
0001
0100
0000
0001
0000
0010
0100
0000
,
0000
1000
0010
0100
,
0001
1000
0001
0000
0010
0100
1000
0000
,
0001
0100
0000
0010
0000
1000
0100
0000
,
0000
0000
0010
0000
0001
0000
1000
0001
,
0100
0001
0010
0000
0100
1000
0001
0000
,
1000
0010
0000
1000
0000
0100
0010
0000
,
0000
0001
0100
0001
,
0010
0100
1000
0000
0002
0000
0003
0000
,
0100
0001
0000
0010
0000
0100
1000
0000
,
0000
0000
0001
0000
0100
0000
0010
1000
,
0100
1000
0001
0100
0001
0010
0100
0000
,
1000
0001
0000
0100
0000
0001
0010
0000
,
0000
0100
1000
0010
,
0100
0001
1000
0000
0001
0010
0100
0000
,
1000
0001
0000
0100
0000
0001
0010
0000
,
0000
0100
1000
0010
,
0100
0001
1000
0001
0010
0100
1000
0001
,
1000
0000
0000
1001
,
0000
0101
0000
0001
,
1001
0000
1001
0000
,
1100
0000
0000
1001
,
0000
0000
0101
0000
0000
0000
0001
0010
,
0100
0000
1000
0001
1000
0000
0001
0100
,
0002
0000
0000
0000
0003
0000
0000
0000
0000
0000
0000
0000
2000
3000
0000
0000
,
0200
0000
0300
0000
0000
0000
0020
0000
0000
0030
0000
0000
0002
0000
0000
0003
0000
0000
0200
0000
0000
0300
0000
0000
,
0202
0303
2002
3003
0000
0000
0000
0000
,
2002
0000
0000
3003
0000
0000
0001
0100
0001
0010
0100
1000
,
0001
0100
0010
1000
0010
0100
0001
1000
0100
0010
0001
1000
,
0002
0000
0000
0003
0000
0000
1000
0001
1000
0100
0010
0001
,
1000
0001
1000
0010
0100
0001
0100
0010
1000
0001
1000
0010
0100
0001
1000
0100
,
0010
0100
1000
0001
1000
0100
0010
0001
1000
0001
0100
0010
0100
0001
1000
0010
,
0100
0010
1000
0001
1000
0010
0100
0010
1000
0001
0100
0001
1000
0100
1000
0001
,
0010
0100
1000
0001
1000
0010
0100
0010
1000
0001
1000
0100
0010
0100
1000
0001
,
1000
0100
0010
0001
1000
0001
0100
0010
0100
0001
1000
0010
0100
0001
0100
0010
,
1000
0001
1000
0100
0010
0001
1000
0001
0010
0100
0010
0001
1000
0001
0100
0010
,
0100
0001
1000
0010
1000
0001
0100
0001
1000
0010
0100
0010
1000
0001
1000
0100
,
0010
0001
1000
0001
0010
0100
1000
0001
1000
0010
0100
0010
1000
0001
1000
0100
,
0010
0001
1000
0001
0010
0100
0010
0001
1000
0001
0100
0010
0100
0001
1000
0001
,
0100
0010
0100
0001
1000
0001
0010
0100
0010
0001
1000
0001
0010
0100
1000
0001
,
0100
0010
1000
0010
0100
0001
0100
0010
1000
0001
1000
0100
0010
0001
1000
0001
,
0010
0100
0010
0001
1000
0001
0100
0010
0100
0001
1000
0010
0100
0010
1000
0001
,
1000
0100
0010
0001
1000
0001
0010
0100
0010
0001
1000
0001
0100
0010
0100
0001
,
1000
0010
0100
0010
1000
0001
1000
0100
0010
0100
1000
0001
1000
0100
0010
0001
,
1000
0001
0100
0010
1000
0001
0100
0010
0100
0001
1000
0001
0010
0100
1000
0001
,
1000
0100
0010
0100
1000
0001
0100
0001
1000
0010
0100
0010
1000
0001
1000
0100
,
0010
0001
0100
0001
1000
0010
0100
0010
1000
0001
1000
0100
0010
0001
0100
0001
,
1000
0010
0100
0010
1000
0001
0010
0100
0010
0001
0100
0001
1000
0010
1000
0001
,
0100
0001
1000
0010
1000
0100
0010
0001
1000
0001
0100
0010
1000
0010
0100
0001
,
1000
0001
1000
0100
0010
0001
0100
0010
0100
0001
1000
0010
0100
0001
1000
0001
,
0010
0100
1000
0010
0100
0001
1000
0001
0100
0010
0100
0001
1000
0100
0010
0001
,
0100
0001
1000
0010
1000
0001
0100
0010
0100
0001
1000
0001
0010
0100
1000
0010
,
1000
0001
0100
0010
0100
0001
1000
0001
0010
0100
1000
0010
1000
0001
0100
0010
,
1000
0001
1000
0010
0100
0001
0010
0100
1000
0001
1000
0010
0100
0010
1000
0001
,
0010
0100
0010
0001
0100
0001
1000
0010
0100
0001
1000
0001
0010
0100
1000
0010
,
1000
0001
0100
0010
0100
0001
1000
0001
0010
0100
1000
0010
1000
0001
0100
0001
,
1000
0010
1000
0001
0100
0010
0100
0001
1000
0001
1000
0100
0010
0001
0100
0001
,
1000
0010
0100
0001
0100
0010
1000
0001
1000
0100
0010
0001
0100
0001
1000
0010
,
0100
0010
1000
0001
0100
0001
1000
0001
0010
0100
1000
0010
1000
0001
0100
0001
,
1000
0100
0010
0100
1000
0001
1000
0010
0100
0010
1000
0001
0010
0100
1000
0010
,
0100
0010
1000
0001
1000
0100
0010
0001
0100
0001
1000
0010
0100
0010
1000
0001
,
1000
0010
0100
0010
1000
0001
0010
0100
0010
0001
1000
0100
0010
0001
0100
0001
,
1000
0000
1001
0000
,
0101
0000
0100
0001
0010
0000
0110
0000
,
0000
0000
0100
0000
1100
0000
1000
0010
,
0100
0000
0001
0010
0100
0000
1000
0010
,
0200
0000
0000
0000
0000
0000
0000
0000
0300
0000
0000
0000
0000
0000
0000
0000
0000
0000
0000
0000
0000
0000
0000
0000
0002
0003
0000
0000
0000
0000
0000
0000
,
0020
0000
0000
0030
0000
0000
0000
0000
0200
0000
0000
0000
0300
0000
0000
0000
2000
0000
0000
0000
3000
0000
0000
0000
0002
0000
0000
0000
0000
0003
0000
0000
,
2002
3003
2020
3030
0000
0000
0000
0000
,
0202
0000
0000
0303
0000
0000
0000
0000
0000
0000
0000
0000
0100
0000
0001
0000
1000
0000
0001
0000
0010
0000
0100
0000
,
1000
0010
0100
0001
1000
0100
0010
0001
1000
0010
0100
0001
,
2000
0000
0000
3000
0000
0000
0000
0000
0000
0000
0000
0000
0001
0000
0100
0000
0001
0000
0010
0000
0100
0000
1000
0000
,
0001
1000
0001
0100
0010
1000
0010
0100
0001
1000
0001
0100
0010
1000
0001
0010
,
0100
0010
0001
1000
0001
0010
0100
1000
0001
1000
0010
0100
0010
1000
0001
0100
,
0010
0100
0001
1000
0001
0100
0010
0100
0001
1000
0010
1000
0001
0010
0001
1000
,
0100
0010
0001
1000
0001
0100
0010
0100
0001
1000
0001
0010
0100
0010
0001
1000
,
0001
0010
0100
1000
0001
1000
0010
0100
0010
1000
0001
0100
0010
1000
0010
0100
,
0001
1000
0001
0010
0100
1000
0001
1000
0100
0010
0100
1000
0001
1000
0010
0100
,
0010
1000
0001
0100
0001
1000
0010
1000
0001
0100
0010
0100
0001
1000
0001
0010
,
0100
1000
0001
1000
0100
0010
0001
1000
0001
0100
0010
0100
0001
1000
0001
0010
,
0100
1000
0001
1000
0100
0010
0100
1000
0001
1000
0010
0100
0010
1000
0001
1000
,
0010
0100
0010
1000
0001
1000
0100
0010
0100
1000
0001
1000
0100
0010
0001
1000
,
0010
0100
0001
0100
0010
1000
0010
0100
0001
1000
0001
0010
0100
1000
0001
1000
,
0100
0010
0100
1000
0001
1000
0010
0100
0010
1000
0001
0100
0010
0100
0001
1000
,
0001
0010
0100
1000
0001
1000
0100
0010
0100
1000
0001
1000
0010
0100
0010
1000
,
0001
0100
0010
0100
0001
1000
0001
0010
0100
0010
0001
1000
0001
0010
0100
1000
,
0001
1000
0010
0100
0001
1000
0010
0100
0010
1000
0001
1000
0100
0010
0001
1000
,
0001
0010
0100
0010
0001
1000
0010
1000
0001
0100
0010
0100
0001
1000
0001
0010
,
0100
1000
0010
1000
0001
0100
0010
0100
0001
1000
0001
0010
0100
1000
0010
1000
,
0001
0100
0010
0100
0001
1000
0100
0010
0100
1000
0010
1000
0001
0100
0001
1000
,
0010
1000
0001
0100
0001
0010
0100
1000
0001
1000
0010
0100
0001
0100
0010
1000
,
0001
1000
0001
0010
0100
1000
0010
0100
0010
1000
0001
0100
0010
1000
0001
1000
,
0100
0010
0001
0100
0010
1000
0001
1000
0010
0100
0010
1000
0001
0010
0100
1000
,
0010
1000
0001
0100
0001
1000
0010
0100
0010
1000
0001
1000
0100
0010
0001
0100
,
0001
1000
0010
0100
0010
1000
0001
1000
0100
0010
0001
0100
0001
1000
0010
0100
,
0001
1000
0001
0100
0010
1000
0100
0010
0001
1000
0001
0100
0010
0100
0001
1000
,
0100
0010
0100
1000
0010
1000
0001
0100
0010
1000
0001
1000
0100
0010
0001
0100
,
0001
1000
0010
0100
0010
1000
0001
1000
0100
0010
0001
0100
0001
1000
0010
1000
,
0001
0100
0001
1000
0010
0100
0010
1000
0001
1000
0001
0010
0100
1000
0010
1000
,
0001
0100
0010
1000
0010
0100
0001
1000
0001
0010
0100
1000
0010
1000
0001
0100
,
0010
0100
0001
1000
0010
1000
0001
1000
0100
0010
0001
0100
0001
1000
0010
1000
,
0001
0010
0100
0010
0001
1000
0001
0100
0010
0100
0001
1000
0100
0010
0001
0100
,
0010
0100
0001
1000
0001
0010
0100
1000
0010
1000
0001
0100
0010
0100
0001
1000
,
0001
0100
0010
0100
0001
1000
0100
0010
0100
1000
0001
0010
0100
1000
0010
1000
,
0002
0003
1001
0000
,
0101
0000
0001
0010
0100
0000
1100
0000
,
0000
0000
1000
0000
1001
0000
0001
0100
,
0010
0000
0100
0001
0010
0000
0100
1000
,
0002
0000
0000
0000
,
0003
0000
0000
0000
,
M000
0000
0000
0000
;
