#TITLE:Spiral Pegasus;
#SUBTITLE:;
#ARTIST:Capcom;
#TITLETRANSLIT:;
#SUBTITLETRANSLIT:;
#ARTISTTRANSLIT:;
#CREDIT:;
#BANNER:spbanner.png;
#BACKGROUND:spiralbg.png;
#LYRICSPATH:;
#CDTITLE:zlm.png;
#MUSIC:SpiralPegasus.mp3;
#OFFSET:0.000;
#SAMPLESTART:37.500;
#SAMPLELENGTH:10.000;
#SELECTABLE:YES;
#DISPLAYBPM:160.000;
#BPMS:0.000=160.000;
#STOPS:;
#BGCHANGES:;
// cache tags:
#FIRSTBEAT:1.500;
#LASTBEAT:336.000;
#SONGFILENAME:Songs/zelda et megaman/Spiral Pegasus/Spiral Pegasus.sm;
#HASMUSIC:1;
#HASBANNER:1;
#MUSICLENGTH:139.128;
// end cache tags

//---------------dance-single - Copied from----------------
#NOTES:
     dance-single:
     Copied from:
     Challenge:
     10:
     0.846,0.906,0.884,0.604,0.518,617.000,123.000,84.000,0.000,2.000:
0000
0000
0000
0000
0000
0000
0010
0000
0110
0000
0010
0100
0010
0000
1001
0000
,
0001
0000
0010
0001
1000
0000
1010
0000
0100
0000
1001
0000
0000
0000
0001
0000
,
0010
0100
1000
0000
0110
0000
1000
0001
0100
0000
1001
0000
0010
0000
1010
0000
,
0100
0000
0001
1000
0010
0000
1010
0000
0100
0000
0101
0000
0001
1000
0001
0000
,
0100
0000
0010
0000
1000
0000
0000
0000
0001
1000
0010
0100
0001
0000
0000
0000
,
0000
0000
1000
0100
0010
0000
0000
0000
0000
0000
1001
0000
0000
0000
0001
1000
,
0010
0000
0100
0000
1000
0000
0000
0000
1000
0001
0010
0100
1000
0000
0000
0000
,
0000
0000
1000
0001
0010
0000
0000
0000
0000
0000
1001
0000
0000
0000
0001
1000
,
0010
0000
0100
0000
0001
0000
0000
0000
0001
0010
0001
1000
0010
0000
0000
0000
,
0000
0000
0010
0100
0010
0000
0000
0000
0000
0000
1001
0000
0000
0000
1000
0001
,
0010
0000
0100
0000
1000
0000
0001
1000
0010
0100
0010
1000
0100
0000
0000
0000
,
0000
0000
1000
0001
0010
0000
0100
0000
1001
0000
0000
0000
0000
0000
1000
0010
,
0100
0000
0001
0000
1001
0000
0010
0000
0110
0000
0100
0000
0000
0000
1000
0001
,
0100
2002
0000
0000
,
0000
0000
3003
0000
1001
0000
1000
0000
0010
0000
0110
0000
0000
0000
0001
1000
,
0010
0000
2002
0000
3003
0202
0000
0000
,
0303
0000
0000
0000
1001
0000
0000
0000
0001
0010
0100
0000
0000
0000
0010
0100
,
1000
0000
1000
0001
0100
0000
0001
0010
0001
0000
0000
0000
0000
0000
0001
1000
,
0010
0100
1001
0001
0010
0100
1000
0000
,
1100
0010
1001
0000
0010
1010
0000
0000
,
0001
1000
0001
0000
0012
0000
1003
0010
0100
0000
0001
0000
0120
0000
1030
0001
,
0010
0000
0100
0000
2100
0000
3100
0010
0001
0000
0010
0000
1002
0000
0013
0100
,
1000
0000
0010
0000
1020
0000
1030
0001
1000
0000
0001
1000
0020
0000
0000
0000
,
0030
0000
1001
0011
0000
0110
0000
0000
,
0000
0000
0000
0000
2010
0000
3010
0100
0001
0000
0010
0000
2100
0000
3100
0010
,
0001
0000
0010
0000
0120
0000
0130
1000
0001
0000
1000
0000
0201
0000
0301
0010
,
0100
1000
2002
0000
0000
3003
2002
0000
,
0000
0000
3003
0000
1010
0000
0001
0010
0100
0000
1100
0000
0000
0000
1001
0000
,
0001
0000
0100
0000
0220
0000
0000
0000
0000
0000
0000
0000
0330
0000
0010
1000
,
0100
1000
0010
0000
2020
0000
0000
0000
0000
0000
0000
0000
3030
0000
0001
0000
,
1000
0000
0010
0000
0202
0000
0000
0000
0000
0000
0000
0000
0303
0000
0001
1000
,
0001
0010
0100
0000
2200
0000
0000
0000
0000
0000
0000
0000
3300
0000
0010
0000
,
0001
0000
0100
0000
2002
0000
0000
0000
3003
0000
2002
0000
3003
0000
1000
0010
,
0100
0001
0010
0000
2200
0000
0000
0000
3300
0000
2200
0000
3300
0000
0010
0000
,
0001
0100
2002
3003
0110
2002
0000
3003
,
0000
0000
0000
0000
0001
1000
0100
0000
0010
0100
1000
0000
0010
0100
0001
0000
,
0010
0100
0010
0000
1001
0000
0010
0000
0011
0000
0001
0010
0100
0000
1001
0000
,
1000
0000
0010
1000
0010
0000
1001
0000
1000
0001
0010
0000
0000
0000
1000
0001
,
1000
0000
0100
0000
0010
0000
1001
0001
0100
0000
0110
0000
0010
0000
0110
0000
,
0001
0000
1000
0001
0100
0000
0010
0000
1000
0000
1001
0000
0001
1000
0010
0000
,
0100
0000
0001
0000
1100
0000
0000
0000
1000
0001
1000
0010
0100
0000
0000
0000
,
0000
0000
0001
0010
0100
0000
0000
0000
0000
0000
1001
0000
0000
0000
1000
0100
,
0010
0000
0001
0000
0010
0000
0000
0000
0010
0100
0010
0001
1000
0000
0000
0000
,
0000
0000
0001
1000
0010
0000
0000
0000
0000
0000
0110
0000
0000
0000
1000
0010
,
0100
0000
0001
0000
0010
0000
0000
0000
0001
1000
0100
0010
0001
0000
0000
0000
,
0000
0000
1000
0001
1000
0000
0000
0000
0000
0000
0101
0000
0000
0000
0010
1000
,
0010
0000
0100
0000
1000
0000
1000
0010
0100
0001
1000
0010
0100
0000
0000
0000
,
0000
0000
0001
1000
0010
0000
0100
0000
1010
0000
0000
0000
0000
0000
0010
1000
,
0001
0000
0100
0000
0101
0000
0010
0000
0110
0000
1010
0000
0000
0000
0001
1000
,
0010
2002
0000
0000
,
0000
0000
3003
0000
1001
0000
0001
0000
0100
0000
0110
0000
0000
0000
1000
0001
,
0100
0000
0202
0000
0303
2200
0000
0000
,
3300
0000
0000
0000
0101
0000
0000
0000
0001
0100
0010
0000
0000
0000
0100
0010
,
1000
0000
0001
1000
0010
0000
1000
0100
0010
0000
0000
0000
0000
0000
1000
0001
,
0100
0010
1001
1000
0100
0010
0001
0000
,
0011
0100
1001
0000
0100
0101
0000
0000
,
1000
0001
1000
0000
2100
0000
3001
0100
0010
0000
1000
0000
0210
0000
0301
1000
,
0100
0000
0010
0000
0012
0000
0013
0100
1000
0000
0100
0000
2001
0000
3100
0010
,
0001
0000
0100
0000
0201
0000
0301
1000
0001
0000
1000
0001
0200
0000
0000
0000
,
0300
0000
1001
1100
0000
0110
0000
0000
,
0000
0000
0000
0000
0102
0000
0103
0010
1000
0000
0100
0000
0012
0000
0013
0100
,
1000
0000
0100
0000
0210
0000
0310
0001
1000
0000
0001
0000
1020
0000
1030
0100
,
0010
0001
2002
0000
0000
3003
2002
0000
,
0000
0000
3003
0000
0101
0000
1000
0100
0010
0000
1001
0000
0000
0000
1010
0000
,
1000
0000
0010
0000
0220
0000
0000
0000
0000
0000
0000
0000
0330
0000
0100
0001
,
0010
0001
0100
0000
0202
0000
0000
0000
0000
0000
0000
0000
0303
0000
1000
0100
,
0010
0001
0100
0000
2020
0000
0000
0000
0000
0000
0000
0000
3030
0000
1000
0001
,
1000
0100
0010
0000
0022
0000
0000
0000
0000
0000
0000
0000
0033
0000
0001
0010
,
0001
0010
0100
0000
2002
0000
0000
0000
3003
0000
2002
0000
3003
0000
1000
0001
,
0010
0001
0100
0000
0202
0000
0000
0000
0303
0000
0022
0000
0033
0000
0100
0000
,
1000
0010
2002
3003
0110
2002
0000
3003
,
0000
0000
0000
0000
1000
0001
0010
0000
0100
0010
0001
0000
0100
0010
1000
0000
,
0100
0010
0100
0000
1001
0000
0100
0000
1100
0000
1000
0100
0010
0000
1001
0000
,
0001
0000
0100
0001
0100
0000
1001
0000
0001
1000
0100
0000
0000
0000
1000
0001
,
1000
0000
0100
0000
0010
0000
1001
0001
0100
0000
0110
0000
0010
0000
0110
0000
,
0001
0000
1000
0001
0100
0000
0010
0000
1000
0000
1001
0000
0001
1000
0010
0000
,
0100
0000
0001
0000
1100
0000
0000
0000
1010
1000
0010
0100
0010
1000
0001
0100
,
0010
0100
0001
1000
0010
0100
0001
0010
0100
1000
1010
0000
0000
0000
0010
1000
,
0001
0000
0100
0010
0110
0000
0000
0000
1001
0001
1000
0100
0010
0100
1000
0010
,
0100
0001
1000
0010
0100
0001
0010
0100
1000
0001
1001
0000
0000
0000
0010
0001
,
1000
0000
0001
0000
0010
0000
0000
0000
0001
1000
0100
0010
0001
0000
0000
0000
,
0000
0000
1000
0010
0100
0000
0000
0000
0000
0000
0101
0000
0000
0000
1000
0001
,
0010
0000
0100
0000
1000
0000
0001
0010
0001
0100
0001
1000
1001
0000
0000
0000
,
0000
2000
0020
0200
0002
0000
0000
0000
,
3333
0000
0000
0000
;
