#TITLE:青空Jumping Heart;
#SUBTITLE:ラブライブ! サンシャイン!!;
#ARTIST:Aqours;
#TITLETRANSLIT:Aozora Jumping Heart;
#SUBTITLETRANSLIT:Love Live! Sunshine!!;
#ARTISTTRANSLIT:Aqours;
#CREDIT:Huzure;
#BANNER:Sunshine-bn.png;
#BACKGROUND:Sunshine-bg.png;
#LYRICSPATH:;
#CDTITLE:Huzure.png;
#MUSIC:Aozora Jumping Heart.mp3;
#OFFSET:-0.070;
#SAMPLESTART:49.796;
#SAMPLELENGTH:19.300;
#SELECTABLE:YES;
#BPMS:0.000=200.000;
#STOPS:;
#BGCHANGES:;
// cache tags:
#FIRSTBEAT:8.000;
#LASTBEAT:300.500;
#SONGFILENAME:Songs/Index Tournament 1/Aozora Jumping Heart (Love Live! Sunshine!!) [Huzure]/Aozora Jumping Heart.sm;
#HASMUSIC:1;
#HASBANNER:1;
#MUSICLENGTH:91.167;
// end cache tags

//---------------dance-single - Huzure----------------
#NOTES:
     dance-single:
     Huzure:
     Challenge:
     11:
     0.906,0.989,0.735,0.472,0.247,468.000,67.000,43.000,0.000,0.000:
0000
0000
0000
0000
,
0000
0000
0000
0000
,
2000
0000
0000
0000
,
3002
0000
0000
0010
0000
0100
1000
0100
,
0013
0000
0000
0000
0001
0010
0100
1000
0001
0010
0100
1000
0001
0010
0100
1000
,
0001
0000
0000
0000
0000
0000
1000
0000
1000
0000
0000
0100
0010
0001
0100
0001
,
1000
0000
0101
0000
0100
0100
1001
0000
,
0001
0000
0100
0010
1000
0100
0010
0000
,
0002
0000
1000
0000
1000
1000
1003
0010
,
0100
0000
0000
0000
0001
0000
1000
0000
0010
0000
1000
0000
0100
0000
0010
0001
,
0200
0000
0310
0000
0100
1000
0100
0001
,
0010
0000
0100
1000
0001
0010
0001
0100
,
0020
0000
2030
0100
3200
0000
0310
0002
,
0000
0000
0000
0000
0000
0000
0000
0000
0000
0000
1003
0010
0100
0000
0000
0000
,
1001
0000
0110
0000
0110
0000
0001
0100
,
0201
0300
0001
1000
1200
0300
0100
1000
,
0010
1000
0010
0000
0100
0000
0010
0000
1000
0100
1000
0000
0010
0000
0100
0000
,
0102
0000
0003
0000
1000
0000
0010
0100
0001
0000
0010
0100
1000
0000
0001
0100
,
0010
1000
0010
0020
0000
0130
0001
1000
,
0010
0100
0010
0000
0100
0000
0002
0000
1000
0000
1003
0000
0010
0000
0100
0000
,
0101
0000
0000
0000
1001
0000
0000
0000
1010
0000
0000
0000
0010
0000
0100
0001
,
0010
0000
0010
0000
0001
0000
0200
0000
0000
0000
0310
1000
0001
0100
0010
0000
,
1001
0000
0110
0000
0110
0000
1000
0010
,
0100
0000
0001
0010
0001
0000
0010
0000
1000
0000
0010
0000
0001
0000
0000
0000
,
1001
0000
1010
0100
0000
0100
0001
0101
,
0000
0000
1000
0100
0010
0000
0100
0010
0001
0000
1000
0001
0100
0000
0010
1000
,
0001
1000
0001
0200
0010
0310
1000
0000
,
1010
0000
0010
1000
0001
0100
0010
0000
,
1001
0000
0100
0002
0000
0023
0000
0230
,
0000
0000
1300
0000
0010
0000
0100
0000
0001
0000
1000
0100
0010
0001
0010
0100
,
1000
0000
0001
0010
0101
0000
1000
0100
,
1000
0001
0100
0010
2000
0000
3002
0000
,
0103
0000
0000
0000
0100
0000
0010
0000
1001
0000
0000
0000
1000
0000
0100
1000
,
0001
0001
0010
0010
0100
0100
1002
0000
,
0023
0000
0031
0100
0010
1000
0100
0010
,
0000
0000
0010
0000
0001
0000
0100
0000
0010
0000
1000
0000
0200
0000
0300
0010
,
0001
0000
0011
0000
0100
1000
0010
0110
,
0000
0100
0000
1001
0000
1000
0001
0000
,
1001
0100
0010
1001
0010
0100
1001
1000
,
0010
0110
0100
0001
0012
0010
0100
1003
,
1001
0000
0001
1000
0100
0010
0100
0010
,
0001
0000
1000
0000
1010
0000
0101
0000
0000
0000
0001
0000
1000
0001
0100
0010
,
0100
0000
0001
0000
2100
0100
3100
0000
,
0021
0000
0130
0000
2001
0001
3001
0000
,
0100
0010
1000
0100
1000
0010
0100
0001
,
1000
0000
0011
0100
0000
0100
1010
0000
,
0001
0000
1000
0000
0201
0001
1300
0000
,
2001
0000
3001
0000
0210
0010
0301
0000
,
1010
0000
0010
0100
0001
0010
0001
0200
,
0000
0000
0301
1000
0010
0000
0100
0000
0000
0000
0100
0001
0100
0000
0000
0000
,
0101
0000
0010
0010
1100
0000
0010
1001
,
0000
0110
0000
2001
0010
0010
3001
0000
,
1000
0010
0100
0001
0000
0100
0001
1010
,
0000
0010
1000
0010
2000
0000
3002
0000
,
0103
0000
0110
0110
0000
0001
1000
0000
,
1010
0000
0101
0101
1000
0010
0100
0001
,
1000
0100
1000
0001
0100
0010
0100
0002
,
0000
0000
1003
0000
0100
0000
1000
0000
0001
1000
0100
0010
0001
1000
0100
0010
,
0001
0000
1000
0000
1010
0100
1000
0000
,
0101
0000
0001
0000
0110
0001
1000
0000
,
0010
0100
0001
1000
0100
0010
0001
1000
,
0010
0000
1010
0100
0000
0100
1100
1000
,
0002
0000
1003
0000
1100
0100
1000
0000
,
1001
0000
0001
0000
0101
0100
0001
0000
,
1010
0000
1100
0000
1010
0000
0010
0200
,
0000
0000
0301
1000
0100
0000
0010
0000
0000
0000
0010
0001
0010
0000
0000
0000
,
0100
0000
1000
1000
0011
0000
0001
0020
,
0000
0230
0000
2300
0001
0010
3001
0100
,
0010
1000
0100
0010
0000
0100
0000
1001
,
0000
0000
0000
1000
0000
0000
0001
0000
0000
0010
0000
0000
0100
0000
1000
0000
0010
0000
0100
0000
0001
0000
0010
0000
,
0001
0000
1000
0100
0010
0000
0011
0001
,
0000
1000
0100
1000
0010
1000
0001
0000
,
0020
0000
0000
0000
0000
0000
0000
0000
0000
0000
0000
0000
0000
0000
0130
1000
,
0200
0000
0000
0000
0000
0000
1300
0002
,
0000
0000
0000
0000
,
0000
0003
0000
0000
0000
0000
0000
0000
;
