#TITLE:Beethoven's 5th;
#SUBTITLE:Ziddy;
#ARTIST:Transiberian Orchestra;
#TITLETRANSLIT:;
#SUBTITLETRANSLIT:;
#ARTISTTRANSLIT:;
#CREDIT:;
#BANNER:Beethoven's 5th.jpg;
#BACKGROUND:Beethoven's 5th-bg.jpg;
#LYRICSPATH:;
#CDTITLE:;
#MUSIC:Trans-Siberian Orchestra - Beethoven's 5th.mp3;
#OFFSET:0.000;
#SAMPLESTART:98.200;
#SAMPLELENGTH:20.500;
#SELECTABLE:YES;
#BPMS:0.000=78.480,13.000=152.000,61.000=98.000,63.000=100.000,65.000=99.000,65.250=98.000,65.500=97.000,68.000=100.000,70.333=165.000,71.000=105.000,76.250=85.000,78.000=108.500,80.333=140.000,81.000=154.000,113.000=150.000,144.500=152.000,149.250=150.000,167.250=148.000,184.750=50.000,191.750=145.000,199.750=50.000,206.750=145.000,216.750=150.000,250.250=152.000,312.500=148.000,313.000=118.000,313.500=110.000,314.500=90.000,315.000=73.000,315.500=50.000,324.250=40.000;
#STOPS:11.000=0.020
,11.250=0.020
,11.500=0.020
,11.750=0.020
,12.000=0.020
,12.250=0.020
,12.500=0.020
,12.750=0.020
;
#BGCHANGES:;
// cache tags:
#FIRSTBEAT:0.000;
#LASTBEAT:335.500;
#SONGFILENAME:Songs/toune/(Ziddy)Beethoven's 5th/Beethoven's 5th.sm;
#HASMUSIC:1;
#HASBANNER:1;
#MUSICLENGTH:178.920;
// end cache tags

//---------------dance-single - w00t----------------
#NOTES:
     dance-single:
     w00t:
     Challenge:
     12:
     0.739,0.984,0.861,0.732,0.654,639.000,154.000,131.000,0.000,70.000:
1001
1001
1001
0220
0000
0000
0000
0000
0000
0000
0000
0000
,
0000
0000
0000
0000
0000
0000
1331
1001
1001
0022
0000
0000
,
0000
0000
0000
0000
,
0000
0000
1133
0100
0010
0001
0110
1000
,
0100
0011
0011
0100
1000
0100
0011
0100
,
0010
1000
0110
0001
0010
1000
0101
0010
,
1000
0110
0110
0001
0010
0100
1100
0010
,
0001
0010
1100
0010
1000
0001
1100
0100
,
0001
0110
1100
0001
1000
0100
0110
0001
,
0100
0010
1001
0100
0010
0001
1100
0010
,
0001
0011
0011
1000
0100
0010
1001
0200
,
2300
3200
1302
0100
0010
1000
0110
0100
,
1000
0110
0110
1000
0010
0100
1100
0023
,
2030
3020
0231
1000
0001
0010
1001
0010
,
0001
1010
1010
0001
1000
0010
1010
0001
,
1310
0000
0000
0000
0000
0000
0000
0000
1010
0000
0000
0000
0000
0000
0000
0000
2020
0000
0000
0000
0000
0000
0000
0000
0000
0000
0000
0000
0000
0000
0000
0000
3232
0000
0000
0000
0000
0000
0000
0000
0000
0000
0000
0000
0000
0000
0000
0003
0322
0000
0000
0000
0000
0000
0000
0000
0000
0000
0000
0000
0000
0000
0000
0000
,
2233
0000
0000
0000
0000
0000
0000
0000
0000
0000
0000
0000
0000
0000
0000
0300
3220
0000
0000
0000
0000
0000
0000
0000
2332
0000
0000
0000
0000
0000
0000
0000
3223
0000
0000
0000
0000
0000
0000
0000
0000
0000
0000
0000
0000
0000
0000
0000
2332
0000
0000
0000
0000
0000
0000
0000
0000
0000
0000
0000
3003
0000
0000
0000
,
0110
1001
1010
0101
1100
1010
0110
1001
0000
0220
0000
0000
,
2332
0000
0000
0000
0000
0000
0000
0000
0000
0000
0000
0000
0000
0000
0000
0003
3202
0000
0000
0000
0000
0000
0000
0000
0000
0000
0000
0000
0000
0000
0000
0000
2323
0000
0000
0000
0000
0000
0000
0000
0000
0000
0000
0000
0000
0000
0000
0030
3220
0000
0000
0000
0000
0000
0000
0000
2332
0000
0000
0000
0000
0000
0000
0000
,
3003
0000
0000
0220
0000
0000
0000
0000
0000
0000
0000
0000
2332
0000
0000
0000
0000
0000
0000
0000
0000
0000
0000
0000
3113
0000
0000
0000
0011
0000
0000
0000
0110
0000
0000
0000
1100
0000
0000
0000
0110
0000
0000
0000
0011
0000
0000
0000
,
0110
0000
1100
0000
0000
0000
1001
0000
0000
0100
0000
0000
0010
0000
0000
0001
0000
0000
1100
0000
0000
0001
0000
0000
,
0010
1100
1100
0010
1000
0001
0101
1000
,
0010
0001
1100
0010
0001
1000
0110
0001
,
0010
0000
0000
0000
0000
0000
0000
0000
1100
0000
0000
0000
0000
0000
0000
0000
1100
0000
0000
0000
0000
0000
0000
0000
0001
0000
0000
0000
0000
0000
0000
0000
0010
0000
0000
0000
0000
0000
0000
0000
0011
0000
0000
0000
0000
0000
0000
0000
0011
0000
0000
0000
0000
0000
0000
0000
2000
0000
0000
0000
0000
0000
0000
3000
,
2000
0000
0000
0000
0000
0000
0000
3000
2000
0000
0000
0000
0000
0000
0000
0000
3012
0000
0000
0000
0000
0000
0000
0000
0100
0000
0000
0000
0000
0000
0000
0000
1000
0000
0000
0000
0000
0000
0000
0000
0100
0000
0000
0000
0000
0000
0000
0000
1010
0000
0000
0000
0000
0000
0000
0000
0100
0000
0000
0000
0000
0000
0000
0000
,
0010
0000
0000
0000
0000
0000
0000
0000
1100
0000
0000
0000
0000
0000
0000
0000
1100
0000
0000
0000
0000
0000
0000
0000
0010
0000
0000
0000
0000
0000
0000
0000
1000
0000
0000
0000
0000
0000
0000
0000
0100
0000
0000
0000
0000
0000
0000
0000
1013
0000
0000
0000
0000
0000
0000
0000
0002
0000
0000
0000
0000
0000
0000
0003
,
0002
0000
0000
0000
0000
0000
0000
0003
0002
0000
0000
0000
0000
0000
0000
0000
1203
0000
0000
0000
0000
0000
0000
0000
0010
0000
0000
0000
0000
0000
0000
0000
0001
0000
0000
0000
0000
0000
0000
0000
1000
0000
0000
0000
0000
0000
0000
0000
0011
0000
0000
0000
0000
0000
0000
0000
0001
0000
0000
0000
0000
0000
0000
0000
,
1000
1010
1020
0301
0100
1000
0132
0100
,
1000
0100
0213
0001
0010
1000
0011
0010
,
1000
0011
0011
1000
0010
1000
1010
0001
,
0010
1000
0311
0010
1000
0100
0011
0100
,
1000
0000
0000
0000
0000
0000
0000
0000
0110
0000
0000
0000
0000
0000
0000
0000
0110
0000
0000
0000
0000
0000
0000
0000
0001
0000
0000
0000
0000
0000
0000
0000
1000
0000
0000
0000
0000
0000
0000
0000
0100
0000
0000
0000
0000
0000
0000
0000
0011
0000
0000
0000
0000
0000
0000
0000
2000
0000
0000
0000
0000
0000
0000
3000
,
2000
0000
0000
0000
0000
0000
0000
3000
2000
0000
0000
0000
0000
0000
0000
0000
3021
0000
0000
0000
0000
0000
0000
0000
0100
0000
0000
0000
0000
0000
0000
0000
1000
0000
0000
0000
0000
0000
0000
0000
0100
0000
0000
0000
0000
0000
0000
0000
0101
0000
0000
0000
0000
0000
0000
0000
0100
0000
0000
0000
0000
0000
0000
0000
,
1000
0000
0000
0000
0000
0000
0000
0000
1100
0000
0000
0000
0000
0000
0000
0000
1100
0000
0000
0000
0000
0000
0000
0000
0001
0000
0000
0000
0000
0000
0000
0000
0100
0000
0000
0000
0000
0000
0000
0000
1000
0000
0000
0000
0000
0000
0000
0000
0131
0000
0000
0000
0000
0000
0000
0000
0002
0000
0000
0000
0000
0000
0000
0003
,
0002
0000
0000
0000
0000
0000
0000
0003
0002
0000
0000
0000
0000
0000
0000
0000
1203
0000
0000
0000
0000
0000
0000
0000
0001
0000
0000
0000
0000
0000
0000
0000
0010
0000
0000
0000
0000
0000
0000
0000
1000
0000
0000
0000
0000
0000
0000
0000
0011
0000
0000
0000
0000
0000
0000
0000
1000
0000
0000
0000
0000
0000
0000
0000
,
0010
1010
1320
1000
1000
1000
1032
0100
,
0100
0000
0103
0100
0010
0100
0000
0100
0000
0100
0000
0100
0010
0001
0000
0001
,
0000
0001
0000
0001
0010
0100
0000
0100
0000
0100
0000
0100
1000
0001
0000
0001
,
0000
0001
0000
0010
0100
1000
0000
1000
0000
1000
0000
1000
0100
0010
0000
0010
,
0000
0010
0000
0010
0001
0100
0000
0100
0000
0100
0000
0100
1000
0010
0000
0010
,
0000
0010
0000
0010
0001
1000
0000
1000
0000
1000
0000
1000
0100
0001
0000
0001
,
0000
0001
0000
0001
0010
0100
0000
0100
0000
0100
0000
0100
0010
0001
0000
0001
,
0000
0001
0000
0001
0010
0100
0000
0100
0000
0100
0000
0010
0001
1000
0000
1000
,
0000
1000
0000
1000
0001
0010
0000
0010
0000
0010
0000
0010
0100
1000
0000
1000
,
0000
1000
0000
1000
0001
0100
0000
0100
0000
0100
0000
0100
0010
0001
0000
0001
,
0000
0001
0000
0001
0010
0100
0000
0100
0000
0100
0000
0010
1000
0100
0000
0110
,
0000
0000
0000
0000
0110
0000
0000
0000
0000
0000
0000
0000
2000
0000
0000
0000
0000
0000
0000
0000
0000
0000
0000
3000
2000
0000
0000
3000
2000
0000
0000
0000
0000
0000
0000
3000
2000
0000
0000
0000
0000
0000
0000
0000
3200
0000
0000
0000
0000
0000
0000
0000
0320
0000
0000
0000
0000
0000
0000
0000
0032
0000
0000
0000
,
0000
0000
0000
0000
0000
0000
0000
0000
0000
0000
0000
0000
2003
0000
0000
0000
0000
0000
0000
0000
0000
0000
0000
3000
2000
0000
0000
3000
2000
0000
0000
0000
0000
0000
0000
3000
2000
0000
0000
0000
0000
0000
0000
0000
3020
0000
0000
0000
0000
0000
0000
0000
0230
0000
0000
0000
0000
0000
0000
0000
1301
0000
0000
0000
,
0010
0100
0000
0100
0000
0100
0000
0100
0010
0001
0000
0001
0000
0001
0000
0001
,
0010
0100
0000
0100
0000
0100
0000
0100
1000
0001
0000
0011
0000
0011
0000
0020
,
0000
0000
0000
0000
0000
0000
0000
0030
0020
0000
0000
0030
0020
0000
0000
0000
0000
0000
0000
0030
0020
0000
0000
0000
0000
0000
0000
0000
2030
0000
0000
0000
0000
0000
0000
0000
3200
0000
0000
0000
0000
0000
0000
0000
0302
0000
0000
0000
0000
0000
0000
0000
0000
0000
0000
0000
0000
0000
0000
0003
0002
0000
0000
0000
,
0000
0000
0000
0000
0000
0000
0000
0003
0002
0000
0000
0003
0002
0000
0000
0000
0000
0000
0000
0000
2003
0000
0000
0000
0000
0000
0000
0000
3200
0000
0000
0000
0000
0000
0000
0000
0320
0000
0000
0000
0000
0000
0000
0000
0031
0000
0000
0000
0010
0000
0000
0000
0100
0000
0000
0000
0000
0000
0000
0000
0100
0000
0000
0000
,
0000
0100
0000
0100
0010
0001
0000
0001
0000
0001
0000
0001
0010
1000
0000
1000
,
0000
1000
0000
1000
0100
0010
0000
0010
0000
0010
0000
0011
0100
1000
0000
1000
,
0000
1000
0000
0001
0010
0100
0000
0100
0000
0100
0000
0100
1000
0010
0000
0010
,
0000
0010
0000
0010
0001
0100
0000
0100
0000
0100
0000
0101
1000
0001
0000
0001
,
0000
0001
0000
0001
0010
0100
0000
0100
0000
0100
0000
0100
0010
0001
0000
0001
,
0000
0001
0000
0001
0010
1000
0000
1000
0000
1000
0000
1100
0010
0001
0000
0001
,
0000
0001
0000
0001
0010
0100
0000
0100
0000
0100
0000
0100
1000
0001
0000
0001
,
0000
0001
0000
0001
0010
0100
0000
0100
0000
0100
0000
0101
0010
1000
0000
1000
,
0000
1000
0000
1000
0100
0010
0000
0010
0000
0010
0000
1010
0001
0100
0000
0100
,
0000
0100
0000
0100
1000
0001
0000
0001
0000
0001
0000
0101
0010
1000
0000
1000
,
0000
1000
0000
1000
0100
0010
0000
0110
0000
0110
0000
0000
0011
0000
0100
0000
,
0010
0001
1100
0100
0001
0011
0011
0100
,
1000
0100
0011
0001
0010
0100
0011
0010
,
0100
1000
1100
0100
0010
0011
0011
0100
,
0001
0000
0000
0000
0000
0000
0000
0000
0010
0000
0000
0000
0000
0000
0000
0000
1100
0000
0000
0000
0000
0000
0000
0000
0200
0000
0000
0000
0000
0000
0000
0300
0200
0000
0000
0000
0000
0000
0000
0300
0200
0000
0000
0000
0000
0000
0000
0000
0312
0000
0000
0000
0000
0000
0000
0000
0100
0000
0000
0000
0000
0000
0000
0000
,
0010
1000
0110
1000
0010
1100
1100
0010
,
0100
0000
0000
0000
0000
0000
0000
0000
1000
0000
0000
0000
0000
0000
0000
0000
0110
0000
0000
0000
0000
0000
0000
0003
0002
0000
0000
0000
0000
0000
0000
0003
0002
0000
0000
0000
0000
0000
0000
0003
0002
0000
0000
0000
0000
0000
0000
0000
1203
0000
0000
0000
0000
0000
0000
0000
0010
0000
0000
0000
0000
0000
0000
0000
,
0001
0010
1010
0001
0010
1010
0312
0010
,
1000
0100
1010
0003
0110
0110
0210
0000
,
0000
0000
0000
0000
0302
0000
0000
0000
0000
0000
0000
0000
0003
0000
2000
0000
0000
0000
0000
0000
0000
0000
0000
0010
0001
0010
3200
0000
0000
0000
0000
0000
,
0000
0302
0000
0023
0000
0032
0000
0000
,
2003
0000
0000
3210
0011
0010
1300
0020
,
0001
0001
1030
0200
0000
0000
0320
0000
,
0030
0000
0000
0000
0200
0000
0000
0000
0000
0000
0000
0000
0000
0000
0310
0001
1000
0010
0002
0000
0000
0000
0000
0000
0000
0000
0000
0000
2003
0000
0000
0000
,
0000
0000
3020
0000
0000
0000
0032
0000
0000
0000
0000
0003
0020
0000
0000
0000
,
0000
1130
1000
0100
0010
0001
0010
0001
,
1000
0100
0010
0100
0010
0001
0010
0001
,
2000
0000
0000
0000
0000
0000
0000
0000
0000
0000
0000
0000
0000
0000
0000
0000
0000
0000
0000
0000
0000
0000
0000
0000
0000
0000
0000
0000
0000
0000
0000
0000
0000
0000
0000
0000
0000
0000
0000
0000
0000
0000
0000
0000
0000
0000
0000
0000
0000
0000
0000
0000
0000
0000
0000
0000
0000
0000
0000
0000
3002
0000
0000
0003
,
0002
0000
0000
0003
0002
0000
0000
0000
0023
0000
0000
0000
0000
0000
0000
0000
0000
0000
0000
0000
0000
0000
0000
0000
0000
0000
0000
0000
0000
0000
0000
0000
0000
0000
0000
0000
0000
0000
0000
0000
0000
0000
0000
0000
0000
0000
0000
0000
0000
0000
0000
0000
0000
0000
0000
0000
0000
0000
0000
0000
2030
0000
0000
3000
,
2000
0000
0000
3000
2000
0000
0000
0000
3012
0000
0000
0000
0000
0000
0000
0000
0000
0000
0000
0000
0000
0000
0000
0000
0000
0000
0000
0000
0000
0000
0000
0000
0000
0000
0000
0000
0000
0000
0000
0000
0000
0000
0000
0000
0000
0000
0000
0000
0000
0000
0000
0000
0000
0000
0000
0000
0000
0000
0000
0000
0000
0000
0000
0000
,
0000
0000
0000
0000
0000
0000
0000
0000
0000
0000
0000
0000
0000
0000
0000
0000
0000
0000
0000
0003
2222
0000
0000
0000
0000
0000
0000
0000
0000
0000
0000
0000
0000
0000
0000
0000
0000
0000
0000
0000
0000
0000
0000
0000
0000
0000
0000
0000
0000
0000
0000
0000
0000
0000
0000
0000
0000
0000
0000
0000
0000
0000
0000
0000
,
0000
3000
0000
0300
0000
0030
0000
0003
;
