#TITLE:SuperMario BGM Medley;
#SUBTITLE:;
#ARTIST:POP'N MUSIC FEVER;
#TITLETRANSLIT:;
#SUBTITLETRANSLIT:;
#ARTISTTRANSLIT:;
#CREDIT:;
#BANNER:SuperMario BGM Medley.JPG;
#BACKGROUND:SuperMario BGM Medley-bg.JPG;
#LYRICSPATH:;
#CDTITLE:;
#MUSIC:SuperMario BGM Medley.mp3;
#OFFSET:-0.100;
#SAMPLESTART:0.020;
#SAMPLELENGTH:12.000;
#SELECTABLE:YES;
#BPMS:0.000=200.000,185.000=300.000,225.000=225.000,321.000=300.000,408.000=150.000,440.000=180.000;
#STOPS:;
#BGCHANGES:;
// cache tags:
#FIRSTBEAT:6.000;
#LASTBEAT:501.000;
#SONGFILENAME:Songs/keyboard/SuperMarioBGM/SuperMario BGM Medley.sm;
#HASMUSIC:1;
#HASBANNER:1;
#MUSICLENGTH:150.394;
// end cache tags

//---------------dance-single - MANIAC----------------
#NOTES:
     dance-single:
     MANIAC:
     Hard:
     9:
     0.657,0.916,0.359,0.439,0.259,572.000,54.000,66.000,0.000,0.000:

0000
0000
0000
0000
,
0000
0000
1001
0000
,
0010
0000
0000
0001
0000
0000
1000
0000
,
0000
0100
0000
1000
0000
0001
0100
0000
,
0001
0000
0000
0000
0100
0000
0000
0000
0010
0000
0000
0000
1000
0000
0000
0000
0000
0000
0100
0000
0000
0010
0000
0000
,
0000
0100
0000
0010
0001
1000
0000
0000
,
1010
0000
0000
1100
0000
0000
1001
0000
,
0000
0101
0000
1100
0000
0001
1000
0000
,
1000
0000
0000
0000
0100
0000
0000
0000
0010
0000
0000
0000
0001
0000
0000
0000
0000
0000
0100
0000
0000
0010
0000
0000
,
0000
0110
0000
0010
1000
0001
0000
0000
,
1010
0000
0001
0010
0001
1000
0000
0101
,
0000
0010
1000
0100
0000
0100
0001
0010
,
0000
0000
1000
0010
1000
0001
0000
1100
,
0000
0110
0000
0110
0110
0000
0000
0000
,
0011
0000
1000
0010
1000
0001
0000
1100
,
0000
0010
0001
0100
0000
0100
1000
0010
,
0000
0000
0110
0000
0000
0101
0000
0000
,
1100
0000
0000
1000
0001
0000
0101
0000
,
1010
0000
0100
0010
0100
1000
0000
0110
,
0000
0001
0010
1000
0000
0001
0100
1000
,
0001
0000
0100
0010
0100
0001
0000
0110
,
0000
1001
0000
1001
1001
0000
1100
0000
,
0011
0000
0100
0010
0100
0001
0000
0110
,
0000
1000
0010
0001
0000
1000
0100
0001
,
1000
0000
0110
0000
0000
1010
0000
0000
,
0011
0000
0000
1000
0001
0000
0101
0000
,
0010
0010
0000
0010
0001
0010
0100
0000
,
0001
0010
0000
0100
1000
0000
1001
0000
,
0010
0010
0000
0010
0001
0010
1000
0100
,
0000
0110
0110
0000
,
1001
1001
0000
1100
0000
0001
0010
0000
,
0100
1000
0000
0010
1000
0000
1010
0000
,
0001
0001
0000
0100
0000
0001
0010
0000
,
0011
0000
0101
0000
,
0000
0000
0000
0010
0000
0010
0000
0010
,
0000
0000
0000
0000
0000
0000
0100
0001
,
1000
0010
1000
0100
0000
0000
0000
0000
,
0000
0000
0100
1000
0001
0100
0001
0010
,
0000
0000
0000
1001
0000
0010
0010
0001
,
1000
0100
0010
0001
0000
0000
1001
0000
,
1100
0000
0010
1000
0001
0100
0010
1000
,
0000
0000
0000
0001
0000
0000
0100
0000
0000
0000
0000
0000
0100
0000
0001
0000
0100
0000
0010
0000
0000
0000
0000
0000
,
1000
0001
0010
0001
,
0100
0000
0000
0001
0100
0001
0010
0100
1000
0100
0000
1000
,
0000
0100
0000
0010
0000
0001
0000
0010
0000
0002
0000
0000
,
2000
0000
0000
0000
,
3003
1000
0001
1000
,
0010
1000
0000
0010
0000
1000
0001
0000
,
0100
0001
1000
0001
,
0100
0001
0000
0100
0000
0010
1000
0000
,
0010
1000
0100
1000
,
0001
1000
0000
0100
0000
1000
0100
0000
,
0010
0001
0100
0001
,
1000
0001
0000
0100
0000
0001
0100
0000
,
0010
0000
0000
0000
0000
0000
0000
0000
0000
0100
0000
0000
0000
0000
0100
0000
,
0000
0000
0000
0100
0000
0000
0000
0000
0000
0000
0000
0000
0000
0000
0000
0000
,
0000
0002
2003
3002
,
0203
0000
0320
0000
0230
0000
0301
1000
,
0200
0320
0032
0000
,
2003
3020
0000
0000
,
2030
0000
0000
3200
,
0000
0000
0000
0000
0300
0001
0010
0100
,
1000
0010
2000
0000
0010
0000
0010
0000
,
3020
0100
0230
0302
,
1000
0100
0010
1000
,
0103
0010
0200
0000
0001
0000
0001
0000
,
0302
1000
1000
2003
,
0000
0000
0000
0000
3000
0100
0010
0001
,
1000
0010
0200
0000
0010
0000
0010
0000
,
0320
1000
2030
3002
,
1000
0010
0100
1000
,
0013
0100
0020
0000
0032
0000
2003
0000
,
3020
0230
0302
2003
,
3200
0320
0032
2003
,
0000
3001
2000
0000
3200
0000
2300
0000
,
3020
2030
3200
2300
,
3020
2030
3002
0203
,
0300
0001
0200
0000
0320
0000
2030
0000
,
3002
0000
0023
0000
0230
0000
1300
0001
,
2000
0000
0000
3100
0002
0000
0000
0000
,
0003
0000
0000
0000
0100
0000
0000
0000
0100
0000
0000
0000
,
0100
0000
0000
0000
0000
0000
1000
0010
,
0000
0100
0100
0000
0010
1000
0000
0100
,
0100
0000
0001
0010
0000
0100
0100
0000
,
1000
2002
0000
0000
,
0000
0000
3003
0000
0100
0001
1000
0010
,
1000
0100
0000
0000
1001
0000
0000
0000
,
0100
1000
0001
0100
0001
0010
0000
0000
,
1001
0000
0000
0000
0010
1000
0001
0100
,
0010
1000
0000
1001
0000
0000
1001
0000
,
0010
0001
1000
0100
0010
0001
0000
0000
,
0000
0000
0000
0100
0001
0100
0010
0000
0000
1000
0000
0000
,
0001
0010
0001
0100
,
0001
0100
0001
0010
0100
1000
0100
0000
1000
0000
0100
0000
,
0010
0000
0000
0000
0000
0000
0000
0000
0001
0000
0000
0000
0000
0000
0000
0000
0010
0000
0000
0000
0000
0000
0000
0000
0000
0000
0000
0000
0000
0000
0000
0000
0100
0000
0000
0000
0000
0000
0000
0000
0000
0000
0000
0000
0000
0100
0000
0000
,
0000
0000
0000
0000
0000
0100
0000
0000
0000
0000
0000
0000
0000
0000
0000
0000
,
0010
0001
0000
0100
0000
0010
0100
0000
,
1001
0000
1100
0000
,
0010
0000
0000
0001
0000
0000
1000
0000
,
0000
0100
0000
1000
0000
0001
0100
0000
,
0001
0000
0000
0000
0100
0000
0000
0000
0010
0000
0000
0000
1000
0000
0000
0000
0000
0000
0100
0000
0000
0010
0000
0000
,
0000
0100
0000
0010
0001
1000
0000
0000
,
0002
0000
0000
0000
0000
0003
0000
0000
,
1000
0100
1000
0100
0010
0001
0020
0000
0000
0032
0000
0000
,
1003
0010
1000
0010
0100
0001
0200
0000
0000
0302
0000
0000
,
1003
0100
0010
0001
0100
0010
2000
0000
0000
3010
0100
0010
,
2000
0000
0000
0000
0000
0000
3000
0000
0000
0000
0000
0000
0000
0001
0000
0000
,
0000
0000
0000
0000
0000
0000
0000
0000
0001
0000
0000
0000
0000
0000
0000
0000
0000
0000
0000
0000
0000
0000
0000
0000
0000
0000
0000
0000
0001
0000
0000
0000
0000
0000
0000
0000
0000
0000
0000
0000
0000
0000
0000
0000
0000
0001
0000
0000
,
0000
0000
0000
0000
0000
0000
0000
0000
0000
0000
0000
0000
0000
0000
0000
0000
0000
0000
0000
0000
0001
0000
0000
0000
0000
0000
0000
0000
0000
0000
0000
0000
0000
0000
0000
0000
0000
0000
0000
0001
0000
0000
0000
0000
0000
0000
0000
0000
,
0000
0000
0000
0000
,
0010
0010
0001
0001
0010
0001
0010
0001
,
0010
0010
0100
0100
1000
0100
1000
0100
,
1000
1000
0010
0010
1000
0010
1000
0010
,
0100
0100
0001
0001
0100
0001
0100
0001
,
1000
0100
1000
0100
1000
0000
0000
0000
0001
0100
0001
0100
0001
0000
0000
0000
,
1000
0100
1000
0100
1000
0000
0000
0000
0001
0100
0001
0100
0001
0000
0000
0000
,
1000
1000
0010
0010
1000
0010
1000
0010
,
0100
0100
0001
0001
0100
0001
0100
0001
,
1000
1000
0100
0100
1000
0100
1000
0100
,
0010
0010
0001
0001
0010
0001
0010
0100
,
0000
0000
0000
0000
0000
0000
0000
0000
0000
0000
0000
0000
0000
0000
0000
0000
1000
0000
0000
0000
0000
0001
0000
0000
0000
0000
0000
0000
0000
0000
0000
0000
0001
0000
0000
0000
0000
0000
0000
0001
0000
0000
0000
0000
0000
0100
0000
0000
,
0000
0000
0000
0000
0010
0000
0000
0000
0000
0000
0000
0000
1000
0000
0000
0000
0010
0000
0000
0000
0000
0000
0000
0000
0000
0000
0000
0100
0000
0000
0000
0000
1000
0000
0000
0000
0000
0000
0000
0000
0000
0000
0000
0000
0000
0000
0000
0000
,
0000
0000
0000
0000
0000
0000
0000
0110
0000
0000
0000
1001
,
0000
0000
0000
0000
0110
0000
0000
0000
0001
0000
0010
0000
0000
0100
0000
1000
,
0000
0000
0000
0000
0000
0000
0000
0000
0010
0000
0000
0000
0000
0000
0000
0000
0000
0000
1000
0000
0000
0000
0000
0000
0000
0000
0000
0000
0100
0000
0000
0000
0000
1000
0000
0000
0000
0000
0000
0000
0200
0000
0000
0000
0000
0000
0000
0000
,
0000
0300
0000
0000;
