#TITLE:Can't Compete;
#SUBTITLE:;
#ARTIST:Gammer;
#TITLETRANSLIT:;
#SUBTITLETRANSLIT:;
#ARTISTTRANSLIT:;
#CREDIT:;
#BANNER:CC-bn.png;
#BACKGROUND:CC-bg.png;
#LYRICSPATH:;
#CDTITLE:!ExigeTitle.png;
#MUSIC:Gammer - Can't Compete.mp3;
#OFFSET:-0.100;
#SAMPLESTART:33.747;
#SAMPLELENGTH:12.000;
#SELECTABLE:YES;
#BPMS:0.000=177.584;
#STOPS:;
#BGCHANGES:;
// cache tags:
#FIRSTBEAT:0.000;
#LASTBEAT:262.000;
#SONGFILENAME:Songs/Keyboard Collaboration II/Exige - Can't Compete/steps.sm;
#HASMUSIC:1;
#HASBANNER:1;
#MUSICLENGTH:90.383;
// end cache tags

//---------------dance-single - ----------------
#NOTES:
     dance-single:
     :
     Hard:
     12:
     1.000,1.000,1.000,0.033,1.000,719.000,161.000,3.000,0.000,0.000:  // measure 1
1100
0000
0000
0000
1100
0000
0000
1100
0000
1100
0000
0000
1100
0000
0000
0000
,  // measure 2
1001
0000
0000
0000
1001
0000
0000
1001
0000
1001
0000
0000
1001
0000
0000
0000
,  // measure 3
0011
0000
0000
0000
0011
0000
0000
0011
0000
0011
0000
0000
0011
0000
0000
0000
,  // measure 4
0101
0000
0000
0000
0101
0000
0000
0101
0000
0101
0000
0000
0101
0000
0000
0000
,  // measure 5
0110
0000
0000
0000
0110
0000
0000
0110
0000
0110
0000
0000
0110
0000
0000
0000
,  // measure 6
1010
0000
0000
0000
1010
0000
0000
1010
0000
1010
0000
0000
1010
0000
0000
0000
,  // measure 7
1001
0000
0000
0000
0011
0000
0000
0101
0000
0011
0000
0000
1010
0000
0000
0000
,  // measure 8
1010
0000
0000
0000
1100
0000
1100
0011
0000
1001
0100
0000
0010
0100
0001
0010
,  // measure 9
1001
0000
0000
0000
1010
0000
0000
0110
0000
1010
0100
0000
1001
0000
0000
0000
,  // measure 10
1100
0000
0000
0000
1010
0000
0000
1001
0000
1100
0010
0000
1001
0010
0000
0010
,  // measure 11
1001
0000
0000
0000
1001
0000
0000
1001
0000
0101
0010
0000
1100
0000
0000
0000
,  // measure 12
1001
0000
0000
0000
0011
0000
0000
1100
0000
1001
0010
0000
0100
1001
0000
0010
,  // measure 13
1100
0000
0000
0000
0101
0000
0000
0110
0000
1001
0010
0000
1100
0000
0000
0000
,  // measure 14
0011
0000
0000
0000
1001
0000
0000
1100
0000
1100
0001
0000
0011
1000
0000
0001
,  // measure 15
1010
0000
0000
0000
0110
0000
0000
1010
0000
0101
0010
0000
0110
0000
0000
0000
,  // measure 16
0011
0000
0000
0000
0011
0000
0000
1100
0000
1100
0011
0000
0001
1010
0000
1010
,  // measure 17
0001
1000
0100
0001
0100
1000
0001
0010
0100
1000
0100
0010
1000
0001
0010
1000
,  // measure 18
0010
0001
1000
0001
0010
0100
0001
0100
0010
1000
0010
0001
1000
0001
0010
1000
,  // measure 19
0010
0100
0001
0100
0010
0001
1000
0010
0001
0010
0100
1000
0010
0100
0001
0010
,  // measure 20
1100
0000
0000
0000
0000
0000
0000
0000
0000
1001
0000
0000
0000
0000
0000
0000
0000
0000
0011
0000
0000
0000
0000
0000
0000
0000
0000
0101
0000
0000
0000
0000
0000
0000
0000
0000
1100
0000
0010
0000
0001
0000
1000
0000
0100
0000
0010
0000
,  // measure 21
1001
0010
0001
0010
0100
0010
0100
1000
0100
1000
0100
0001
0100
0001
0100
0010
,  // measure 22
1000
0010
1000
0100
0010
0001
0100
0010
1000
0001
0100
0001
1000
0001
0010
0001
,  // measure 23
1000
0100
1000
0100
0010
0100
1000
0100
0001
0100
0001
0010
1000
0010
0100
0010
,  // measure 24
1001
0000
0000
0000
0000
0000
0000
0000
0000
0110
0000
0000
0000
0000
0000
0000
0000
0000
0110
0000
0000
0000
0000
0000
0000
0000
0000
0110
0000
0000
0000
0000
0000
0000
0000
0000
0110
0000
0001
0000
1000
0000
0010
0000
0100
0000
0010
0000
,  // measure 25
1001
0101
1001
0011
,  // measure 26
1100
0011
1001
0011
,  // measure 27
1100
0011
0110
1001
,  // measure 28
0011
1001
0101
0011
,  // measure 29
1000
0100
0010
0001
1000
0100
0010
0001
,  // measure 30
1000
0000
0100
0000
0010
0000
0001
0000
1000
0000
0100
0000
0010
0000
0001
0000
1000
0100
0010
0001
1000
0100
0010
0001
1000
0100
0010
0001
1000
0100
0010
0001
,  // measure 31
2000
0000
0000
0000
0000
0000
0000
0000
0000
0000
0000
0000
0000
0000
0000
3000
,  // measure 32
1000
0010
0001
1000
0100
0010
0001
1000
0100
0010
0001
0010
0000
0100
1000
0000
,  // measure 33
1001
0100
0010
0001
0000
0110
0000
1001
0010
0100
0010
0001
1000
0100
0010
0001
,  // measure 34
1100
0001
1000
0001
0000
1100
0000
1010
0001
0100
0010
0100
0001
0010
0100
0010
,  // measure 35
1001
0010
0100
0001
0000
1001
0000
1010
0001
0100
0010
0001
0100
0001
0010
1000
,  // measure 36
0011
1000
0100
0010
0000
0011
0000
1001
0100
1000
0010
0100
0010
0001
1000
0100
,  // measure 37
0011
1000
0010
0100
0000
1100
0000
1010
0001
0010
1000
0100
0010
0100
1000
0010
,  // measure 38
1001
0100
0001
0010
0000
1010
0000
0110
1000
0010
0100
0010
1000
0100
0010
0100
,  // measure 39
1010
0001
0010
0100
0000
0011
0000
0011
0100
0001
0100
1000
0010
0001
1000
0010
,  // measure 40
1100
0001
0010
1000
0000
0011
0000
0101
1000
0010
0001
1000
0010
0001
1000
0100
,  // measure 41
0011
1000
0010
0100
0000
0011
0000
1001
0010
0100
0010
1000
0001
0010
1000
0001
,  // measure 42
0110
1000
0010
0001
0000
0110
0000
1010
0001
0010
1000
0001
0100
0010
1000
0100
,  // measure 43
1001
0100
0010
0001
0000
0110
0000
0001
1100
0010
0001
0100
1000
0010
1000
0001
,  // measure 44
1010
0001
0100
0010
0000
1100
0000
1010
0100
1000
0100
0001
1000
0010
1000
0001
,  // measure 45
1100
0010
1000
0010
0000
0110
0000
1010
0001
0100
0001
1000
0001
0010
0100
0010
,  // measure 46
1001
0010
0100
0010
0000
1100
0000
1010
0100
1000
0100
0001
1000
0010
1000
0001
,  // measure 47
1100
0010
1000
0010
0000
0110
0000
1010
0001
0100
0001
1000
0001
0010
0100
0010
,  // measure 48
1001
0000
0110
0000
1010
0001
0000
0101
0010
0000
0010
0000
1001
0000
0011
0000
,  // measure 49
1000
0001
1000
0100
0000
0010
0100
0010
0000
0010
0001
1000
0001
0010
0000
0010
,  // measure 50
1000
0001
1000
0100
0000
0010
0100
0010
0000
0010
0001
1000
0001
0000
1000
0010
,  // measure 51
0100
0010
1000
0010
0000
0010
1000
0001
0000
0001
1000
0001
0010
1000
0010
0001
,  // measure 52
0010
0100
0001
0010
0000
0010
0001
1000
0100
0010
0001
0010
0100
0001
0010
0100
,  // measure 53
0010
0000
0010
0100
0000
0100
0001
0010
1000
0000
0100
1000
0100
0010
0000
0010
,  // measure 54
0100
0010
0001
0010
0000
1000
0100
0010
0000
0010
0100
0001
0010
0000
0001
0010
,  // measure 55
0100
1000
0100
0010
0000
0010
0100
0010
0000
0010
1000
0010
0001
1000
0100
0010
,  // measure 56
1000
0100
0010
0001
0000
0100
0010
0001
1000
0000
0010
0000
0100
0000
1000
0000
,  // measure 57
0100
0010
0001
0010
0000
0100
0000
0010
0100
0010
0001
1000
0100
0010
0001
0010
,  // measure 58
0100
1000
0001
0010
0000
0010
0000
0010
0100
1000
0001
0010
0100
0010
0001
1000
,  // measure 59
0100
0001
0100
0010
0000
0100
0000
1000
0001
0010
0100
0010
0001
1000
0100
0010
,  // measure 60
0001
1000
0010
0100
0000
0100
0000
0001
1000
0001
0100
0010
0001
0010
0100
0001
,  // measure 61
0010
1000
0010
0100
0000
0100
0000
0010
0001
1000
0001
0100
0001
0010
0001
0010
,  // measure 62
0100
0010
0001
0010
0001
1000
0000
1000
0001
0100
0001
1000
0100
1000
0010
0100
,  // measure 63
1000
0001
1000
0100
0000
0001
1000
0001
1000
0001
0100
0001
0010
0001
0010
0100
,  // measure 64
1000
0000
0000
0000
0001
0010
0100
1000
0000
0000
0000
0000
1000
0100
0010
0001
1000
0000
0000
0000
1000
0000
0010
0000
1000
0000
0000
0000
0010
0000
0000
0000
,  // measure 65
2002
0000
0000
0000
,  // measure 66
0000
0000
3003
0000
;
