#TITLE:sprinter;
#SUBTITLE:Kara no Kyoukai 5th chapter Theme;
#ARTIST:Kalafina;
#TITLETRANSLIT:;
#SUBTITLETRANSLIT:;
#ARTISTTRANSLIT:;
#CREDIT:ALICE_;
#BANNER:splinter.png;
#BACKGROUND:splinter.jpg;
#LYRICSPATH:;
#CDTITLE:cdtitle.png;
#MUSIC:sprinter.mp3;
#OFFSET:0.955;
#SAMPLESTART:104.000;
#SAMPLELENGTH:22.000;
#SELECTABLE:YES;
#BPMS:0.000=160.060,252.000=160.020,388.000=160.000,400.000=160.040,456.000=10.000,456.250=20.000,458.000=80.010,462.000=160.020,628.000=160.000;
#STOPS:224.000=0.005
,252.000=0.005
,388.000=0.015
,463.000=0.020
,468.000=0.005
,572.000=0.005
;
#BGCHANGES:2.500=sprinter.avi=1.000=0=0=1,
768.000=splinter.jpg=1.000=0=0=1,
99999=-nosongbg-=1.000=0=0=0 // don't automatically add -songbackground-
;
// cache tags:
#FIRSTBEAT:8.000;
#LASTBEAT:772.000;
#SONGFILENAME:Songs/alice 4th complete step/sprinter/sprinter.sm;
#HASMUSIC:1;
#HASBANNER:1;
#MUSICLENGTH:304.360;
// end cache tags

//---------------dance-single - Copied from----------------
#NOTES:
     dance-single:
     Copied from:
     Medium:
     20:
     1.000,1.000,0.733,0.361,1.000,2409.000,223.000,110.000,0.000,58.000:
0000
0000
0000
0000
,
0000
0000
0000
0000
,
1000
0000
0100
0000
0010
0000
1000
0000
0100
0000
0010
0000
0100
0001
0100
0001
,
0010
0000
0100
0000
1000
0000
0010
0000
1000
0000
0010
0000
0100
0001
0100
0001
,
0010
0000
1000
0000
0100
0000
0010
0000
0100
0000
0001
0000
0100
1000
0100
1000
,
0010
0000
0100
0000
1000
0000
0002
0000
0023
0000
2030
0000
3100
0010
0100
0010
,
1000
0000
0100
0000
0010
0000
1000
0000
0100
0000
0010
0000
1000
0001
1000
0001
,
0010
0000
1000
0000
0100
0000
0010
0000
1000
0000
0010
0000
0100
0001
0100
0001
,
1000
0000
0100
0000
0010
0000
0100
0000
1000
0000
0010
0000
0100
1000
0100
1000
,
0010
0000
0100
0000
0010
0000
0001
0000
0100
0010
0100
0001
1000
0100
0010
0100
,
0001
0000
0010
0000
0100
0000
0001
0000
0010
0000
0100
0000
0010
1000
0010
1000
,
0100
0000
0010
0000
0001
0000
0100
0000
0001
0000
0100
0000
0010
1000
0010
1000
,
0100
0000
0001
0000
0010
0000
0100
0000
0010
0000
1000
0000
0010
0001
0010
0001
,
2000
0000
3020
0000
0230
0000
0302
0000
0000
0000
1003
0000
0010
0100
0010
0100
,
1001
0000
0010
0000
0100
0000
0001
0000
0010
0000
0100
0000
0001
1000
0001
1000
,
0110
0000
1001
0000
0100
0000
0010
0000
1000
0000
0100
0000
0001
0010
0001
0010
,
1001
0100
0010
1000
0100
0010
0100
0100
,
2001
0000
0001
3000
2010
0000
0010
3000
0102
0000
0100
0003
0210
0000
0010
0300
,
1001
0000
1100
0000
0001
0001
1100
0000
,
0001
0000
0001
0000
1100
0000
0001
0000
0100
0010
0100
0000
1001
0000
0100
0010
,
2001
0000
0000
0000
0110
0000
0010
3000
0201
0000
0001
0000
1010
0000
0000
0300
,
1002
0000
1000
0000
0110
0000
1000
0003
0020
0000
0100
0000
1001
0000
0100
1030
,
0100
0000
0011
0000
1000
1000
0011
0000
,
1000
0000
1000
0000
0011
0000
1000
0000
0010
0100
0010
0000
1001
0000
0010
0100
,
0001
0000
0001
0000
1010
0000
0002
0000
0003
0000
0100
0000
1001
0100
0010
0000
,
1100
0000
1010
0000
0102
0000
0000
0000
1003
0000
0010
0000
0100
0001
0010
0001
,
1100
0000
0100
0000
1010
0000
0100
0001
1000
0010
1000
0001
0110
0000
0010
0100
,
1001
0000
0001
0000
1010
0000
0002
0000
0000
0003
1000
0000
0110
0000
0000
0000
,
0102
0000
0100
0000
1010
0000
0100
0013
2100
0001
0010
0100
0001
0000
0001
3000
,
0120
0000
0000
0000
0000
0000
0100
0000
0000
0000
0000
0000
1001
0000
0000
0000
0000
0000
0100
0000
0000
0030
0000
0000
2000
0000
0000
0001
0000
0000
0010
0000
0000
0000
0000
0000
0101
0000
0000
0000
0000
0000
0010
0000
0001
3000
0000
0000
,
1200
0000
0000
0000
0011
0000
1000
0300
0010
0000
0100
1000
0011
0000
0100
0010
,
1000
0000
0100
0000
1001
0000
0010
0100
0000
0000
0010
0000
1001
0000
0010
0000
,
0100
0000
0110
0000
1001
0000
2012
0000
3003
0000
1001
0000
0110
0000
1000
0001
,
0100
0000
0110
0000
1001
0000
0011
0000
0100
0010
1000
0000
1010
0000
0100
0010
,
1001
1000
1110
1000
1001
1001
1110
1000
,
1001
0000
1001
0000
1110
0000
1001
0000
1010
0100
1010
0000
1101
0000
0110
0000
,
1001
0001
0111
0001
1001
1001
0111
0001
,
1001
0000
1001
0000
0111
0000
1001
0000
0101
0010
0101
0000
1011
0000
0110
0000
,
1001
0100
0011
0100
1000
1010
0101
0010
,
1001
0000
0101
0000
1010
0000
0100
1000
0010
0100
0001
0000
1001
0000
0010
0010
,
1000
0000
0101
0000
0010
0000
1000
0000
2101
0000
0010
0000
0101
0000
0001
3000
,
0120
0000
0100
0000
1031
0000
0100
0010
1100
0000
0010
0001
0100
0010
0100
0010
,
1000
1000
0101
0000
1000
1000
0101
0000
,
1000
0000
1000
0000
0011
0000
1000
0000
0100
0010
0100
0000
0011
0000
1000
0000
,
0001
0001
1010
0000
0001
0001
1010
0000
,
0001
0000
0001
0000
1100
0000
0001
0000
0010
0100
0010
0000
1100
0000
0001
0000
,
0110
0000
1110
0010
1000
1100
0101
0010
,
1000
0101
0110
1000
1101
0000
0111
0000
,
0001
0100
1010
2100
0000
3010
0101
0010
,
1000
0001
0101
1010
1000
0011
0110
1100
,
0102
0010
1100
0010
0100
0110
1100
0010
,
2103
0110
0101
0011
0100
0110
0101
0010
,
3001
0000
0100
0000
1010
0000
0000
0000
1000
0010
0100
0010
0101
0000
0000
0000
,
1000
0001
0110
0001
0100
0010
1001
0000
,
1100
0001
0110
0001
1010
0101
0110
0001
,
0100
1100
0101
0010
1000
0110
1001
0010
,
1000
0000
1000
0000
0110
0000
1001
0000
0010
0001
0110
0000
1000
0000
0110
0000
,
0001
0000
0001
0000
1100
0000
0010
0001
0100
0000
0100
0000
1001
0000
0010
0010
,
1000
0000
1000
0000
0101
0000
1000
0010
0100
0001
0100
0000
1001
0000
0010
0000
,
0001
0000
0001
0000
1100
0000
0010
0001
0100
0010
1000
0000
2002
0000
3003
0000
,
0210
0000
0000
0300
0101
0000
0000
0000
1000
0010
0001
0010
1001
0000
0000
0000
,
0100
0000
0100
0000
0011
0000
1000
0100
1000
0000
0110
0000
0101
0000
0010
0000
,
0120
0000
0000
0030
1010
0000
0000
0000
0001
0010
1000
0010
0101
0000
0000
0000
,
0010
0000
0010
0000
1001
0000
0100
0010
0100
0000
1010
0000
0101
0000
0010
0000
,
1100
0000
1000
0000
0011
0100
1000
0010
0100
0000
0010
1000
0101
0000
0110
0000
,
2002
0000
0000
3003
0110
0000
1000
0001
0100
0010
1000
0010
0220
0000
0000
0330
,
1000
0001
1000
0001
1000
0001
1000
0001
1000
0001
0100
0001
0100
0001
0100
0001
0100
0001
1000
0010
1000
0010
1000
0010
,
0100
0010
0100
0010
0100
0010
0100
0010
0100
0001
0100
0001
0100
0001
0100
0001
0100
0001
0010
0100
0010
0100
0010
0100
,
0001
1000
0001
1000
0001
1000
0001
1000
0001
0100
0001
0100
0001
0100
0001
0100
0001
0100
0001
1000
0001
1000
0001
1000
,
0010
1000
0010
1000
0010
1000
0010
1000
0010
0100
0010
0100
0010
0100
0010
0100
0010
0100
0010
0100
0010
0100
0010
0100
,
1000
0001
1000
0001
1000
0001
1000
0001
1000
0001
0100
0001
0100
0001
0100
0001
0100
0001
1000
0010
1000
0010
1000
0010
,
1000
0001
1000
0001
1000
0001
1000
0001
1000
0001
0100
0001
0100
0001
0100
0001
0100
0001
0100
0010
0100
0010
0100
0010
,
1000
0001
1000
0001
1000
0001
1000
0001
1000
0001
0100
0001
0100
0001
0100
0001
0100
0001
1000
0001
1000
0001
1000
0001
,
1000
0010
1000
0010
1000
0010
1000
0010
1000
0010
1000
0010
0100
0010
0100
0010
0100
0010
0100
0010
0100
0010
0100
0010
,
1000
0001
1000
0001
1000
0001
1000
0001
1000
0001
1000
0001
1000
0010
1000
0010
1000
0010
1000
0010
1000
0010
1000
0010
,
1000
0001
1000
0001
1000
0001
1000
0001
1000
0001
1000
0001
0100
0001
0100
0001
0100
0001
0100
0001
0100
0001
0100
0001
,
0010
0100
0010
0100
0010
0100
0010
0100
0010
1000
0100
1000
0100
1000
0100
1000
0100
1000
0001
0100
0001
0100
0001
0100
,
0001
1000
0001
1000
0001
1000
0001
1000
0001
1000
0001
1000
0001
1000
0001
1000
0001
1000
0001
1000
0001
1000
0001
1000
,
0010
0100
0010
0100
0010
0100
0010
0100
0010
0100
0001
0100
0001
0100
0001
0100
0001
0100
0001
0100
0001
0100
0001
0100
,
0010
1000
0010
1000
0010
1000
0010
1000
0010
1000
0100
1000
0100
1000
0100
1000
0100
1000
0100
0010
0100
0010
0100
0010
,
0001
1000
0001
1000
0001
1000
0001
1000
0001
0100
0001
0100
0001
0100
0001
0100
0001
0100
1000
0001
1000
0001
1000
0001
,
1000
0010
1000
0010
1000
0010
1000
0010
1000
0010
0100
0010
0100
0010
0100
0010
0100
0010
1000
0001
1000
0001
1000
0001
,
0100
0010
0100
0010
0100
0010
0100
0010
0001
0010
0001
0010
0001
0010
0001
0010
0001
0010
0100
1000
0100
1000
0100
1000
,
0100
0001
0100
0001
0100
0001
0100
0001
0100
0010
1000
0010
1000
0010
1000
0010
1000
0010
1000
0001
1000
0001
1000
0001
,
0100
0010
0100
0010
0100
0010
0100
0010
0100
0001
0100
0001
0100
0001
0100
0001
0100
0001
1000
0010
1000
0010
1000
0010
,
1000
0010
1000
0010
1000
0010
1000
0010
1000
0010
1000
0010
1000
0001
1000
0001
1000
0001
1000
0001
1000
0001
1000
0001
,
0100
0010
0100
0010
0100
0010
0100
0010
0100
0001
1000
0001
1000
0001
1000
0001
1000
0001
0010
0100
0010
0100
0010
0100
,
0001
0010
0001
0010
0001
0010
0001
0010
0001
0100
0010
0100
0010
0100
0010
0100
0010
0100
1000
0001
1000
0001
1000
0001
,
0100
0010
0100
0010
0100
0010
0100
0010
0100
0001
1000
0001
1000
0001
1000
0001
1000
0001
0010
0100
0010
0100
0010
0100
,
0001
0010
0001
0100
0001
0010
0001
0100
0010
0010
1000
1000
0100
0100
0001
0001
,
0010
0100
0010
0100
0010
0100
0010
0100
0010
0100
0001
0100
0001
0100
0001
0100
0001
1000
0001
1000
0001
1000
0001
1000
,
0010
1000
0010
1000
0010
1000
0010
1000
0010
1000
0010
1000
0010
1000
0010
1000
0010
1000
0010
1000
0010
1000
0010
1000
,
0010
0100
0010
0100
0010
0100
0010
0100
0010
1000
0010
1000
0010
1000
0010
1000
0010
1000
0001
0100
0001
0100
0001
0100
,
0001
0010
0001
0010
0001
0010
0001
0010
0001
1000
0001
1000
0001
1000
0001
1000
0001
1000
0010
0100
0010
0100
0010
0100
,
0001
1000
0001
1000
0001
1000
0001
1000
0001
1000
0001
1000
0001
1000
0001
1000
0001
1000
0100
0010
0100
0010
0100
0010
,
1000
0001
1000
0001
1000
0001
1000
0001
1000
0001
1000
0001
0100
0001
0100
0001
0100
0001
0100
0001
0100
0001
0100
0001
,
1000
1000
0010
0010
0100
1001
0010
0010
0001
0001
0100
0100
1000
1000
0110
0010
,
0100
0000
0100
0000
0100
0000
0100
0000
0100
0000
0100
0000
0100
0010
0100
1000
,
0100
0000
0010
0000
0001
0000
0100
0000
0010
0000
0001
0000
0010
1000
0010
1000
,
0100
0000
0010
0000
0001
0000
0100
0000
0001
0000
0100
0000
0010
1000
0010
1000
,
0100
0000
0001
0000
0010
0000
0100
0000
0010
0000
1000
0000
0010
0001
0010
0001
,
0100
0010
0001
1000
0100
0002
0023
0230
,
0301
0000
0010
0000
0100
0000
0001
0000
0010
0000
0100
0000
0001
1000
0001
1000
,
0100
0000
0001
0000
0010
0000
0100
0000
0001
0000
0100
0000
0010
1000
0010
1000
,
0001
0000
0010
0000
0100
0000
0010
0000
0001
0000
0100
0000
0010
0001
0010
0001
,
0100
0000
0010
0000
0100
0000
1000
0000
0010
0100
0010
1000
0001
0010
0100
0010
,
1001
0000
0100
0000
0010
0000
1000
0000
0100
0000
0010
0000
0100
0001
0100
0001
,
0010
0000
0100
0000
1000
0000
0010
0000
1000
0000
0010
0000
0100
0001
0100
0001
,
0010
0000
1000
0000
0100
0000
0010
0000
0100
0000
0001
0000
0100
1000
0100
1000
,
0002
0000
0203
0000
0320
0000
2030
0000
0000
0000
3001
0000
0100
0010
0100
0010
,
1001
0000
0100
0000
0010
0000
1000
0000
0100
0000
0010
0000
1000
0001
1000
0001
,
0110
0000
1001
0000
0010
0000
0100
0000
0001
0000
0010
0000
1000
0100
1000
0100
,
2002
0000
3013
0000
0100
0010
0100
0010
0100
0010
0100
0010
0100
0010
0100
0010
,
1000
0001
1000
0001
1000
0001
1000
0001
0100
0001
0010
0001
0100
0001
1000
0010
,
0200
0000
0000
0000
0000
0000
0000
0000
0000
0000
0000
0000
0300
0000
0000
0000
0020
0000
0000
0000
0000
0000
0000
0030
2000
0000
0000
0000
0000
0000
0000
3000
,
0200
0000
0000
0000
0000
0000
0000
0300
0002
0000
0000
0000
0000
0000
0000
0003
0220
0000
0000
0000
0000
0000
0000
0000
0000
0000
0000
0000
0000
0000
0330
0000
,
2002
0000
0000
0000
0220
0000
0000
3333
,
1000
0001
1000
0001
1000
0001
1000
0001
1000
0001
1000
0001
1000
0001
1000
0001
1000
0001
1000
0001
1000
0001
1000
0001
,
0100
0001
0100
0001
0100
0001
0100
0001
0100
0001
0100
0001
0100
0001
0100
0001
0100
0001
0100
0001
0100
0001
0100
0001
,
1000
0010
1000
0010
1000
0010
1000
0010
1000
0010
1000
0010
1000
0010
1000
0010
1000
0010
1000
0010
1000
0010
1000
0010
,
0100
0010
0100
0010
0100
0010
0100
0010
0100
0010
0100
0010
0100
0010
0100
0010
0100
0010
0100
0010
0100
0010
0100
0010
,
1000
0001
1000
0001
1000
0001
1000
0001
1000
0001
1000
0001
1000
0001
1000
0001
1000
0001
1000
0001
1000
0001
1000
0001
,
1000
0010
1000
0010
1000
0010
1000
0010
1000
0010
1000
0010
1000
0010
1000
0010
1000
0010
1000
0010
1000
0010
1000
0010
,
0001
0100
0001
0100
0001
0100
0001
0100
0001
0100
0001
0100
0001
0100
0001
0100
0001
0100
0001
0100
0001
0100
0001
0100
,
0001
1000
0001
1000
0001
1000
0001
1000
0001
1000
0001
1000
0001
1000
0001
1000
0001
1000
0001
1000
0001
1000
0001
1000
,
0010
0100
0010
0100
0010
0100
0010
0100
0010
0100
0010
0100
0010
0100
0010
0100
0010
0100
0010
0100
0010
0100
0010
0100
,
0001
1000
0001
1000
0001
1000
0001
1000
0001
1000
0001
1000
0001
1000
0001
1000
0001
1000
0001
1000
0001
1000
0001
1000
,
0001
0100
0001
0100
0001
0100
0001
0100
0001
0100
0001
0100
0001
0100
0001
0100
0001
0100
0001
0100
0001
0100
0001
0100
,
0010
1000
0010
1000
0010
1000
0010
1000
0010
1000
0010
1000
0010
1000
0010
1000
0010
1000
0010
1000
0010
1000
0010
1000
,
0001
0010
0001
0010
0001
0010
0001
0010
0001
0010
0001
0010
0001
0010
0001
0010
0001
0010
0001
0010
0001
0010
0001
0010
,
1000
0100
1000
0100
1000
0100
1000
0100
1000
0100
1000
0100
1000
0100
1000
0100
1000
0100
1000
0100
1000
0100
1000
0100
,
1000
0001
1000
0001
1000
0001
1000
0001
1000
0001
1000
0001
1000
0001
1000
0001
1000
0001
0100
0001
0100
0001
0100
0001
,
0100
0010
0100
0010
0100
0010
0100
0010
0100
0010
0100
0010
0100
0010
0100
0010
0100
0010
1000
0010
1000
0010
1000
0010
,
1000
0001
1000
0001
1000
0001
1000
0001
1000
0001
1000
0001
1000
0001
1000
0001
1000
0001
1000
0001
1000
0001
1000
0001
,
0100
0001
0100
0001
0100
0001
0100
0001
0100
0001
0100
0001
0100
0001
0100
0001
0100
0001
1000
0001
1000
0001
1000
0001
,
1000
0010
1000
0010
1000
0010
1000
0010
1000
0010
1000
0010
1000
0010
1000
0010
1000
0010
1000
0010
1000
0010
1000
0010
,
0100
0010
0100
0010
0100
0010
0100
0010
0100
0010
0100
0010
0100
0010
0100
0010
0100
0010
0100
0001
0100
0001
0100
0001
,
1000
0001
1000
0001
1000
0001
1000
0001
1000
0001
1000
0001
1000
0001
1000
0001
1000
0001
1000
0001
1000
0001
1000
0001
,
1000
0010
1000
0010
1000
0010
1000
0010
1000
0010
1000
0010
1000
0010
1000
0010
1000
0010
0100
0001
0100
0001
0100
0001
,
0100
0010
0100
0010
0100
0010
0100
0010
0100
0010
0100
0010
0100
0010
0100
0010
0100
0010
1000
0010
1000
0010
1000
0010
,
1000
0001
1000
0001
1000
0001
1000
0001
1000
0001
1000
0001
1000
0001
1000
0001
1000
0001
0010
0001
0010
0001
0010
0001
,
0100
0010
0100
0010
0100
0010
0100
0010
0100
0010
0100
0010
0100
0010
0100
0010
0100
0010
0100
0010
0100
0010
0100
0010
,
1000
0001
1000
0001
1000
0001
1000
0001
1000
0001
1000
0001
1000
0001
1000
0001
1000
0001
0010
0001
0010
0001
0010
0001
,
1000
0010
1000
0010
1000
0010
1000
0010
1000
0010
1000
0010
1000
0010
1000
0010
1000
0010
1000
0010
1000
0010
1000
0010
,
1000
0001
1000
0001
1000
0001
1000
0001
1000
0001
1000
0001
1000
0001
1000
0001
1000
0001
1000
0010
1000
0010
1000
0010
,
0001
0100
0001
0100
0001
0100
0001
0100
0001
0100
0001
0100
0001
0100
0001
0100
0001
0100
0001
0100
0001
0100
0001
0100
,
0001
1000
0001
1000
0001
1000
0001
1000
0001
1000
0001
1000
0001
1000
0001
1000
0001
1000
0100
1000
0100
1000
0100
1000
,
0010
0100
0010
0100
0010
0100
0010
0100
0010
0100
0010
0100
0010
0100
0010
0100
0010
0100
0001
0010
0001
0010
0001
0010
,
1001
0100
1001
0001
1010
0010
0101
0100
1001
1000
0110
0001
1010
0100
1001
0010
,
0102
1000
0010
0100
1000
0010
0100
1000
,
0213
1000
0010
0001
1000
0010
0001
0010
,
2301
0100
0010
0001
0100
0010
0001
0100
,
3021
0100
1000
0001
0100
1000
0001
0100
,
2130
0010
0001
0100
0010
0001
0100
0010
,
3012
0100
1000
0010
0100
1000
0010
0100
,
1003
0000
0100
0000
0010
0000
1000
0000
0100
0000
0010
0000
0100
0001
1000
0000
,
0010
0000
0100
0000
0001
0000
1000
0000
0010
0000
0001
0000
0100
0010
1000
0000
,
0101
0001
0000
0101
0001
0000
0101
0001
,
1000
0010
0100
0010
0010
0100
1001
0010
,
0101
0100
0000
0101
0100
0000
0101
0100
,
0001
0000
1010
0000
1000
0000
0100
0000
1010
0000
0010
0000
0100
0001
1000
0001
,
0110
0010
0000
0110
0010
0000
0110
0010
,
1000
1001
0001
0110
1000
0101
0020
0030
,
0002
1000
1003
0200
0010
0310
2000
3001
,
0110
1000
0001
0100
1000
0001
0100
0001
,
2200
0000
0000
0000
,
0000
0000
0000
0000
0000
0000
0000
0300
,
3022
0000
0000
0000
,
2030
0000
3200
0000
,
2323
0000
0000
0000
0000
0000
0032
0000
0000
0000
0000
0000
0203
0000
0300
3000
,
2020
0000
0000
3200
0000
0000
2030
0000
,
0000
0000
0000
0000
,
3302
0000
0000
0000
,
0013
1000
0100
0002
,
0000
0000
0000
0000
,
0103
1000
0020
0000
,
0232
0000
2300
0000
,
3223
0000
0000
2300
0000
0000
3200
0330
,
2002
0000
0000
0000
0000
0000
0200
3303
,
0020
0000
0000
0000
0100
1000
0100
0001
,
2130
0000
3002
0000
,
0223
0000
0000
0330
1000
0100
0010
0001
,
0010
1000
0100
0001
0200
0000
0000
0300
,
2020
0000
0000
0000
0000
0030
0020
0000
,
0000
0000
0000
0030
0020
0000
0000
0030
,
3202
0000
0000
0000
,
2300
0000
0000
0000
,
0000
0000
0000
0000
,
0000
0000
0000
0000
0000
0000
0000
3003
,
0220
0000
0000
0000
,
0000
0000
0000
0000
,
0300
0000
0000
0000
,
0000
0000
0000
0000
,
0030
0000
0000
0000
;
