#TITLE:Dumpstream;
#SUBTITLE:EXoduz Violation II;
#ARTIST:Kommisar;
#TITLETRANSLIT:;
#SUBTITLETRANSLIT:;
#ARTISTTRANSLIT:;
#CREDIT:;
#BANNER:../Banner.png;
#BACKGROUND:../Background.png;
#LYRICSPATH:;
#CDTITLE:;
#MUSIC:Dumpstream.OGG;
#OFFSET:-0.055;
#SAMPLESTART:90.000;
#SAMPLELENGTH:13.620;
#SELECTABLE:YES;
#DISPLAYBPM:540.000;
#BPMS:0.000=402.002,510.000=456.000,512.000=490.002,766.000=562.000,768.000=540.000;
#STOPS:;
#BGCHANGES:;
// cache tags:
#FIRSTBEAT:0.000;
#LASTBEAT:1060.000;
#SONGFILENAME:Songs/EXoduz Violation II/Dumpstream - [Ov3rHell3XoduZ]/Dumpstream.SM;
#HASMUSIC:1;
#HASBANNER:1;
#MUSICLENGTH:140.747;
// end cache tags

//---------------dance-single - ----------------
#NOTES:
     dance-single:
     :
     Beginner:
     12:
     1.000,1.000,0.014,1.000,0.171,1027.000,2.000,189.000,0.000,0.000:

0000
0000
0000
0000
,
0000
0000
0000
0000
,
1000
0001
1000
0010
,
0100
0001
0010
0100
,
1000
0001
1000
0010
,
0100
0001
0010
0100
,
1000
0001
1000
0010
,
0100
0001
0010
0100
,
1000
0001
1000
0010
0100
0001
0010
0100
,
1000
0001
1000
0010
0100
0001
0010
0100
,
1000
0001
1000
0010
,
0100
0001
0010
0100
,
1000
0001
0100
0001
,
1000
0010
0100
0001
,
0010
0100
1000
0001
,
1000
0001
1000
0010
,
0100
0001
1000
0010
0100
0001
0010
0100
,
1000
0001
0100
0001
1000
0010
0100
0001
,
1000
0001
1000
0010
,
0100
0001
0010
0100
,
1000
0001
0100
0010
,
1000
0001
1000
0010
,
0100
0001
0010
0100
,
1000
0100
0010
0001
,
1000
0001
1000
0010
0100
0001
0010
0100
,
1000
0001
0100
0001
1000
0010
0100
0001
,
0010
0100
1000
0100
,
0010
0001
1000
0010
,
0100
0001
0010
0100
,
1000
0001
0100
0001
,
1000
0010
0100
0001
,
0010
0100
1000
0001
,
1000
0001
1000
0010
0100
0001
0010
0100
,
1000
0001
0100
0001
1000
0010
0100
0001
,
0010
0100
1000
0001
,
0100
0001
1000
0010
,
0100
0001
0010
0100
,
1000
0001
0100
0010
,
1000
0100
0010
0001
,
1000
0010
0100
0001
,
0020
0030
0010
0100
,
2000
3000
1000
0001
,
0100
0010
1000
0010
,
0100
0010
1000
0010
,
0100
0001
0100
0010
,
0100
0001
0100
0010
,
0100
0001
0010
0100
,
1000
0100
0010
0001
,
0020
0030
0100
1000
,
0020
0030
0010
0100
,
0001
1000
0010
1000
,
0001
1000
0010
1000
,
0001
0100
0001
1000
,
0001
0100
0001
1000
,
0001
0010
0100
0010
,
0001
0010
0100
0010
,
0001
1000
0010
0100
0001
0010
0100
1000
,
0001
0100
0001
1000
0010
0100
0002
0000
,
1003
0100
0010
0001
1000
0010
0100
0001
,
0010
0001
1000
0100
0010
0001
2000
0000
,
3010
0100
0001
0010
0001
1000
0100
0010
,
0001
1000
0001
0010
0100
1000
0020
0000
,
0130
0001
1000
0001
,
1000
0001
0010
0100
,
1000
0001
0100
0001
0010
0100
1000
0010
,
0100
0001
0010
0001
1000
0100
0020
0000
,
0031
1000
0001
0100
0001
1000
0010
0100
,
0001
0010
0100
1000
0001
0100
0020
0000
,
1030
0100
0010
0001
0010
0100
1000
0001
,
0100
0010
1000
0001
0100
0001
2000
0000
,
3001
0100
0020
0030
,
1000
0100
0020
0000
,
0032
2003
3020
0230
,
0302
0023
0230
2300
,
3002
0203
0302
0023
,
0230
2300
3002
0203
,
0320
2030
3200
0320
,
0032
2003
3002
0023
,
0230
2300
3020
0230
,
0302
0023
0230
2300
,
3002
0000
1003
0010
,
0200
0000
0301
0010
,
0200
0300
1000
0000
0001
0000
0100
0000
,
0001
0010
0100
1000
,
0020
0030
0100
0000
0001
0000
0010
0000
,
0001
1000
0100
0010
,
0002
0003
1000
0000
0010
0000
0100
0000
,
0001
0010
0001
1000
,
0200
0000
0000
0300
0100
0000
0010
0000
,
0002
0000
0000
0003
0001
0000
1000
0000
,
0020
0030
0100
0000
0001
0000
0010
0000
,
0100
1000
0001
0100
,
0002
0003
1000
0000
0100
0000
0010
0000
,
0001
1000
0010
0100
,
0002
0003
0010
0000
0001
0000
1000
0000
,
0100
0010
0001
1000
,
0020
0000
0130
0002
,
0000
0013
0200
0000
,
2300
0000
3001
0200
,
0000
0300
0100
0000
0020
0000
0000
0000
,
2030
0000
3100
0020
,
0000
0030
0010
0000
0002
0000
0000
0000
,
2003
0000
3010
0200
,
0000
0300
0100
0000
0002
0000
0000
0000
,
0023
0000
0130
2000
,
0000
0000
3010
0000
0200
0000
0000
0300
,
0200
0000
0301
0020
,
0000
0000
0130
0000
2000
0000
0000
3000
,
2000
0000
3010
0200
,
0000
0301
0020
0000
,
0230
0000
1300
0020
,
0000
0130
0002
0000
,
1003
0001
0100
0010
1000
0100
0010
0001
,
1000
0010
0100
0001
0010
0100
2000
0000
,
3001
1000
0010
0100
0001
0010
0100
1000
,
0100
1000
0010
0100
0001
1000
0002
0000
,
1003
0010
0100
0001
0010
0100
1000
0001
,
0100
0010
1000
0100
0010
0001
1000
0000
,
0002
0203
0302
2003
,
3020
2030
3002
0203
,
0301
1000
0010
0100
0001
0010
0100
1000
,
0100
1000
0010
0100
0001
1000
0002
0000
,
1003
0010
0100
0001
0010
0100
1000
0001
,
0100
0010
1000
0100
0010
0001
2000
0000
,
3001
1000
0010
0100
0001
0010
0100
1000
,
0100
1000
0010
0100
0010
0100
0020
0000
,
0130
0001
0020
0000
,
0130
1000
0002
0000
,
1003
0001
1000
0001
,
0100
0010
1000
0100
,
0010
0001
1000
0010
,
0100
0001
0010
0100
,
1000
0001
0100
0001
,
1000
0001
1000
0010
,
0100
0001
0010
0100
,
1000
0001
0100
0010
,
1000
0100
0010
0001
,
0010
0001
1000
0010
,
0100
0001
0010
0100
,
1000
0001
0100
0010
,
1000
0100
0010
0001
,
1000
0010
1000
0010
,
0100
0001
0010
0100
,
1000
0001
0100
0001
,
2000
0000
3200
0000
,
0320
0000
0032
0000
,
0203
0000
0320
0000
,
2030
0000
3200
0000
,
0320
0000
0032
0000
,
2003
0000
3020
0000
,
0230
0000
0302
0000
,
0023
0000
0230
0000
,
2300
3000
0000
0002
0003
0000
2000
3000
0000
0020
0030
0000
,
0200
0300
0000
0002
0003
0000
0020
0030
0000
0200
0300
0000
,
2000
3000
0000
0200
0300
0000
0020
0030
0000
0002
0003
0000
,
2000
3000
0000
0020
0030
0000
0200
0300
0000
0002
0003
0000
,
0020
0030
0000
0200
0300
0000
2000
3000
0000
0002
0003
0000
,
0200
0300
0000
0002
0003
0000
2000
3000
0000
0020
0030
0000
,
0200
0300
0000
0002
0003
0000
0020
0030
0000
0200
0300
0000
,
2000
3000
0000
0002
0003
0000
0200
0300
0000
0020
0030
0000
,
1000
0000
0100
0000
1000
0000
0100
0000
1000
0000
0001
0000
,
0100
0000
0001
0000
0010
0000
0001
0000
1000
0000
0100
0000
,
1000
0000
0001
0000
0100
0000
0001
0000
0100
0000
0001
0000
,
0010
0000
0001
0000
1000
0000
0100
0000
1000
0000
0001
0000
,
1000
0000
0001
0000
0100
0000
0001
0000
1000
0000
0100
0000
,
1000
0000
0001
0000
0100
0000
0001
0000
0010
0000
0001
0000
,
1000
0000
0100
0000
0020
0000
0000
0030
,
0001
0000
0010
0000
0200
0000
0000
0300
,
1000
0000
0010
0000
0100
0000
0001
0000
1000
0000
0001
0000
,
0010
0000
0001
0000
1000
0000
0100
0000
1000
0000
0001
0000
,
0010
0000
0100
0000
1000
0000
0001
0000
0100
0000
0001
0000
,
0100
0000
0010
0000
1000
0000
0010
0000
1000
0000
0100
0000
,
0010
0000
0001
0000
0010
0000
0001
0000
1000
0000
0100
0000
,
1000
0000
0001
0000
0010
0000
0100
0000
1000
0000
0001
0000
,
1000
0001
0020
0000
,
0130
1000
0020
0000
,
0230
0000
0302
0000
,
0023
0000
0230
0000
,
2300
0000
3002
0000
,
0203
0000
0320
0000
,
2030
0000
3200
0000
,
0320
0000
0032
0000
,
2003
0000
3200
0000
,
0320
0000
0032
0000
,
2003
0000
3020
0000
,
0230
0000
0302
0000
,
0023
0000
0230
0000
,
2300
0000
3002
0000
,
0203
0000
0320
0000
,
2030
0000
3200
0000
,
2300
0000
3020
0000
,
0230
0000
0302
0000
,
0013
0100
1000
0100
,
1000
0100
1000
0010
,
0100
0010
0100
0001
,
0100
0001
1000
0010
,
1000
0010
0100
0010
,
0100
0001
0100
0001
,
1000
0010
0100
0001
,
0010
0100
1000
0001
,
0100
0001
1000
0010
,
0100
0001
0010
0100
,
1000
0001
1000
0001
,
1000
0010
0100
0001
,
0010
0100
1000
0001
,
0100
0001
1000
0010
,
0100
0001
0010
0100
,
1000
0001
1000
0001
,
1001
1000
0100
0010
,
0001
1000
0010
0100
,
0001
0010
0100
1000
,
0001
0100
0010
1000
,
0100
0010
0001
1000
,
0001
0100
0010
1000
,
0100
0010
0001
0010
,
0001
1000
0100
0010
,
0001
1000
0010
1000
,
0010
0100
0001
0010
,
0100
1000
0001
0100
,
0001
1000
0100
0010
,
0001
1000
0010
1000
,
0100
0010
0001
1000
,
0001
0100
0010
1000
,
0100
1000
0100
0010
,
0001
1000
0010
0100
,
0001
0010
0200
0000
,
1300
0001
0100
0001
,
1000
0100
0020
0000
,
0031
1000
0010
0100
,
0001
0010
0002
0000
,
1003
0000
0010
0000
0200
0000
0000
0300
,
0100
0000
0001
0000
0020
0000
0000
0030
,
0010
0100
1000
0001
,
0010
0100
2000
0000
,
3010
0100
0001
0010
,
0100
1000
0002
0000
,
1003
0010
0100
0001
,
0010
0100
2000
0000
,
3010
0000
0100
0000
0002
0000
0000
0003
,
0001
0010
0200
0000
,
1300
0000
0100
0000
,
0010
0000
0001
0000
,
1000
0000
0010
0000
,
1000
0000
0001
0000
,
0100
0000
0001
0000
,
1000
0000
0010
0000
,
0100
0000
0010
0000
,
1000
0000
0100
0000
,
0010
0000
0001
0000
,
1000
0000
0001
0000
,
1000
0000
0010
0000
,
0100
0000
0001
0000
,
0010
0000
0100
0000
,
1000
0000
0001
0000
,
0100
0000
0001
0000
,
1000
0000
0001
0000
,
2002
0000
0000
0000
,
0000
0000
0000
0000
,
0000
0000
0000
0000
,
0000
0000
0000
0000
,
0000
0000
0000
0000
,
0000
0000
0000
0000
,
0000
0000
0000
0000
,
0000
0000
0000
0000
,
0000
0000
0000
0000
,
3003
0000
0000
0000
;

//---------------dance-single - ----------------
#NOTES:
     dance-single:
     :
     Easy:
     13:
     1.000,1.000,0.014,1.000,0.227,1115.000,2.000,230.000,0.000,0.000:

0000
0000
0000
0000
,
0000
0000
0000
0000
,
1000
0001
1000
0010
,
0100
0001
0010
0100
,
1000
0001
1000
0010
,
0100
0001
0010
0100
,
1000
0001
1000
0010
,
0100
0001
0010
0100
,
1000
0001
1000
0010
0100
0001
0010
0100
,
1000
0001
1000
0010
0100
0001
0010
0100
,
1000
0001
1000
0010
,
0100
0001
0010
0100
,
1000
0001
0100
0001
,
1000
0010
0100
0001
,
0010
0100
1000
0001
,
1000
0001
1000
0010
,
0100
0001
1000
0010
0100
0001
0010
0100
,
1000
0001
0100
0001
1000
0010
0100
0001
,
1000
0001
1000
0010
,
0100
0001
0010
0100
,
1000
0001
0100
0010
,
1000
0001
1000
0010
,
0100
0001
0010
0100
,
1000
0100
0010
0001
,
1000
0001
1000
0010
0100
0001
0010
0100
,
1000
0001
0100
0001
1000
0010
0100
0001
,
0010
0100
1000
0100
,
0010
0001
1000
0010
,
0100
0001
0010
0100
,
1000
0001
0100
0001
,
1000
0010
0100
0001
,
0010
0100
1000
0001
,
1000
0001
1000
0010
0100
0001
0010
0100
,
1000
0001
0100
0001
1000
0010
0100
0001
,
0010
0100
1000
0001
0100
0001
1000
0100
,
0010
0001
1000
0010
1000
0001
0100
0001
,
0010
0100
1000
0001
0100
0001
1000
0100
,
0010
0001
1000
0010
1000
0100
0010
0001
,
0100
0001
1000
0100
1000
0001
0010
0100
,
1000
0001
1000
0100
0010
0001
1000
0010
,
2000
0000
3010
0100
,
0002
0000
1003
0001
,
0100
0010
1000
0010
,
0100
0010
1000
0010
,
0100
0001
0100
0010
,
0100
0001
0100
0010
,
0100
0001
0010
0100
,
1000
0100
0010
0001
,
0020
0000
0130
1000
,
0020
0030
0010
0100
,
0001
1000
0010
1000
,
0001
1000
0010
1000
,
0001
0100
0001
1000
,
0001
0100
0001
1000
,
0001
0010
0100
0010
,
0001
0010
0100
0010
,
0001
1000
0010
0100
0001
0010
0100
1000
,
0001
0100
0001
1000
0010
0100
0001
0010
,
0100
1000
0001
0100
0001
1000
0100
0010
,
0001
1000
0010
1000
0100
0010
0001
0100
,
0001
1000
0100
0010
0001
1000
0001
0010
,
0100
1000
0001
0100
0001
1000
0100
1000
,
0001
1000
0010
0100
,
0001
0010
0100
1000
,
0001
1000
0010
0100
0001
0010
0001
1000
,
0100
0010
0001
1000
0100
1000
0001
0100
,
0010
1000
0100
1000
0001
0010
0100
1000
,
0001
0100
0001
1000
0100
0010
0001
1000
,
0010
1000
0100
0010
0001
0100
0001
0010
,
0100
1000
0001
0100
0001
1000
0100
0010
,
0001
0100
0020
0030
,
1000
0100
0020
0000
,
0032
2003
3020
0230
,
0302
0023
0230
2300
,
3002
0203
0302
0023
,
0230
2300
3002
0203
,
0320
2030
3200
0320
,
0032
2003
3002
0023
,
0230
2300
3020
0230
,
0302
0023
0230
2300
,
3002
0000
1003
0010
,
0200
0000
0301
0010
,
0200
0300
1000
0000
0001
0000
0100
0000
,
0001
0010
0100
1000
,
0020
0030
0100
0000
0001
0000
0010
0000
,
0001
1000
0100
0010
,
0002
0003
1000
0000
0010
0000
0100
0000
,
0001
0010
0001
1000
,
0200
0000
0000
0300
0100
0000
0010
0000
,
0002
0000
0000
0003
0001
0000
1000
0000
,
0020
0030
0100
0000
0001
0000
0010
0000
,
0100
1000
0001
0100
,
0002
0003
1000
0000
0100
0000
0010
0000
,
0001
1000
0010
0100
,
0002
0003
0010
0000
0001
0000
1000
0000
,
0100
0010
0001
1000
,
0020
0230
0302
0023
,
0230
2300
3002
2003
,
3020
0230
0302
0023
,
0230
2300
3002
2003
,
3020
0230
0302
0023
,
0230
2300
3020
0230
,
0302
2003
3200
2300
,
3002
0023
0230
2300
,
3200
0320
0032
2003
,
3002
0203
0320
2030
,
3200
0320
0032
2003
,
3020
2030
3002
0023
,
0032
2003
3200
0320
,
0032
2003
3002
0203
,
0320
2030
3200
2300
,
3002
0023
0230
2300
,
3010
0100
0001
0010
0100
1000
0001
0100
,
0001
1000
0100
0010
0001
1000
0010
1000
,
0100
0010
0001
0100
0001
0010
0100
1000
,
0001
1000
0100
1000
0010
0100
0001
0010
,
0001
1000
0100
0010
0001
1000
0001
0010
,
0100
1000
0001
0100
0001
1000
0100
0010
,
0002
0203
0302
2003
,
3020
2030
3002
0203
,
0301
0010
0100
1000
0001
0100
0001
1000
,
0100
0010
0001
1000
0010
1000
0100
0010
,
0001
0100
0001
0010
0100
1000
0001
0100
,
0001
1000
0100
1000
0001
0010
0100
1000
,
0001
0100
0001
1000
0100
0010
0001
1000
,
0010
1000
0100
0010
0001
0100
0001
0010
,
0100
1000
0020
0000
,
0130
0001
0020
0000
,
0130
1000
0010
0100
,
0001
0010
0100
1000
,
0010
0100
0010
1000
,
0100
0010
0100
1000
,
0010
0100
0001
0010
,
0100
0010
0001
0100
,
0001
0010
0100
1000
,
0001
0100
0001
1000
,
0100
0010
0001
1000
,
0001
0010
0100
1000
,
0010
0100
0010
1000
,
0100
0010
0001
0100
,
0001
0010
0100
0010
,
0001
0100
0001
0100
,
0010
1000
0100
0010
,
0001
1000
0001
0010
,
0200
0300
0000
2000
3000
0000
0020
0030
0000
0200
0300
0000
,
0002
0003
0000
0020
0030
0000
0200
0300
0000
2000
3000
0000
,
0002
0003
0000
2000
3000
0000
0200
0300
0000
0020
0030
0000
,
0002
0003
0000
2000
3000
0000
0020
0030
0000
2000
3000
0000
,
0200
0300
0000
0020
0030
0000
0002
0003
0000
0200
0300
0000
,
0002
0003
0000
0020
0030
0000
0200
0300
0000
0200
0300
0000
,
2000
3000
0000
0020
0030
0000
0200
0300
0000
0002
0003
0000
,
0002
0003
0000
2000
3000
0000
0200
0300
0000
2000
3000
0000
,
2000
3000
0000
0002
0003
0000
2000
3000
0000
0020
0030
0000
,
0200
0300
0000
0002
0003
0000
0020
0030
0000
0200
0300
0000
,
2000
3000
0000
0200
0300
0000
0020
0030
0000
0002
0003
0000
,
2000
3000
0000
0020
0030
0000
0200
0300
0000
0002
0003
0000
,
0020
0030
0000
0200
0300
0000
2000
3000
0000
0002
0003
0000
,
0200
0300
0000
0002
0003
0000
2000
3000
0000
0020
0030
0000
,
0200
0300
0000
0002
0003
0000
0020
0030
0000
0200
0300
0000
,
2000
3000
0000
0002
0003
0000
0200
0300
0000
0020
0030
0000
,
1000
0000
0100
0000
0010
0000
0001
0000
1000
0000
0010
0000
,
1000
0000
0100
0000
0010
0000
0001
0000
0100
0000
0001
0000
,
0010
0000
0100
0000
1000
0000
0001
0000
1000
0000
0100
0000
,
0010
0000
0001
0000
1000
0000
0010
0000
0100
0000
0001
0000
,
1000
0000
0100
0000
1000
0000
0001
0000
0010
0000
0100
0000
,
1000
0000
0001
0000
0100
0000
0001
0000
0010
0000
0100
0000
,
1000
0000
0010
0000
1000
0000
0100
0000
0010
0000
0001
0000
,
0100
0000
0001
0000
1000
0000
0010
0000
0100
0000
0001
0000
,
0010
0000
0100
0000
1000
0000
0001
0000
0100
0000
0001
0000
,
1000
0000
0100
0000
0010
0000
0001
0000
1000
0000
0010
0000
,
1000
0000
0001
0000
0100
0000
0001
0000
1000
0000
0100
0000
,
1000
0000
0001
0000
0010
0000
0100
0000
1000
0000
0100
0000
,
0010
0000
0001
0000
1000
0000
0010
0000
1000
0000
0100
0000
,
0010
0000
0001
0000
0100
0000
0001
0000
0010
0000
0100
0000
,
1000
0000
0001
0000
1000
0000
0100
0000
0010
0000
0001
0000
,
1000
0000
0010
0000
1000
0000
0100
0000
0010
0000
0001
0000
,
0200
0000
0302
0000
,
0023
0000
0230
0000
,
2300
0000
3002
0000
,
0203
0000
0320
0000
,
2030
0000
3200
0000
,
0320
0000
0032
0000
,
2003
0000
3200
0000
,
0320
0000
0032
0000
,
2003
0000
3020
0000
,
0230
0000
0302
0000
,
0023
0000
0230
0000
,
2300
0000
3002
0000
,
0203
0000
0320
0000
,
2030
0000
3200
0000
,
2300
0000
3020
0000
,
0230
0000
0302
0000
,
0013
0100
1000
0100
,
1000
0100
1000
0010
,
0100
0010
0100
0001
,
0100
0001
1000
0010
,
1000
0010
0100
0010
,
0100
0001
0100
0001
,
1000
0010
0100
0001
,
0010
0100
1000
0001
,
0100
0001
1000
0010
,
0100
0001
0010
0100
,
1000
0001
1000
0001
,
1000
0010
0100
0001
,
0010
0100
1000
0001
,
0100
0001
1000
0010
,
0100
0001
0010
0100
,
1000
0001
1000
0001
,
1001
1000
0100
0010
,
0001
1000
0010
0100
,
0001
0010
0100
1000
,
0001
0100
0010
1000
,
0100
0010
0001
1000
,
0001
0100
0010
1000
,
0100
0010
0001
0010
,
0001
1000
0100
0010
,
0001
1000
0010
1000
,
0010
0100
0001
0010
,
0100
1000
0001
0100
,
0001
1000
0100
0010
,
0001
1000
0010
1000
,
0100
0010
0001
1000
,
0001
0100
0010
1000
,
0100
1000
0100
0010
,
0001
1000
0010
0100
,
0001
0010
0200
0000
,
1300
0001
0100
0001
,
1000
0100
0020
0000
,
0031
1000
0010
0100
,
0001
0010
0002
0000
,
1003
0000
0010
0000
0200
0000
0000
0300
,
0100
0000
0001
0000
0020
0000
0000
0030
,
0010
0100
1000
0001
,
0010
0100
2000
0000
,
3010
0100
0001
0010
,
0100
1000
0002
0000
,
1003
0010
0100
0001
,
0010
0100
2000
0000
,
3010
0000
0100
0000
0002
0000
0000
0003
,
0001
0010
0200
0000
,
1300
0000
0100
0000
,
0010
0000
0001
0000
,
1000
0000
0010
0000
,
1000
0000
0001
0000
,
0100
0000
0001
0000
,
1000
0000
0010
0000
,
0100
0000
0010
0000
,
1000
0000
0100
0000
,
0010
0000
0001
0000
,
1000
0000
0001
0000
,
1000
0000
0010
0000
,
0100
0000
0001
0000
,
0010
0000
0100
0000
,
1000
0000
0001
0000
,
0100
0000
0001
0000
,
1000
0000
0001
0000
,
2002
0000
0000
0000
,
0000
0000
0000
0000
,
0000
0000
0000
0000
,
0000
0000
0000
0000
,
0000
0000
0000
0000
,
0000
0000
0000
0000
,
0000
0000
0000
0000
,
0000
0000
0000
0000
,
0000
0000
0000
0000
,
3003
0000
0000
0000
;

//---------------dance-single - ----------------
#NOTES:
     dance-single:
     :
     Medium:
     15:
     1.000,1.000,0.078,1.000,0.796,1421.000,11.000,190.000,0.000,0.000:
1000
0100
0010
0001
1000
0010
1000
0100
,
0010
0001
1000
0001
0010
0100
1000
0001
,
0100
0001
1000
0100
0010
0001
1000
0010
,
1000
0100
0010
0001
1000
0001
0010
0100
,
1000
0001
0100
0001
1000
0100
0010
0100
,
1000
0001
0010
0100
0010
0001
1000
0100
,
1000
0010
0100
0001
0010
0001
1000
0100
,
0010
0001
1000
0001
0010
0100
1000
0001
,
0100
0001
0010
0100
1000
0001
1000
0010
,
1000
0100
0010
0001
0100
0001
1000
0001
,
0010
0001
1000
0100
0010
0001
1000
0100
,
1000
0001
1000
0010
0100
0001
0100
0010
,
1000
0100
1000
0001
1000
0010
0100
0001
,
0010
0001
1000
0001
0100
0001
0010
0001
,
1000
0100
0010
0001
1000
0001
0010
0100
,
1000
0001
1000
0100
1000
0010
1000
0100
,
0010
0001
1000
0001
0100
0001
0010
0100
,
1000
0010
0100
0010
1000
0100
0010
0100
,
1000
0001
0100
0001
0010
0100
1000
0001
,
1000
0010
0100
0001
1000
0010
0100
0001
,
0010
0100
1000
0001
0100
0001
1000
0100
,
0010
0001
1000
0001
0010
0100
0010
0001
,
1000
0010
1000
0100
0010
0100
1000
0010
,
0100
0010
1000
0100
0010
0100
1000
0001
,
0100
0001
0010
0100
1000
0001
0100
0001
,
0010
0100
1000
0010
1000
0100
0010
0001
,
0100
0001
1000
0100
0010
0001
1000
0001
,
0010
0100
1000
0010
0100
0001
0010
0001
,
1000
0100
0010
0001
1000
0001
0010
0100
,
1000
0010
0100
0001
0010
0001
1000
0100
,
0010
0100
1000
0001
0100
0001
1000
0100
,
1000
0001
0010
0001
1000
0010
1000
0100
,
1000
0001
1000
0010
1000
0100
0010
0001
,
0100
0001
0010
0001
1000
0001
0100
0010
,
1000
0100
0010
0001
1000
0001
0010
0100
,
1000
0001
0100
0001
0010
0100
1000
0001
,
0100
0001
1000
0100
0010
0001
1000
0010
,
1000
0100
0010
0001
0100
0001
0010
0100
,
1000
0001
0010
0100
1000
0001
0010
0100
,
1000
0001
0100
0001
0010
0100
1000
0001
,
2000
0000
3010
0100
,
0002
0000
1003
0001
,
0100
0010
1000
0010
,
0100
0010
1000
0010
,
0100
0001
0100
0010
,
0100
0001
0100
0010
,
0100
0001
0010
0100
,
1000
0100
0010
0001
,
0020
0000
0130
1000
,
0020
0030
0010
0100
,
0001
1000
0010
1000
,
0001
1000
0010
1000
,
0001
0100
0001
1000
,
0001
0100
0001
1000
,
0001
0010
0100
0010
,
0001
0010
0100
0010
,
0001
1000
0010
0100
0001
0010
0100
1000
,
0001
0100
0001
1000
0010
0100
0001
0010
,
0100
1000
0001
0100
0001
1000
0100
0010
,
0001
1000
0010
1000
0100
0010
0001
0100
,
0001
1000
0100
0010
0001
1000
0001
0010
,
0100
1000
0001
0100
0001
1000
0100
1000
,
0001
1000
0010
0100
,
0001
0010
0100
1000
,
0001
1000
0010
0100
0001
0010
0001
1000
,
0100
0010
0001
1000
0100
1000
0001
0100
,
0010
1000
0100
1000
0001
0010
0100
1000
,
0001
0100
0001
1000
0100
0010
0001
1000
,
0010
1000
0100
0010
0001
0100
0001
0010
,
0100
1000
0001
0100
0001
1000
0100
0010
,
0001
0100
0020
0030
,
1000
0100
0020
0000
,
0032
2003
3020
0230
,
0302
0023
0230
2300
,
3002
0203
0302
0023
,
0230
2300
3002
0203
,
0320
2030
3200
0320
,
0032
2003
3002
0023
,
0230
2300
3020
0230
,
0302
0023
0230
2300
,
3002
0000
1003
0010
,
0210
0000
0301
0010
,
1200
0300
1000
0000
0001
0000
0100
0000
,
0001
0010
0100
1000
,
0120
0030
0100
0000
0001
0000
0010
0000
,
0001
1000
0100
0010
,
1002
0003
1000
0000
0010
0000
0100
0000
,
0001
0010
0001
1000
,
0210
0000
0000
0300
0100
0000
0010
0000
,
0012
0000
0000
0003
0001
0000
1000
0000
,
1020
0030
0100
0000
0001
0000
0010
0000
,
0100
1000
0001
0100
,
1002
0003
1000
0000
0100
0000
0010
0000
,
0001
1000
0010
0100
,
0012
0003
0010
0000
0001
0000
1000
0000
,
0100
0010
0001
1000
,
0120
0230
0302
0023
,
0230
2300
3002
2003
,
3020
0230
0302
0023
,
0230
2300
3002
2003
,
3020
0230
0302
0023
,
0230
2300
3020
0230
,
0302
2003
3200
2300
,
3002
0023
0230
2300
,
3200
0320
0032
2003
,
3002
0203
0320
2030
,
3200
0320
0032
2003
,
3020
2030
3002
0023
,
0032
2003
3200
0320
,
0032
2003
3002
0203
,
0320
2030
3200
2300
,
3002
0023
0230
2300
,
3010
0100
0001
0010
0001
1000
0100
0010
,
0001
1000
0001
0010
0100
1000
0010
0100
,
0001
0010
0001
1000
0100
0010
0001
1000
,
0010
1000
0100
0010
0001
0100
0001
1000
,
0100
0010
0001
1000
0001
0010
0100
1000
,
0001
0100
0001
1000
0100
0010
0001
1000
,
0010
1000
0100
0010
0001
0100
0001
0010
,
0100
1000
0001
1000
0100
1000
0001
0010
,
0100
1000
0001
1000
0100
0010
0001
1000
,
0010
1000
0100
0010
0001
0100
0001
0010
,
0100
1000
0001
1000
0010
0100
0001
0010
,
0001
1000
0100
0010
0100
1000
0001
0100
,
0001
1000
0100
0010
0001
1000
0001
0010
,
0100
1000
0010
0100
0001
0010
0001
1000
,
0100
0010
0001
1000
0001
0010
0100
1000
,
0010
0100
0001
0010
0001
1000
0100
0010
,
0100
0000
1000
0000
0010
0000
0100
0000
0001
0000
0010
0000
,
0100
0000
1000
0000
0001
0000
0100
0000
0001
0000
1000
0000
,
0100
0000
0010
0000
0001
0000
1000
0000
0001
0000
0010
0000
,
0100
0000
1000
0000
0001
0000
0100
0000
0001
0000
1000
0000
,
0100
0000
1000
0000
0001
0000
0010
0000
0100
0000
0010
0000
,
0001
0000
0100
0000
0001
0000
0010
0000
0100
0000
1000
0000
,
0001
0000
0100
0000
0001
0000
1000
0000
0100
0000
0010
0000
,
0100
0000
1000
0000
0010
0000
0100
0000
0010
0000
1000
0000
,
0100
0000
0010
0000
0100
0000
1000
0000
0001
0000
0100
0000
,
0001
0000
1000
0000
0100
0000
0010
0000
0001
0000
0100
0000
,
0001
0000
0010
0000
0100
0000
0010
0000
0001
0000
1000
0000
,
0001
0000
0010
0000
0100
0000
1000
0000
0001
0000
0100
0000
,
0001
0000
1000
0000
0100
0000
0010
0000
0001
0000
1000
0000
,
0010
0000
1000
0000
0001
0000
0100
0000
0001
0000
1000
0000
,
0100
0000
0010
0000
0001
0000
1000
0000
0010
0000
1000
0000
,
0001
0000
0100
0000
0001
0000
1000
0000
0100
0000
0010
0000
,
0002
0000
1003
0000
0010
0000
1000
0000
0001
0000
0100
0000
,
0001
0000
0010
0000
0100
0000
1000
0000
0001
0000
1000
0000
,
0010
0000
0100
0000
0001
0000
1000
0000
0100
0000
0010
0000
,
0001
0000
1000
0000
0001
0000
0010
0000
0100
0000
1000
0000
,
0001
0000
0100
0000
0001
0000
1000
0000
0100
0000
0010
0000
,
0100
0000
1000
0000
0001
0000
0010
0000
0100
0000
0010
0000
,
0001
0000
1000
0000
0100
0000
0010
0000
0001
0000
0010
0000
,
0100
0000
1000
0000
0001
0000
1000
0000
0100
0000
0010
0000
,
0001
0000
1000
0000
0010
0000
0100
0000
0001
0000
0010
0000
,
0100
0000
1000
0000
0001
0000
0100
0000
0001
0000
1000
0000
,
0100
0000
0010
0000
0001
0000
1000
0000
0010
0000
0100
0000
,
0001
0000
0010
0000
0100
0000
1000
0000
0010
0000
0100
0000
,
0001
0000
1000
0000
0010
0000
0100
0000
0001
0000
1000
0000
,
0100
0000
1000
0000
0001
0000
1000
0000
0010
0000
0100
0000
,
0001
0000
1000
0000
0100
0000
0010
0000
0100
0000
1000
0000
,
0001
0000
0100
0000
0001
0000
1000
0000
0010
0000
1000
0000
,
0002
0000
1003
0000
0010
0000
0100
0000
0001
0000
0010
0000
,
0100
0000
1000
0000
0001
0000
1000
0000
0100
0000
0010
0000
,
0001
0000
1000
0000
0010
0000
1000
0000
0100
0000
0010
0000
,
0001
0000
0100
0000
0001
0000
0010
0000
0100
0000
1000
0000
,
0001
0000
1000
0000
0010
0000
0100
0000
0001
0000
0010
0000
,
0001
0000
1000
0000
0100
0000
0010
0000
0001
0000
1000
0000
,
0010
0000
1000
0000
0100
0000
0010
0000
0001
0000
0100
0000
,
0001
0000
1000
0000
0100
0000
0010
0000
0001
0000
1000
0000
,
0001
0000
0010
0000
0100
0000
1000
0000
0001
0000
0100
0000
,
0001
0000
1000
0000
0100
0000
0010
0000
0001
0000
0010
0000
,
0100
0000
1000
0000
0100
0000
0010
0000
0001
0000
1000
0000
,
0001
0000
0010
0000
0100
0000
1000
0000
0001
0000
0100
0000
,
0001
0000
1000
0000
0100
0000
0010
0000
0001
0000
1000
0000
,
0010
0000
1000
0000
0001
0000
0100
0000
0010
0000
1000
0000
,
0100
0000
1000
0000
0001
0000
0010
0000
0100
0000
1000
0000
,
0001
0000
0100
0000
0001
0000
0010
0000
0001
0000
1000
0000
,
0100
1000
0100
1000
0010
0100
0010
0100
,
0001
0100
0001
0010
0001
1000
0100
0010
,
0001
0000
1000
0000
0001
0000
0010
0000
0100
0000
1000
0000
,
0001
0000
0100
0000
0001
0000
1000
0000
0100
0000
0010
0000
,
0001
1000
0001
1000
0010
1000
0010
0100
,
0001
0100
0001
1000
0100
0010
0001
1000
,
0001
0000
0010
0000
0100
0000
1000
0000
0001
0000
0100
0000
,
0001
0000
1000
0000
0100
0000
0010
0000
0001
0000
1000
0000
,
0001
0010
0100
1000
0001
0100
0001
1000
,
0100
0010
0001
1000
0010
1000
0001
0100
,
0010
0000
1000
0000
0100
0000
0010
0000
0001
0000
0100
0000
,
0001
0000
0010
0000
0100
0000
1000
0000
0001
0000
1000
0000
,
0100
0010
0001
0100
0001
0100
0010
1000
,
0100
1000
0001
1000
0001
1000
0100
1000
,
0001
0000
0010
0000
0100
0000
1000
0000
0001
0000
0100
0000
,
0001
0000
1000
0000
0100
0000
0010
0000
0001
0000
1000
0000
,
0010
0100
0001
0010
,
0100
1000
0001
0100
,
0001
1000
0100
0010
,
0001
1000
0010
1000
,
0001
0100
0010
1000
,
0100
0010
0001
1000
,
0001
0010
0100
1000
,
0001
0100
0001
1000
,
0100
0010
0001
1000
,
0010
1000
0100
0010
,
0001
0100
0001
0010
,
0100
1000
0001
0100
,
0001
1000
0100
0010
,
0001
1000
0010
1000
,
0001
0100
0001
0010
,
0100
1000
0001
0100
,
0002
1003
0100
0010
,
0001
1000
0010
0100
,
0001
0010
0100
1000
,
0001
0100
0010
1000
,
0100
0010
0001
1000
,
0001
0100
0010
1000
,
0100
0010
0001
0010
,
0001
1000
0100
0010
,
0001
1000
0010
1000
,
0010
0100
0001
0010
,
0100
1000
0001
0100
,
0001
1000
0100
0010
,
0001
1000
0010
1000
,
0100
0010
0001
1000
,
0001
0100
0010
1000
,
0100
1000
0100
0010
,
0001
1000
0010
0100
,
0001
0010
0200
0000
,
1300
0001
0100
0001
,
1000
0100
0020
0000
,
0031
1000
0010
0100
,
0001
0010
0002
0000
,
1003
0000
0010
0000
0200
0000
0000
0300
,
0100
0000
0001
0000
0020
0000
0000
0030
,
0010
0100
1000
0001
,
0010
0100
2000
0000
,
3010
0100
0001
0010
,
0100
1000
0002
0000
,
1003
0010
0100
0001
,
0010
0100
2000
0000
,
3010
0000
0100
0000
0002
0000
0000
0003
,
0001
0010
0200
0000
,
2300
3020
0230
0302
,
2003
3200
0320
0032
,
2003
3002
0023
0230
,
2300
3002
0203
0302
,
2003
3200
0320
0032
,
2003
3020
2030
3002
,
0203
0302
0023
0230
,
2300
3002
0203
0302
,
2003
3200
0320
0032
,
2003
3020
0230
0302
,
2003
3200
0320
0230
,
2300
3002
0023
0230
,
2300
3002
0203
0302
,
2003
3200
0320
0032
,
2003
3020
2030
3002
,
0203
0302
0023
0130
,
2002
0000
0000
0000
,
0000
0000
0000
0000
,
0000
0000
0000
0000
,
0000
0000
0000
0000
,
0000
0000
0000
0000
,
0000
0000
0000
0000
,
0000
0000
0000
0000
,
0000
0000
0000
0000
,
0000
0000
0000
0000
,
3003
0000
0000
0000
;

//---------------dance-single - ----------------
#NOTES:
     dance-single:
     :
     Hard:
     19:
     1.000,1.000,0.078,0.561,0.739,1795.000,11.000,79.000,0.000,1.000:
1000
0100
0010
0001
1000
0010
1000
0100
,
0010
0001
1000
0001
0010
0100
1000
0001
,
0100
0001
1000
0100
0010
0001
1000
0010
,
1000
0100
0010
0001
1000
0001
0010
0100
,
1000
0001
0100
0001
1000
0100
0010
0100
,
1000
0001
0010
0100
0010
0001
1000
0100
,
1000
0010
0100
0001
0010
0001
1000
0100
,
0010
0001
1000
0001
0010
0100
1000
0001
,
0100
0001
0010
0100
1000
0001
1000
0010
,
1000
0100
0010
0001
0100
0001
1000
0001
,
0010
0001
1000
0100
0010
0001
1000
0100
,
1000
0001
1000
0010
0100
0001
0100
0010
,
1000
0100
1000
0001
1000
0010
0100
0001
,
0010
0001
1000
0001
0100
0001
0010
0001
,
1000
0100
0010
0001
1000
0001
0010
0100
,
1000
0001
1000
0100
1000
0010
1000
0100
,
0010
0001
1000
0001
0100
0001
0010
0100
,
1000
0010
0100
0010
1000
0100
0010
0100
,
1000
0001
0100
0001
0010
0100
1000
0001
,
1000
0010
0100
0001
1000
0010
0100
0001
,
0010
0100
1000
0001
0100
0001
1000
0100
,
0010
0001
1000
0001
0010
0100
0010
0001
,
1000
0010
1000
0100
0010
0100
1000
0010
,
0100
0010
1000
0100
0010
0100
1000
0001
,
0100
0001
0010
0100
1000
0001
0100
0001
,
0010
0100
1000
0010
1000
0100
0010
0001
,
0100
0001
1000
0100
0010
0001
1000
0001
,
0010
0100
1000
0010
0100
0001
0010
0001
,
1000
0100
0010
0001
1000
0001
0010
0100
,
1000
0010
0100
0001
0010
0001
1000
0100
,
0010
0100
1000
0001
0100
0001
1000
0100
,
1000
0001
0010
0001
1000
0010
1000
0100
,
1000
0001
1000
0010
1000
0100
0010
0001
,
0100
0001
0010
0001
1000
0001
0100
0010
,
1000
0100
0010
0001
1000
0001
0010
0100
,
1000
0001
0100
0001
0010
0100
1000
0001
,
0100
0001
1000
0100
0010
0001
1000
0010
,
1000
0100
0010
0001
0100
0001
0010
0100
,
1000
0001
0010
0100
1000
0001
0010
0100
,
1000
0001
0100
0001
0010
0100
1000
0001
,
1000
0010
1000
0010
1000
0010
1000
0010
1000
0010
1000
0010
,
1000
0001
0100
0001
0010
0100
1000
0001
,
1000
0100
1000
0100
1000
0100
1000
0100
1000
0100
1000
0100
,
1000
0001
0100
0001
0010
0100
1000
0001
,
0100
0010
0100
0010
0100
0010
0100
0010
0100
0010
0100
0010
,
0100
0001
0010
0100
1000
0001
0010
0100
,
1000
0001
1000
0001
1000
0001
1000
0001
1000
0001
1000
0001
,
1000
0010
0100
0001
0010
0100
1000
0001
,
0100
0001
1000
0100
1000
0001
0010
0100
,
1000
0010
0100
0001
0010
0001
1000
0100
,
0010
0001
0010
0001
0010
0001
0010
0001
0010
0001
0010
0001
,
0010
0100
1000
0001
0100
0001
0010
0100
,
1000
0001
1000
0001
1000
0001
1000
0001
1000
0001
1000
0001
,
1000
0010
0100
0001
0010
0100
1000
0001
,
1000
0100
1000
0100
1000
0100
1000
0100
1000
0100
1000
0100
,
1000
0001
0010
0100
1000
0010
1000
0100
,
0010
0001
1000
0010
1000
0100
0010
0001
,
0100
0001
0010
0100
1000
0001
0100
0001
,
1000
0100
0010
0001
1000
0010
1000
0100
,
0010
0001
0010
0100
1000
0001
0100
0001
,
1000
0100
0010
0001
1000
0010
1000
0100
,
0010
0001
0100
0001
0010
0100
1000
0001
,
1000
0100
0010
0001
1000
0010
1000
0100
,
0010
0001
0100
0001
0010
0100
1000
0001
,
1000
0010
0100
0001
0010
0100
1000
0001
,
0100
0001
1000
0100
0010
0001
1000
0010
,
1000
0100
0010
0001
0100
0001
0010
0100
,
1000
0001
1000
0100
0010
0001
1000
0010
,
1000
0100
0010
0001
0100
0001
0010
0100
,
1000
0001
0100
0001
1000
0100
0010
0001
,
1000
0010
1000
0100
0010
0001
0100
0001
,
0010
0100
1000
0001
1000
0100
0010
0001
,
4000
3040
0430
0304
,
0043
0430
4300
3004
,
4003
3400
4300
3040
,
0430
0304
0043
0034
,
4003
3400
0340
0034
,
4003
3040
4030
3400
,
0340
0034
0043
0430
,
4300
3004
0043
0430
,
2300
3000
1000
0010
,
0210
0000
0301
0010
,
1200
0300
1000
0000
0001
0000
0100
0000
,
0001
0010
0100
1000
,
0120
0030
0100
0000
0001
0000
0010
0000
,
0001
1000
0100
0010
,
1002
0003
1000
0000
0010
0000
0100
0000
,
0001
0010
0001
1000
,
0210
0000
0000
0300
0100
0000
0010
0000
,
0012
0000
0000
0003
0001
0000
1000
0000
,
1020
0030
0100
0000
0001
0000
0010
0000
,
0100
1000
0001
0100
,
1002
0003
1000
0000
0100
0000
0010
0000
,
0001
1000
0010
0100
,
0012
0003
0010
0000
0001
0000
1000
0000
,
0100
0010
0001
1000
,
0010
0100
0001
0010
0100
1000
0001
0100
,
0001
1000
0100
0010
0001
1000
0010
1000
,
0100
0010
0001
0100
0001
0010
0100
1000
,
0001
1000
0100
0010
0001
1000
0010
1000
,
0100
0010
0001
0100
0001
0010
0100
1000
,
0001
1000
0100
1000
0010
0100
0001
0010
,
0001
1000
0100
0010
0001
1000
0001
0010
,
0100
1000
0010
0100
0001
0010
0001
1000
,
0100
0010
0001
1000
0010
1000
0100
0010
,
0001
0100
0001
0010
0100
1000
0001
0100
,
0001
1000
0100
1000
0010
0100
0001
0010
,
0001
1000
0100
0010
0001
1000
0001
0010
,
0100
1000
0001
0100
0001
1000
0100
0010
,
0001
1000
0010
1000
0100
0010
0001
0100
,
0001
0010
0100
1000
0001
0100
0001
1000
,
0100
1000
0010
0100
0001
0010
0001
1000
,
0010
0100
0001
0010
0001
1000
0100
0010
,
0001
1000
0001
0010
0100
1000
0010
0100
,
0001
0010
0001
1000
0100
0010
0001
1000
,
0010
1000
0100
0010
0001
0100
0001
1000
,
0100
0010
0001
1000
0001
0010
0100
1000
,
0001
0100
0001
1000
0100
0010
0001
1000
,
0010
1000
0100
0010
0001
0100
0001
0010
,
0100
1000
0001
1000
0100
1000
0001
0010
,
0100
1000
0001
1000
0100
0010
0001
1000
,
0010
1000
0100
0010
0001
0100
0001
0010
,
0100
1000
0001
1000
0010
0100
0001
0010
,
0001
1000
0100
0010
0100
1000
0001
0100
,
0001
1000
0100
0010
0001
1000
0001
0010
,
0100
1000
0010
0100
0001
0010
0001
1000
,
0100
0010
0001
1000
0001
0010
0100
1000
,
0010
0100
0001
0010
0001
1000
0100
0010
,
0100
1000
0001
0100
0001
1000
0100
0010
,
0001
1000
0010
1000
0001
0100
0001
0010
,
0100
1000
0001
0100
0001
1000
0100
0010
,
0001
1000
0001
0010
0100
1000
0010
1000
,
0100
0010
0001
0100
0001
0010
0100
1000
,
0001
0100
0001
1000
0100
1000
0001
0010
,
0100
1000
0001
0100
0001
1000
0100
0010
,
0001
1000
0010
0100
0001
0010
0001
1000
,
0100
0010
0001
1000
0010
1000
0001
0100
,
0001
0010
0100
1000
0001
0100
0001
1000
,
0100
1000
0001
0010
0100
1000
0001
0100
,
0001
1000
0100
0010
0001
1000
0010
0100
,
0001
0010
0001
1000
0100
0010
0001
0010
,
0100
1000
0100
0010
0001
1000
0001
0010
,
0100
1000
0001
0100
0001
1000
0100
0010
,
0001
0010
0100
1000
0001
0100
0001
1000
,
0001
1000
0010
1000
0100
0010
0001
0100
,
0001
0010
0100
1000
0001
0100
0001
1000
,
0100
0010
0001
1000
0010
1000
0100
0010
,
0001
0100
0001
0010
0100
1000
0001
1000
,
0100
1000
0001
0010
0100
1000
0001
0100
,
0001
0010
0100
1000
0010
0100
0001
0010
,
0001
1000
0100
0010
0001
1000
0001
0010
,
0100
1000
0001
0100
0001
1000
0100
0010
,
0001
1000
0010
1000
0100
0010
0001
0100
,
0001
0010
0100
1000
0001
1000
0100
0010
,
0001
1000
0010
1000
0001
0100
0001
0010
,
0100
1000
0001
0100
0001
1000
0100
0010
,
0001
1000
0010
1000
0100
0010
0001
0100
,
0001
0010
0100
1000
0001
0100
0001
1000
,
0100
0010
0001
1000
0001
0010
0100
1000
,
0010
0100
0001
0010
0001
1000
0100
0010
,
0001
1000
0010
1000
0100
0010
0001
0100
,
0001
0010
0100
1000
0001
1000
0100
1000
,
0001
0010
0100
1000
0001
0100
0001
1000
,
0100
0010
0001
1000
0010
1000
0100
0010
,
0001
0100
0001
0010
0100
1000
0001
1000
,
0100
0010
0001
1000
0010
1000
0100
0010
,
0001
0100
0001
0010
0100
1000
0001
0100
,
0001
1000
0100
0010
0001
1000
0001
0010
,
0100
1000
0010
0100
0001
0010
0001
1000
,
0100
0010
0001
1000
0001
0010
0100
1000
,
0010
0100
0001
0010
0001
1000
0100
1000
,
0001
0010
0100
1000
0010
0100
0001
0010
,
0001
1000
0100
0010
0001
1000
0100
0010
,
0001
1000
0001
0010
0100
1000
0001
0100
,
0001
1000
0100
0010
0001
1000
0010
1000
,
0100
0010
0001
0100
0001
0010
0100
1000
,
0001
1000
0010
0100
0001
0010
0001
1000
,
0100
0010
0001
1000
0001
0010
0100
1000
,
0001
0000
1000
0000
0001
0000
0010
0000
0100
0000
1000
0000
,
0001
0000
0100
0000
0001
0000
1000
0000
0100
0000
0010
0000
,
0001
1000
0010
1000
0100
0010
0001
0100
,
0002
0013
0100
1000
0001
0100
0001
1000
,
0100
0010
0001
1000
0010
1000
0001
0100
,
0001
0010
0100
1000
0001
0100
0001
1000
,
0100
0010
0001
1000
0001
0010
0100
1000
,
0010
1000
0100
0010
0001
0100
0001
0010
,
0001
0100
0010
1000
0100
0010
0100
1000
,
0001
0100
0001
0010
0100
1000
0001
0100
,
0001
1000
0100
0010
0001
1000
0010
0100
,
0010
1000
0100
0010
0100
1000
0001
0100
,
0001
0010
0100
1000
0001
1000
0100
0010
,
0001
1000
0010
1000
0001
0100
0001
0010
,
0100
0000
1000
0000
0001
0000
0010
0000
0100
0000
1000
0000
,
0010
0000
0100
0000
0001
0000
0010
0000
0001
0000
1000
0000
,
0100
0000
0010
0000
0001
0000
1000
0000
0010
0000
1000
0000
,
0001
0000
0100
0000
0001
0000
0010
0000
0100
0000
1000
0000
,
0001
0000
1000
0000
0010
0000
0100
0000
0001
0000
0010
0000
,
0100
0000
1000
0000
0001
0000
0100
0000
0001
0000
1000
0000
,
0100
0000
0010
0000
0001
0000
1000
0000
0010
0000
1000
0000
,
0001
0000
0100
0000
0001
0000
0010
0000
0100
0000
1000
0000
,
0001
0000
0100
0000
0001
0000
1000
0000
0100
0000
0010
0000
,
0001
0000
1000
0000
0010
0000
1000
0000
0100
0000
0010
0000
,
0001
0000
0100
0000
0001
0000
0010
0000
0100
0000
1000
0000
,
0001
0000
1000
0000
0100
0000
0010
0000
0001
0000
1000
0000
,
0010
0000
1000
0000
0100
0000
0010
0000
0001
0000
0100
0000
,
0001
0000
0010
0000
0100
0000
1000
0000
0001
0000
1000
0000
,
0100
0000
0010
0000
0001
0000
1000
0000
0010
0000
1000
0000
,
0100
0000
0010
0000
0001
0000
0100
0000
0001
0000
0010
0000
,
0100
1000
0001
0100
0001
1000
0100
0010
,
0001
1000
0010
1000
0001
0100
0001
0010
,
0100
0000
1000
0000
0001
0000
1000
0000
0100
0000
0010
0000
,
0001
0000
1000
0000
0010
0000
1000
0000
0001
0000
0100
0000
,
0001
0000
0010
0000
0100
0000
1000
0000
0001
0000
1000
0000
,
0100
0000
0010
0000
0001
0000
1000
0000
0010
0000
1000
0000
,
0001
0000
0100
0000
0010
0000
1000
0000
0100
0000
0010
0000
,
0001
0000
1000
0000
0001
0000
0010
0000
0100
0000
1000
0000
,
0001
1000
0010
1000
0001
0100
0001
0010
,
0100
1000
0001
0100
0001
1000
0100
0010
,
0001
0000
1000
0000
0010
0000
1000
0000
0001
0000
0100
0000
,
0001
0000
0010
0000
0100
0000
1000
0000
0001
0000
0100
0000
,
0001
0000
1000
0000
0100
0000
0010
0000
0001
0000
1000
0000
,
0001
0000
0100
0000
0010
0000
1000
0000
0100
0000
0010
0000
,
0001
0000
1000
0000
0001
0000
0010
0000
0100
0000
1000
0000
,
0001
0000
0100
0000
0001
0000
0010
0000
0100
0000
1000
0000
,
0001
1000
0010
1000
0001
0100
0001
0010
,
0100
1000
0001
0100
0001
1000
0100
0010
,
0001
1000
0010
1000
0001
0100
0001
0010
,
0100
1000
0001
0100
0001
1000
0100
0010
,
0001
1000
0010
1000
0001
0100
0001
0010
,
0100
1000
0001
0100
0001
0010
0100
1000
,
0001
0000
0010
0000
0200
0000
0000
0300
,
0100
0000
1000
0000
0020
0000
0000
0030
,
0100
0000
0001
0000
0010
0000
0100
0000
1000
0000
0001
0000
,
0100
0000
0001
0000
1000
0000
0100
0000
0010
0000
0001
0000
,
1000
0000
0010
0000
1000
0000
0001
0000
0100
0000
0001
0000
,
0010
0000
0100
0000
1000
0000
0001
0000
0100
0000
0001
0000
,
1000
0000
0100
0000
0010
0000
0001
0000
1000
0000
0010
0000
,
1000
0000
0001
0000
0100
0000
0001
0000
0010
0000
0100
0000
,
1000
0000
0001
0000
1000
0000
0100
0000
0010
0000
0001
0000
,
1000
0000
0010
0000
1000
0000
0001
0000
0100
0000
0001
0000
,
2000
3020
0230
0302
,
2003
3200
0320
0032
,
2003
3002
0023
0230
,
2300
3002
0203
0302
,
2003
3200
0320
0032
,
2003
3020
2030
3002
,
0203
0302
0023
0230
,
2300
3002
0203
0302
,
2003
3200
0320
0032
,
2003
3020
0230
0302
,
2003
3200
0320
0230
,
2300
3002
0023
0230
,
2300
3002
0203
0302
,
2003
3200
0320
0032
,
2003
3020
2030
3002
,
0203
0302
0023
0130
,
2202
0000
0000
0000
,
0000
0000
0000
0000
,
0000
0000
0000
0000
,
0000
0000
0000
0000
,
0000
0000
0000
0000
,
0000
0000
0000
0000
,
0000
0000
0000
0000
,
0000
0000
0000
0000
,
0000
0000
0000
0000
,
3303
0000
0000
0000
;

//---------------dance-single - ----------------
#NOTES:
     dance-single:
     :
     Challenge:
     23:
     1.000,1.000,0.078,0.099,0.199,1944.000,11.000,14.000,0.000,1.000:
1000
0100
0010
0001
1000
0010
1000
0100
,
0010
0001
1000
0001
0010
0100
1000
0001
,
0100
0001
1000
0100
0010
0001
1000
0010
,
1000
0100
0010
0001
1000
0001
0010
0100
,
1000
0001
0100
0001
1000
0100
0010
0100
,
1000
0001
0010
0100
0010
0001
1000
0100
,
1000
0010
0100
0001
0010
0001
1000
0100
,
0010
0001
1000
0001
0010
0100
1000
0001
,
0100
0001
0010
0100
1000
0001
1000
0010
,
1000
0100
0010
0001
0100
0001
1000
0001
,
0010
0001
1000
0100
0010
0001
1000
0100
,
1000
0001
1000
0010
0100
0001
0100
0010
,
1000
0100
1000
0001
1000
0010
0100
0001
,
0010
0001
1000
0001
0100
0001
0010
0001
,
1000
0100
0010
0001
1000
0001
0010
0100
,
1000
0001
1000
0100
1000
0010
1000
0100
,
0010
0001
1000
0001
0100
0001
0010
0100
,
1000
0010
0100
0010
1000
0100
0010
0100
,
1000
0001
0100
0001
0010
0100
1000
0001
,
1000
0010
0100
0001
1000
0010
0100
0001
,
0010
0100
1000
0001
0100
0001
1000
0100
,
0010
0001
1000
0001
0010
0100
0010
0001
,
1000
0010
1000
0100
0010
0100
1000
0010
,
0100
0010
1000
0100
0010
0100
1000
0001
,
0100
0001
0010
0100
1000
0001
0100
0001
,
0010
0100
1000
0010
1000
0100
0010
0001
,
0100
0001
1000
0100
0010
0001
1000
0001
,
0010
0100
1000
0010
0100
0001
0010
0001
,
1000
0100
0010
0001
1000
0001
0010
0100
,
1000
0010
0100
0001
0010
0001
1000
0100
,
0010
0100
1000
0001
0100
0001
1000
0100
,
1000
0001
0010
0001
1000
0010
1000
0100
,
1000
0001
1000
0010
1000
0100
0010
0001
,
0100
0001
0010
0001
1000
0001
0100
0010
,
1000
0100
0010
0001
1000
0001
0010
0100
,
1000
0001
0100
0001
0010
0100
1000
0001
,
0100
0001
1000
0100
0010
0001
1000
0010
,
1000
0100
0010
0001
0100
0001
0010
0100
,
1000
0001
0010
0100
1000
0001
0010
0100
,
1000
0001
0100
0001
0010
0100
1000
0001
,
1000
0010
0100
0001
1000
0100
1000
0001
0100
0001
0010
0100
,
1000
0001
0100
0001
0010
0100
1000
0001
,
0100
0001
1000
0001
0100
0001
1000
0100
0010
0001
1000
0001
,
1000
0001
0100
0001
0010
0100
1000
0001
,
0100
0001
0010
0100
1000
0100
0010
0001
1000
0001
0100
0010
,
1000
0001
0010
0100
1000
0001
0010
0100
,
1000
0001
0100
0001
1000
0100
0010
0001
1000
0001
0010
0100
,
1000
0010
0100
0001
0010
0100
1000
0001
,
0100
0001
1000
0100
1000
0001
0010
0100
,
1000
0010
0100
0001
0010
0001
1000
0100
,
0010
0001
1000
0001
0010
0001
1000
0100
0010
0001
1000
0001
,
0010
0100
1000
0001
0100
0001
0010
0100
,
1000
0001
0100
0001
1000
0010
0100
0001
0010
0001
1000
0001
,
1000
0010
0100
0001
0010
0100
1000
0001
,
1000
0100
0010
0001
1000
0010
1000
0001
0100
0001
1000
0001
,
1000
0001
0010
0100
1000
0010
1000
0100
,
0010
0001
1000
0010
1000
0100
0010
0001
,
0100
0001
0010
0100
1000
0001
0100
0001
,
1000
0100
0010
0001
1000
0010
1000
0100
,
0010
0001
0010
0100
1000
0001
0100
0001
,
1000
0100
0010
0001
1000
0010
1000
0100
,
0010
0001
0100
0001
0010
0100
1000
0001
,
1000
0100
0010
0001
1000
0010
1000
0100
,
0010
0001
0100
0001
0010
0100
1000
0001
,
1000
0010
0100
0001
0010
0100
1000
0001
,
0100
0001
1000
0100
0010
0001
1000
0010
,
1000
0100
0010
0001
0100
0001
0010
0100
,
1000
0001
1000
0100
0010
0001
1000
0010
,
1000
0100
0010
0001
0100
0001
0010
0100
,
1000
0001
0100
0001
1000
0100
0010
0001
,
1000
0010
1000
0100
0010
0001
0100
0001
,
0010
0100
1000
0001
1000
0100
0010
0001
,
4000
3040
0430
0304
,
0043
0430
4300
3004
,
4003
3400
4300
3040
,
0430
0304
0043
0034
,
4003
3400
0340
0034
,
4003
3040
4030
3400
,
0340
0034
0043
0430
,
4300
3004
0043
0430
,
2300
3000
1000
0010
,
0210
0000
0301
0010
,
1200
0300
1000
0000
0001
0000
0100
0000
,
0001
0010
0100
1000
,
0120
0030
0100
0000
0001
0000
0010
0000
,
0001
1000
0100
0010
,
1002
0003
1000
0000
0010
0000
0100
0000
,
0001
0010
0001
1000
,
0210
0000
0000
0300
0100
0000
0010
0000
,
0012
0000
0000
0003
0001
0000
1000
0000
,
1020
0030
0100
0000
0001
0000
0010
0000
,
0100
1000
0001
0100
,
1002
0003
1000
0000
0100
0000
0010
0000
,
0001
1000
0010
0100
,
0012
0003
0010
0000
0001
0000
1000
0000
,
0100
0010
0001
1000
,
0010
0100
0001
0010
0100
1000
0001
0100
,
0001
1000
0100
0010
0001
1000
0010
1000
,
0100
0010
0001
0100
0001
0010
0100
1000
,
0001
1000
0100
0010
0001
1000
0010
1000
,
0100
0010
0001
0100
0001
0010
0100
1000
,
0001
1000
0100
1000
0010
0100
0001
0010
,
0001
1000
0100
0010
0001
1000
0001
0010
,
0100
1000
0010
0100
0001
0010
0001
1000
,
0100
0010
0001
1000
0010
1000
0100
0010
,
0001
0100
0001
0010
0100
1000
0001
0100
,
0001
1000
0100
1000
0010
0100
0001
0010
,
0001
1000
0100
0010
0001
1000
0001
0010
,
0100
1000
0001
0100
0001
1000
0100
0010
,
0001
1000
0010
1000
0100
0010
0001
0100
,
0001
0010
0100
1000
0001
0100
0001
1000
,
0100
1000
0010
0100
0001
0010
0001
1000
,
0010
0100
0001
0010
0001
1000
0100
0010
,
0001
1000
0001
0010
0100
1000
0010
0100
,
0001
0010
0001
1000
0100
0010
0001
1000
,
0010
1000
0100
0010
0001
0100
0001
1000
,
0100
0010
0001
1000
0001
0010
0100
1000
,
0001
0100
0001
1000
0100
0010
0001
1000
,
0010
1000
0100
0010
0001
0100
0001
0010
,
0100
1000
0001
1000
0100
1000
0001
0010
,
0100
1000
0001
1000
0100
0010
0001
1000
,
0010
1000
0100
0010
0001
0100
0001
0010
,
0100
1000
0001
1000
0010
0100
0001
0010
,
0001
1000
0100
0010
0100
1000
0001
0100
,
0001
1000
0100
0010
0001
1000
0001
0010
,
0100
1000
0010
0100
0001
0010
0001
1000
,
0100
0010
0001
1000
0001
0010
0100
1000
,
0010
0100
0001
0010
0001
1000
0100
0010
,
0100
1000
0001
0100
0001
1000
0100
0010
,
0001
1000
0010
1000
0001
0100
0001
0010
,
0100
1000
0001
0100
0001
1000
0100
0010
,
0001
1000
0001
0010
0100
1000
0010
1000
,
0100
0010
0001
0100
0001
0010
0100
1000
,
0001
0100
0001
1000
0100
1000
0001
0010
,
0100
1000
0001
0100
0001
1000
0100
0010
,
0001
1000
0010
0100
0001
0010
0001
1000
,
0100
0010
0001
1000
0010
1000
0001
0100
,
0001
0010
0100
1000
0001
0100
0001
1000
,
0100
1000
0001
0010
0100
1000
0001
0100
,
0001
1000
0100
0010
0001
1000
0010
0100
,
0001
0010
0001
1000
0100
0010
0001
0010
,
0100
1000
0100
0010
0001
1000
0001
0010
,
0100
1000
0001
0100
0001
1000
0100
0010
,
0001
0010
0100
1000
0001
0100
0001
1000
,
0001
1000
0010
1000
0100
0010
0001
0100
,
0001
0010
0100
1000
0001
0100
0001
1000
,
0100
0010
0001
1000
0010
1000
0100
0010
,
0001
0100
0001
0010
0100
1000
0001
1000
,
0100
1000
0001
0010
0100
1000
0001
0100
,
0001
0010
0100
1000
0010
0100
0001
0010
,
0001
1000
0100
0010
0001
1000
0001
0010
,
0100
1000
0001
0100
0001
1000
0100
0010
,
0001
1000
0010
1000
0100
0010
0001
0100
,
0001
0010
0100
1000
0001
1000
0100
0010
,
0001
1000
0010
1000
0001
0100
0001
0010
,
0100
1000
0001
0100
0001
1000
0100
0010
,
0001
1000
0010
1000
0100
0010
0001
0100
,
0001
0010
0100
1000
0001
0100
0001
1000
,
0100
0010
0001
1000
0001
0010
0100
1000
,
0010
0100
0001
0010
0001
1000
0100
0010
,
0001
1000
0010
1000
0100
0010
0001
0100
,
0001
0010
0100
1000
0001
1000
0100
1000
,
0001
0010
0100
1000
0001
0100
0001
1000
,
0100
0010
0001
1000
0010
1000
0100
0010
,
0001
0100
0001
0010
0100
1000
0001
1000
,
0100
0010
0001
1000
0010
1000
0100
0010
,
0001
0100
0001
0010
0100
1000
0001
0100
,
0001
1000
0100
0010
0001
1000
0001
0010
,
0100
1000
0010
0100
0001
0010
0001
1000
,
0100
0010
0001
1000
0001
0010
0100
1000
,
0010
0100
0001
0010
0001
1000
0100
1000
,
0001
0010
0100
1000
0010
0100
0001
0010
,
0001
1000
0100
0010
0001
1000
0100
0010
,
0001
1000
0001
0010
0100
1000
0001
0100
,
0001
1000
0100
0010
0001
1000
0010
1000
,
0100
0010
0001
0100
0001
0010
0100
1000
,
0001
1000
0010
0100
0001
0010
0001
1000
,
0100
0010
0001
1000
0001
0010
0100
1000
,
0001
0100
0001
1000
0100
0010
0001
1000
,
0010
0100
0001
0010
0001
1000
0010
0100
,
0001
1000
0010
1000
0100
0010
0001
0100
,
0001
0010
0100
1000
0001
0100
0001
1000
,
0100
0010
0001
1000
0010
1000
0001
0100
,
0001
0010
0100
1000
0001
0100
0001
1000
,
0100
0010
0001
1000
0001
0010
0100
1000
,
0010
1000
0100
0010
0001
0100
0001
0010
,
0001
0100
0010
1000
0100
0010
0100
1000
,
0001
0100
0001
0010
0100
1000
0001
0100
,
0001
1000
0100
0010
0001
1000
0010
0100
,
0010
1000
0100
0010
0100
1000
0001
0100
,
0001
0010
0100
1000
0001
1000
0100
0010
,
0001
1000
0010
1000
0001
0100
0001
0010
,
0100
1000
0001
0100
0001
1000
0100
0010
,
0001
0010
0100
1000
0001
0100
0001
1000
,
0100
0010
0001
0010
0100
1000
0001
0100
,
0001
1000
0100
0010
0001
0010
0100
1000
,
0010
1000
0100
0010
0001
0010
0100
1000
,
0010
1000
0100
0010
0001
0010
0100
1000
,
0010
1000
0100
0010
0001
0010
0100
1000
,
0001
0100
0001
1000
0100
0010
0001
0010
,
0100
1000
0001
0100
0001
1000
0100
0010
,
0001
0010
0100
1000
0001
0100
0001
1000
,
0100
0010
0001
1000
0010
0100
0001
0010
,
0100
1000
0001
0100
0010
1000
0100
0010
,
0001
1000
0010
0100
0001
0010
0100
1000
,
0010
0100
0001
0010
0100
1000
0010
0100
,
0001
0010
0100
1000
0010
0100
0001
1000
,
0100
0010
0001
0100
0010
1000
0001
1000
,
0100
1000
0001
0100
0001
1000
0100
0010
,
0001
1000
0010
1000
0001
0100
0001
0010
,
0100
1000
0001
0100
0010
1000
0100
0010
,
0001
1000
0010
0100
0001
0010
0100
1000
,
0001
0100
0010
1000
0100
0010
0001
1000
,
0010
0100
0001
0010
0100
1000
0001
0100
,
0010
1000
0100
0010
0001
1000
0010
0100
,
0001
0010
0100
1000
0010
0100
0001
1000
,
0001
1000
0010
1000
0001
0100
0001
0010
,
0100
1000
0001
0100
0001
1000
0100
0010
,
0001
1000
0010
0100
0001
0010
0100
1000
,
0001
0100
0010
1000
0100
0010
0001
1000
,
0010
0100
0001
0010
0100
1000
0001
0100
,
0010
1000
0100
0010
0001
1000
0010
0100
,
0001
0010
0100
1000
0001
1000
0010
0100
,
0001
1000
0100
0010
0001
1000
0010
0100
,
0001
1000
0010
1000
0001
0100
0001
0010
,
0100
1000
0001
0100
0001
1000
0100
0010
,
0001
1000
0010
1000
0001
0100
0001
0010
,
0100
1000
0001
0100
0001
1000
0100
0010
,
0001
1000
0010
1000
0001
0100
0001
0010
,
0100
1000
0001
0100
0001
0010
0100
1000
,
0001
1000
0010
0100
0001
1000
0100
0010
,
0001
1000
0010
0100
0001
0010
0100
1000
,
0001
0100
0010
1000
0100
0010
0001
1000
,
0010
1000
0001
0100
0001
0010
0100
1000
,
0001
0100
0001
0010
0100
1000
0010
0100
,
0001
1000
0100
1000
0001
1000
0010
1000
,
0001
1000
0100
0010
0001
1000
0001
0100
,
0001
0010
0100
0010
0001
1000
0010
0100
,
0010
1000
0100
0010
0001
1000
0001
0100
,
0001
1000
0100
0010
0001
1000
0010
0100
,
0002
1003
0100
1000
0001
1000
0010
1000
,
0001
0100
0001
1000
0001
0010
0001
1000
,
0100
1000
0010
1000
0001
1000
0100
1000
,
0010
0100
0001
0100
0010
0100
0001
0100
,
0010
0100
0001
0010
0100
1000
0001
0100
,
0001
0010
0100
1000
0010
0100
0001
1000
,
0100
1000
0001
0010
0100
1000
0010
0100
,
0001
1000
0100
1000
0001
1000
0010
1000
,
0001
0100
0001
1000
0001
0010
0001
1000
,
0100
0010
0001
0010
0100
1000
0001
0100
,
0001
1000
0100
1000
0010
1000
0001
0010
,
0001
1000
0001
0100
0001
1000
0100
1000
,
0001
1000
0010
1000
0001
0010
0001
1000
,
0100
1000
0001
1000
0010
1000
0001
0100
,
0001
0010
0001
1000
0001
0100
0001
0010
,
0001
1000
0100
1000
0001
1000
0010
0000
,
0222
0000
0000
0000
,
0000
0000
0000
0000
,
0000
0000
0000
0000
,
0000
0000
0000
0000
,
0000
0000
0000
0000
,
0000
0000
0000
0000
,
0000
0000
0000
0000
,
0000
0000
0000
0000
,
0000
0000
0000
0000
,
0333
0000
0000
0000
;

//---------------techno-single4 - ----------------
#NOTES:
     techno-single4:
     :
     Hard:
     22:
     1.000,1.000,0.078,0.561,0.739,1795.000,11.000,79.000,0.000,1.000:
1000
0100
0010
0001
1000
0010
1000
0100
,
0010
0001
1000
0001
0010
0100
1000
0001
,
0100
0001
1000
0100
0010
0001
1000
0010
,
1000
0100
0010
0001
1000
0001
0010
0100
,
1000
0001
0100
0001
1000
0100
0010
0100
,
1000
0001
0010
0100
0010
0001
1000
0100
,
1000
0010
0100
0001
0010
0001
1000
0100
,
0010
0001
1000
0001
0010
0100
1000
0001
,
0100
0001
0010
0100
1000
0001
1000
0010
,
1000
0100
0010
0001
0100
0001
1000
0001
,
0010
0001
1000
0100
0010
0001
1000
0100
,
1000
0001
1000
0010
0100
0001
0100
0010
,
1000
0100
1000
0001
1000
0010
0100
0001
,
0010
0001
1000
0001
0100
0001
0010
0001
,
1000
0100
0010
0001
1000
0001
0010
0100
,
1000
0001
1000
0100
1000
0010
1000
0100
,
0010
0001
1000
0001
0100
0001
0010
0100
,
1000
0010
0100
0010
1000
0100
0010
0100
,
1000
0001
0100
0001
0010
0100
1000
0001
,
1000
0010
0100
0001
1000
0010
0100
0001
,
0010
0100
1000
0001
0100
0001
1000
0100
,
0010
0001
1000
0001
0010
0100
0010
0001
,
1000
0010
1000
0100
0010
0100
1000
0010
,
0100
0010
1000
0100
0010
0100
1000
0001
,
0100
0001
0010
0100
1000
0001
0100
0001
,
0010
0100
1000
0010
1000
0100
0010
0001
,
0100
0001
1000
0100
0010
0001
1000
0001
,
0010
0100
1000
0010
0100
0001
0010
0001
,
1000
0100
0010
0001
1000
0001
0010
0100
,
1000
0010
0100
0001
0010
0001
1000
0100
,
0010
0100
1000
0001
0100
0001
1000
0100
,
1000
0001
0010
0001
1000
0010
1000
0100
,
1000
0001
1000
0010
1000
0100
0010
0001
,
0100
0001
0010
0001
1000
0001
0100
0010
,
1000
0100
0010
0001
1000
0001
0010
0100
,
1000
0001
0100
0001
0010
0100
1000
0001
,
0100
0001
1000
0100
0010
0001
1000
0010
,
1000
0100
0010
0001
0100
0001
0010
0100
,
1000
0001
0010
0100
1000
0001
0010
0100
,
1000
0001
0100
0001
0010
0100
1000
0001
,
1000
0010
1000
0010
1000
0010
1000
0010
1000
0010
1000
0010
,
1000
0001
0100
0001
0010
0100
1000
0001
,
1000
0100
1000
0100
1000
0100
1000
0100
1000
0100
1000
0100
,
1000
0001
0100
0001
0010
0100
1000
0001
,
0100
0010
0100
0010
0100
0010
0100
0010
0100
0010
0100
0010
,
0100
0001
0010
0100
1000
0001
0010
0100
,
1000
0001
1000
0001
1000
0001
1000
0001
1000
0001
1000
0001
,
1000
0010
0100
0001
0010
0100
1000
0001
,
0100
0001
1000
0100
1000
0001
0010
0100
,
1000
0010
0100
0001
0010
0001
1000
0100
,
0010
0001
0010
0001
0010
0001
0010
0001
0010
0001
0010
0001
,
0010
0100
1000
0001
0100
0001
0010
0100
,
1000
0001
1000
0001
1000
0001
1000
0001
1000
0001
1000
0001
,
1000
0010
0100
0001
0010
0100
1000
0001
,
1000
0100
1000
0100
1000
0100
1000
0100
1000
0100
1000
0100
,
1000
0001
0010
0100
1000
0010
1000
0100
,
0010
0001
1000
0010
1000
0100
0010
0001
,
0100
0001
0010
0100
1000
0001
0100
0001
,
1000
0100
0010
0001
1000
0010
1000
0100
,
0010
0001
0010
0100
1000
0001
0100
0001
,
1000
0100
0010
0001
1000
0010
1000
0100
,
0010
0001
0100
0001
0010
0100
1000
0001
,
1000
0100
0010
0001
1000
0010
1000
0100
,
0010
0001
0100
0001
0010
0100
1000
0001
,
1000
0010
0100
0001
0010
0100
1000
0001
,
0100
0001
1000
0100
0010
0001
1000
0010
,
1000
0100
0010
0001
0100
0001
0010
0100
,
1000
0001
1000
0100
0010
0001
1000
0010
,
1000
0100
0010
0001
0100
0001
0010
0100
,
1000
0001
0100
0001
1000
0100
0010
0001
,
1000
0010
1000
0100
0010
0001
0100
0001
,
0010
0100
1000
0001
1000
0100
0010
0001
,
4000
3040
0430
0304
,
0043
0430
4300
3004
,
4003
3400
4300
3040
,
0430
0304
0043
0034
,
4003
3400
0340
0034
,
4003
3040
4030
3400
,
0340
0034
0043
0430
,
4300
0000
3004
0000
0043
0000
0430
0300
,
0102
0000
1003
0010
,
0210
0000
0301
0010
,
1200
0300
1000
0000
0001
0000
0100
0000
,
0001
0010
0100
1000
,
0120
0030
0100
0000
0001
0000
0010
0000
,
0001
1000
0100
0010
,
1002
0003
1000
0000
0010
0000
0100
0000
,
0001
0010
0001
1000
,
0210
0000
0000
0300
0100
0000
0010
0000
,
0012
0000
0000
0003
0001
0000
1000
0000
,
1020
0030
0100
0000
0001
0000
0010
0000
,
0100
1000
0001
0100
,
1002
0003
1000
0000
0100
0000
0010
0000
,
0001
1000
0010
0100
,
0012
0003
0010
0000
0001
0000
1000
0000
,
0100
0010
0001
1000
,
0010
0100
0001
0010
0100
1000
0001
0100
,
0001
1000
0100
0010
0001
1000
0010
1000
,
0100
0010
0001
0100
0001
0010
0100
1000
,
0001
1000
0100
0010
0001
1000
0010
1000
,
0100
0010
0001
0100
0001
0010
0100
1000
,
0001
1000
0100
1000
0010
0100
0001
0010
,
0001
1000
0100
0010
0001
1000
0001
0010
,
0100
1000
0010
0100
0001
0010
0001
1000
,
0100
0010
0001
1000
0010
1000
0100
0010
,
0001
0100
0001
0010
0100
1000
0001
0100
,
0001
1000
0100
1000
0010
0100
0001
0010
,
0001
1000
0100
0010
0001
1000
0001
0010
,
0100
1000
0001
0100
0001
1000
0100
0010
,
0001
1000
0010
1000
0100
0010
0001
0100
,
0001
0010
0100
1000
0001
0100
0001
1000
,
0100
1000
0010
0100
0001
0010
0001
1000
,
0010
0100
0001
0010
0001
1000
0100
0010
,
0001
1000
0001
0010
0100
1000
0010
0100
,
0001
0010
0001
1000
0100
0010
0001
1000
,
0010
1000
0100
0010
0001
0100
0001
1000
,
0100
0010
0001
1000
0001
0010
0100
1000
,
0001
0100
0001
1000
0100
0010
0001
1000
,
0010
1000
0100
0010
0001
0100
0001
0010
,
0100
1000
0001
1000
0100
1000
0001
0010
,
0100
1000
0001
1000
0100
0010
0001
1000
,
0010
1000
0100
0010
0001
0100
0001
0010
,
0100
1000
0001
1000
0010
0100
0001
0010
,
0001
1000
0100
0010
0100
1000
0001
0100
,
0001
1000
0100
0010
0001
1000
0001
0010
,
0100
1000
0010
0100
0001
0010
0001
1000
,
0100
0010
0001
1000
0001
0010
0100
1000
,
0010
0100
0001
0010
0001
1000
0100
0010
,
0100
1000
0001
0100
0001
1000
0100
0010
,
0001
1000
0010
1000
0001
0100
0001
0010
,
0100
1000
0001
0100
0001
1000
0100
0010
,
0001
1000
0001
0010
0100
1000
0010
1000
,
0100
0010
0001
0100
0001
0010
0100
1000
,
0001
0100
0001
1000
0100
1000
0001
0010
,
0100
1000
0001
0100
0001
1000
0100
0010
,
0001
1000
0010
0100
0001
0010
0001
1000
,
0100
0010
0001
1000
0010
1000
0001
0100
,
0001
0010
0100
1000
0001
0100
0001
1000
,
0100
1000
0001
0010
0100
1000
0001
0100
,
0001
1000
0100
0010
0001
1000
0010
0100
,
0001
0010
0001
1000
0100
0010
0001
0010
,
0100
1000
0100
0010
0001
1000
0001
0010
,
0100
1000
0001
0100
0001
1000
0100
0010
,
0001
0010
0100
1000
0001
0100
0001
1000
,
0001
1000
0010
1000
0100
0010
0001
0100
,
0001
0010
0100
1000
0001
0100
0001
1000
,
0100
0010
0001
1000
0010
1000
0100
0010
,
0001
0100
0001
0010
0100
1000
0001
1000
,
0100
1000
0001
0010
0100
1000
0001
0100
,
0001
0010
0100
1000
0010
0100
0001
0010
,
0001
1000
0100
0010
0001
1000
0001
0010
,
0100
1000
0001
0100
0001
1000
0100
0010
,
0001
1000
0010
1000
0100
0010
0001
0100
,
0001
0010
0100
1000
0001
1000
0100
0010
,
0001
1000
0010
1000
0001
0100
0001
0010
,
0100
1000
0001
0100
0001
1000
0100
0010
,
0001
1000
0010
1000
0100
0010
0001
0100
,
0001
0010
0100
1000
0001
0100
0001
1000
,
0100
0010
0001
1000
0001
0010
0100
1000
,
0010
0100
0001
0010
0001
1000
0100
0010
,
0001
1000
0010
1000
0100
0010
0001
0100
,
0001
0010
0100
1000
0001
1000
0100
1000
,
0001
0010
0100
1000
0001
0100
0001
1000
,
0100
0010
0001
1000
0010
1000
0100
0010
,
0001
0100
0001
0010
0100
1000
0001
1000
,
0100
0010
0001
1000
0010
1000
0100
0010
,
0001
0100
0001
0010
0100
1000
0001
0100
,
0001
1000
0100
0010
0001
1000
0001
0010
,
0100
1000
0010
0100
0001
0010
0001
1000
,
0100
0010
0001
1000
0001
0010
0100
1000
,
0010
0100
0001
0010
0001
1000
0100
1000
,
0001
0010
0100
1000
0010
0100
0001
0010
,
0001
1000
0100
0010
0001
1000
0100
0010
,
0001
1000
0001
0010
0100
1000
0001
0100
,
0001
1000
0100
0010
0001
1000
0010
1000
,
0100
0010
0001
0100
0001
0010
0100
1000
,
0001
1000
0010
0100
0001
0010
0001
1000
,
0100
0010
0001
1000
0001
0010
0100
1000
,
0001
0000
1000
0000
0001
0000
0010
0000
0100
0000
1000
0000
,
0001
0000
0100
0000
0001
0000
1000
0000
0100
0000
0010
0000
,
0001
1000
0010
1000
0100
0010
0001
0100
,
0002
0013
0100
1000
0001
0100
0001
1000
,
0100
0010
0001
1000
0010
1000
0001
0100
,
0001
0010
0100
1000
0001
0100
0001
1000
,
0100
0010
0001
1000
0001
0010
0100
1000
,
0010
1000
0100
0010
0001
0100
0001
0010
,
0001
0100
0010
1000
0100
0010
0100
1000
,
0001
0100
0001
0010
0100
1000
0001
0100
,
0001
1000
0100
0010
0001
1000
0010
0100
,
0010
1000
0100
0010
0100
1000
0001
0100
,
0001
0010
0100
1000
0001
1000
0100
0010
,
0001
1000
0010
1000
0001
0100
0001
0010
,
0100
0000
1000
0000
0001
0000
0010
0000
0100
0000
1000
0000
,
0010
0000
0100
0000
0001
0000
0010
0000
0001
0000
1000
0000
,
0100
0000
0010
0000
0001
0000
1000
0000
0010
0000
1000
0000
,
0001
0000
0100
0000
0001
0000
0010
0000
0100
0000
1000
0000
,
0001
0000
1000
0000
0010
0000
0100
0000
0001
0000
0010
0000
,
0100
0000
1000
0000
0001
0000
0100
0000
0001
0000
1000
0000
,
0100
0000
0010
0000
0001
0000
1000
0000
0010
0000
1000
0000
,
0001
0000
0100
0000
0001
0000
0010
0000
0100
0000
1000
0000
,
0001
0000
0100
0000
0001
0000
1000
0000
0100
0000
0010
0000
,
0001
0000
1000
0000
0010
0000
1000
0000
0100
0000
0010
0000
,
0001
0000
0100
0000
0001
0000
0010
0000
0100
0000
1000
0000
,
0001
0000
1000
0000
0100
0000
0010
0000
0001
0000
1000
0000
,
0010
0000
1000
0000
0100
0000
0010
0000
0001
0000
0100
0000
,
0001
0000
0010
0000
0100
0000
1000
0000
0001
0000
1000
0000
,
0100
0000
0010
0000
0001
0000
1000
0000
0010
0000
1000
0000
,
0100
0000
0010
0000
0001
0000
0100
0000
0001
0000
0010
0000
,
0100
1000
0001
0100
0001
1000
0100
0010
,
0001
1000
0010
1000
0001
0100
0001
0010
,
0100
0000
1000
0000
0001
0000
1000
0000
0100
0000
0010
0000
,
0001
0000
1000
0000
0010
0000
1000
0000
0001
0000
0100
0000
,
0001
0000
0010
0000
0100
0000
1000
0000
0001
0000
1000
0000
,
0100
0000
0010
0000
0001
0000
1000
0000
0010
0000
1000
0000
,
0001
0000
0100
0000
0010
0000
1000
0000
0100
0000
0010
0000
,
0001
0000
1000
0000
0001
0000
0010
0000
0100
0000
1000
0000
,
0001
1000
0010
1000
0001
0100
0001
0010
,
0100
1000
0001
0100
0001
1000
0100
0010
,
0001
0000
1000
0000
0010
0000
1000
0000
0001
0000
0100
0000
,
0001
0000
0010
0000
0100
0000
1000
0000
0001
0000
0100
0000
,
0001
0000
1000
0000
0100
0000
0010
0000
0001
0000
1000
0000
,
0001
0000
0100
0000
0010
0000
1000
0000
0100
0000
0010
0000
,
0001
0000
1000
0000
0001
0000
0010
0000
0100
0000
1000
0000
,
0001
0000
0100
0000
0001
0000
0010
0000
0100
0000
1000
0000
,
0001
1000
0010
1000
0001
0100
0001
0010
,
0100
1000
0001
0100
0001
1000
0100
0010
,
0001
1000
0010
1000
0001
0100
0001
0010
,
0100
1000
0001
0100
0001
1000
0100
0010
,
0001
1000
0010
1000
0001
0100
0001
0010
,
0100
1000
0001
0100
0001
0010
0100
1000
,
0001
0000
0010
0000
0200
0000
0000
0300
,
0100
0000
1000
0000
0020
0000
0000
0030
,
0100
0000
0001
0000
0010
0000
0100
0000
1000
0000
0001
0000
,
0100
0000
0001
0000
1000
0000
0100
0000
0010
0000
0001
0000
,
1000
0000
0010
0000
1000
0000
0001
0000
0100
0000
0001
0000
,
0010
0000
0100
0000
1000
0000
0001
0000
0100
0000
0001
0000
,
1000
0000
0100
0000
0010
0000
0001
0000
1000
0000
0010
0000
,
1000
0000
0001
0000
0100
0000
0001
0000
0010
0000
0100
0000
,
1000
0000
0001
0000
1000
0000
0100
0000
0010
0000
0001
0000
,
1000
0000
0010
0000
1000
0000
0001
0000
0100
0000
0001
0000
,
2000
3020
0230
0302
,
2003
3200
0320
0032
,
2003
3002
0023
0230
,
2300
3002
0203
0302
,
2003
3200
0320
0032
,
2003
3020
2030
3002
,
0203
0302
0023
0230
,
2300
3002
0203
0302
,
2003
3200
0320
0032
,
2003
3020
0230
0302
,
2003
3200
0320
0230
,
2300
3002
0023
0230
,
2300
3002
0203
0302
,
2003
3200
0320
0032
,
2003
3020
2030
3002
,
0203
0302
0023
0130
,
2202
0000
0000
0000
,
0000
0000
0000
0000
,
0000
0000
0000
0000
,
0000
0000
0000
0000
,
0000
0000
0000
0000
,
0000
0000
0000
0000
,
0000
0000
0000
0000
,
0000
0000
0000
0000
,
0000
0000
0000
0000
,
3303
0000
0000
0000
;
