#TITLE:We're Not Gonna Fall;
#SUBTITLE:;
#ARTIST:Children of Bodom;
#TITLETRANSLIT:;
#SUBTITLETRANSLIT:;
#ARTISTTRANSLIT:;
#CREDIT:;
#BANNER:we're not gonna fall-bn.png;
#BACKGROUND:we're not gonna fall-bg.png;
#LYRICSPATH:;
#CDTITLE:!cdtitle.png;
#MUSIC:Children of Bodom - We're Not Gonna Fall.mp3;
#OFFSET:1.144;
#SAMPLESTART:60.759;
#SAMPLELENGTH:11.840;
#SELECTABLE:YES;
#BPMS:0.000=190.000,68.000=190.040,132.000=190.020,164.000=190.040,194.000=190.000,324.000=190.020,352.000=190.000,548.000=190.040;
#STOPS:;
#BGCHANGES:;
// cache tags:
#FIRSTBEAT:4.000;
#LASTBEAT:621.250;
#SONGFILENAME:Songs/toune 5/We're not Gonna Fall/we're not gonna fall.sm;
#HASMUSIC:1;
#HASBANNER:1;
#MUSICLENGTH:197.781;
// end cache tags

//---------------dance-single - ----------------
#NOTES:
     dance-single:
     :
     Hard:
     13:
     1.000,1.000,1.000,1.000,1.000,1744.000,451.000,221.000,0.000,0.000:

0000
0000
0000
0000
,
1001
0000
0000
0001
0000
0000
0100
0000
0000
2020
0000
0000
0000
0000
3030
0100
0000
0000
0001
0000
0000
0220
0000
0000
,
0000
0000
0000
0000
0330
0000
0001
0000
0000
0000
0000
0000
0100
0000
0000
0000
0000
0000
1000
0000
0000
0000
0000
0000
0100
0000
0000
0010
0000
0000
1000
0000
0000
0000
0000
0000
0010
0000
0000
0000
0000
0000
0001
0000
0000
0000
0000
0000
,
1100
0000
0000
0010
0000
0000
0001
0000
0000
2020
0000
0000
0000
0000
3030
0100
0000
0000
0010
0000
0000
2000
0000
0000
,
0000
0000
3000
0000
0010
0000
0000
0000
1000
0000
0000
0000
0001
0000
0000
0000
1020
0000
0000
0030
0100
0000
0000
0000
1002
0000
0000
0003
0100
0000
0000
0000
,
0110
0000
0000
0010
0000
0000
1000
0000
0000
0202
0000
0000
0000
0000
0303
1000
0000
0000
0100
0000
0000
2002
0000
0000
,
0000
0000
0000
0000
3003
0000
0100
0000
0000
0000
0000
0000
0010
0000
0000
0000
0000
0000
1000
0000
0000
0000
0000
0000
0001
0000
0000
0100
0000
0000
0010
0000
0000
0000
0000
0000
1000
0000
0000
0000
0000
0000
0001
0000
0000
0000
0000
0000
,
1100
0000
0000
0010
0000
0000
0001
0000
0000
0220
0000
0000
0000
0000
0330
0001
0000
0000
0100
0000
0000
0010
0000
0000
,
1000
0100
0010
0001
0100
0010
1000
0001
,
2010
0000
0000
3000
0200
0000
0000
0300
2000
0000
0000
3000
0022
0000
0000
0033
0200
0000
0000
0300
0002
0000
0000
0003
2000
0000
0000
3000
0022
0000
0000
0033
,
0200
0000
0000
0300
0002
0000
0000
0003
2000
0000
0000
3000
0200
0000
0000
0300
0020
0000
0001
0030
2000
0000
0000
3000
0002
0000
0000
0003
0200
0000
0000
0300
,
1020
0000
0000
0030
0002
0000
0000
0003
0200
0000
0000
0300
2002
0000
0000
3003
0020
0000
0000
0030
0200
0000
0000
0300
0002
0000
0000
0003
0020
0000
0000
0030
,
0200
0000
0000
0300
0020
0000
0000
0030
2000
0000
0000
3000
0002
0000
0000
0003
1200
0000
0000
0300
0002
0000
0000
0003
0120
0000
0000
0030
2000
0000
0000
3000
,
0201
0000
0000
0300
0002
0000
0000
0003
0200
0000
0000
0300
0022
0000
0000
0033
2000
0000
0000
3000
0200
0000
0000
0300
0002
0000
0000
0003
0220
0000
0000
0330
,
2000
0000
0000
3000
0020
0000
0000
0030
0200
0000
0000
0300
0002
0000
0000
0003
2000
0000
0010
3000
0200
0000
0000
0300
0020
0000
0000
0030
0002
0000
0000
0003
,
0120
0000
0000
0030
0002
0000
0003
0000
0200
0000
0000
0300
0022
0000
0000
0033
2000
0000
0000
3000
0200
0000
0000
0300
0020
0000
0000
0030
2000
0000
0000
3000
,
0002
0000
0000
0003
0100
0000
0010
0000
1000
0000
0100
0000
0010
0000
0001
0000
0010
0000
0100
0000
1000
0000
0010
0000
0100
0000
0001
0000
1000
0000
0010
0000
,
0101
0010
1000
0010
1000
0100
0011
0100
1000
0001
1000
0001
0010
0100
1000
0010
,
1100
0001
1000
0100
0011
0100
1000
0010
1100
0001
0010
1000
0101
0010
0001
1000
,
0011
0100
0001
1000
0010
0100
0011
1000
0100
0010
0001
1000
0010
0100
0001
0010
,
1001
0100
0010
1000
0010
0100
0010
0100
0011
1000
0100
1000
0010
0100
0001
0010
,
0101
1000
0010
0100
1000
0010
1100
0001
1000
0001
1000
0001
1000
0010
0100
0001
,
1010
0100
0010
0100
1010
0001
0010
0100
1010
0001
0100
0010
1100
0001
1000
0010
,
1001
0010
1000
0001
0100
0001
1100
0010
1000
0100
0010
0100
1000
0010
1000
0100
,
1010
0000
0001
0010
0100
1000
0001
0010
0100
1000
0010
0100
0001
1000
0010
0100
,
1001
0101
1001
0010
0101
1010
0110
0011
,
1010
1010
1010
1001
1100
0110
0011
0101
,
0010
1000
0010
1000
0010
1000
0010
1000
0001
0100
0001
0100
0001
0100
0001
0100
,
0010
0100
0010
0100
0010
0100
0010
0100
0001
1000
0001
1000
0001
1000
0001
1000
,
0110
0011
0110
0001
1100
0110
0101
1001
,
0101
0101
0101
0101
0110
1010
1001
1100
,
0010
0001
0010
0001
0010
0001
0010
0001
0010
0100
0010
0100
0010
0100
0010
0100
,
0010
1000
0010
1000
0010
1000
0010
1000
0001
0010
0100
1000
0010
0100
0001
1000
,
0202
0303
0220
0330
0202
0303
0010
0000
1001
0000
2020
3030
0022
0033
2020
3030
,
0001
0100
0011
1000
0010
0100
1001
1100
,
0120
0000
0000
0030
1002
0000
0000
0003
1200
0000
0000
0300
0021
0000
0000
0030
2001
0000
0000
3000
0120
0000
0000
0030
0102
0000
0000
0003
2010
0000
0000
3000
,
0210
0000
0000
0300
0021
0000
0000
0030
1002
0000
0000
0003
2100
0000
0000
3000
0201
0000
0000
0300
1002
0000
0000
0003
2010
0000
0000
3000
0120
0000
0000
0030
,
1001
0000
1100
0000
1001
0010
0100
0010
0101
0000
1010
0000
1001
0000
1010
0000
,
0001
0100
0011
0100
0010
0100
1100
0010
,
1002
0000
0000
0003
0210
0000
0000
0300
2010
0000
0000
3000
0102
0000
0000
0003
0120
0000
0000
0030
2100
0000
0000
3000
0012
0000
0000
0003
2001
0000
0000
3000
,
0210
0000
0000
0300
1020
0000
0000
0030
2100
0000
0000
3000
0102
0000
0000
0003
0210
0000
1000
0300
0021
0000
0100
0030
2001
0000
0000
3000
1002
0000
0000
0003
,
1010
1010
1010
0100
0010
0101
0101
0101
,
0010
1000
0100
0010
1001
0010
0101
1000
,
0001
0100
0001
0100
0001
0100
0001
0100
0001
1000
0001
1000
0001
1000
0001
1000
,
0010
1000
0010
1000
0010
1000
0010
1000
0100
0010
0100
0010
0100
0010
0100
0010
,
1001
0011
1001
0100
1010
0011
1010
0011
,
0100
0001
1000
0010
1100
0010
0001
0100
,
0010
1000
0010
1000
0010
1000
0010
1000
0001
0100
0001
0100
0001
0100
0001
0100
,
1001
0000
1100
0110
0011
0110
1100
1001
,
0101
0010
1000
0100
0010
0001
1010
0100
1000
0010
0100
0001
1000
0010
1000
0001
,
1100
0010
1000
0100
1001
0100
0010
0001
1010
0001
0010
0100
0011
0100
1000
0010
,
1100
0001
0010
0100
0010
0001
1010
0100
1000
0010
0100
0010
0100
1000
0100
0010
,
0101
1000
0001
0010
0100
1000
0010
0100
0011
1000
0010
0100
0001
1000
0001
1000
,
0101
0010
0001
1000
0100
1000
0010
0100
0010
0001
1000
0001
1000
0010
1000
0100
,
1010
0001
1000
0010
1100
0001
0010
0100
1001
0010
0100
0010
1001
0010
0100
1000
,
0011
0100
0001
1000
0001
1000
0011
1000
0100
0010
0001
1000
0010
0100
0001
0010
,
1100
0101
1001
0110
1100
0110
0011
1001
,
1010
0100
0010
0100
0001
0010
1000
0001
,
1000
0100
0001
0010
0100
0001
1000
0001
,
1010
1000
0100
0010
0001
0010
1000
0100
,
0001
1000
0001
0010
1000
0100
0010
0100
,
0001
0100
1000
0010
0100
0001
0010
1000
,
0100
0001
0010
0100
0010
0100
1000
0010
,
0100
1000
0001
0010
1000
0001
0010
0100
,
1001
0010
0000
0010
0000
0010
0001
0100
,
1001
1001
1001
0010
0011
1100
1100
1100
,
0010
0101
1000
0101
0010
0101
1001
0100
,
0011
0110
0110
0110
0110
0101
0010
1100
,
0100
0011
1001
0110
1000
0110
0001
1100
,
1001
1001
1001
0010
0101
1010
1010
1010
,
0100
0011
0100
0011
1000
0011
0011
0011
,
0101
1010
1010
1010
1010
1001
0010
0101
,
0010
0101
1000
0101
1001
0010
1001
1100
,
2002
0000
0000
3003
0202
0000
0000
0303
2002
0000
0000
3003
0100
0000
0000
0000
0001
0000
0000
0000
0220
0000
0000
0330
2200
0000
0000
3300
0220
0000
0000
0330
,
0001
1000
0011
0100
0001
0100
1001
0010
,
1002
0000
0000
0003
0210
0000
0000
0300
1020
0000
0000
0030
0102
0000
0000
0003
0021
0000
0000
0030
2001
0000
0000
3000
0201
0000
0000
0300
2010
0000
0000
3000
,
0201
0000
0000
0300
0120
0000
0000
0030
2001
0000
0000
3000
0102
0000
0000
0003
2010
0000
0000
3000
0210
0000
0000
0300
1002
0000
0000
0003
2100
0000
0000
3000
,
0220
0000
0000
0330
2002
0000
0000
3003
0220
0000
0000
0330
0001
0000
0000
0000
1000
0000
0000
0000
0202
0000
0000
0303
2200
0000
0000
3300
0202
0000
0000
0303
,
1010
0110
0101
0011
0110
1010
1001
0110
,
0102
0000
0000
0003
0210
0000
0000
0300
2010
0000
0000
3000
0021
0000
0000
0030
2001
0000
0000
3000
0102
0000
0000
0003
2100
0000
0000
3000
0210
0000
0000
0300
,
0012
0000
0000
0003
2001
0000
0000
3000
0201
0000
0000
0300
0021
0000
0000
0030
2100
0000
0001
3000
0210
0000
0001
0300
1020
0000
0000
0030
1001
0000
0000
0000
,
1010
0001
0010
0001
1000
0100
1001
0010
0001
0100
0010
1000
0001
0010
1001
0010
,
0100
1000
0010
0100
0001
0010
0001
0010
0100
1000
0001
0010
1000
0010
0001
1000
,
0011
0100
0010
1000
0010
0001
0110
1000
0001
0010
0100
0010
1000
0010
0101
0010
,
0100
0000
0000
0000
1000
0000
0000
0000
0011
0000
0000
0000
1000
0000
0000
0000
0010
0000
0000
0000
1000
0000
0000
0000
0001
0000
0000
0000
1000
0000
0000
0000
0011
0000
0000
0000
0100
0000
0000
0000
0001
0000
0000
0000
1000
0000
0000
0000
0202
0000
0000
0303
0010
0000
0000
0000
0100
0000
0000
0000
0010
0000
0000
0000
,
0101
0000
1000
0000
0100
0000
0010
0000
0001
0000
0100
0000
1001
0000
0100
0000
0001
0000
0010
0000
0100
0000
0010
0000
0001
0000
0010
0000
0202
0303
1000
0000
,
0100
0010
0001
0010
0100
0010
0100
1000
0010
0100
0001
1000
0100
0010
0001
0100
,
1010
0001
0100
0001
0100
0010
1001
0100
0010
0100
0010
0100
1000
0100
0010
0001
,
1100
0000
0000
0000
,
1001
0010
1000
0010
1000
0100
1010
0001
0010
0100
1000
0010
0100
0010
0001
0010
,
1001
0010
0100
1000
0101
1000
0010
0100
0011
1000
0010
0100
0011
1000
0001
1000
,
0101
0010
0100
1000
0010
0100
1001
0010
0100
0001
0010
0100
0010
0001
0010
0100
,
1001
0010
1000
0010
0100
0001
1000
0001
1010
0100
1000
0010
1000
0001
1000
0100
,
1010
0001
0010
0100
0001
0010
0101
1000
0010
0100
0001
1000
0001
0010
0100
1000
,
0101
1000
0001
1000
0011
0100
0001
1000
0101
1000
0001
0100
0011
1000
0100
0010
,
1001
0100
0010
0100
1000
0010
1100
0001
0010
0100
0010
0001
0010
0100
1000
0100
,
1001
0010
0100
0001
1000
0001
0100
0010
1000
0100
0010
0001
0010
0100
1000
0010
,
1100
0010
0001
0010
0100
1000
0011
0100
0001
1000
0001
1000
0001
0100
0001
0010
,
0101
1000
0010
0100
0011
1000
0001
1000
0101
0010
0100
1000
0011
0100
0001
0010
,
0101
1000
0100
0010
0001
0100
0011
1000
0010
1000
0100
0010
0100
1000
0010
0100
,
0011
1000
0001
1000
0100
0010
0100
1000
0011
0100
0001
1000
0100
1000
0001
0010
,
0101
1000
0010
0100
0001
1000
0101
0010
0100
0010
0001
0010
0001
0010
0100
1000
,
0011
0100
0010
1000
0101
1000
0100
0010
0101
0010
0001
0100
0011
1000
0001
1000
,
0110
0001
0010
0100
0010
0100
1001
0010
0100
0001
0010
0100
1000
0010
0001
0010
,
0101
0110
0101
1001
1100
0110
0011
0101
,
1001
0000
0000
0010
0000
0000
0001
0000
0000
0100
0000
0000
0010
0000
0000
0100
0000
0000
0010
0000
0000
1000
0000
0000
0010
0000
0001
0000
0100
0000
0010
0000
0000
0001
0000
0000
0010
0000
0000
0100
0000
0000
1000
0000
0100
0000
0010
0000
,
0001
0000
0010
0000
0100
0000
0010
0000
0001
0000
0010
0000
0100
0000
1000
0000
0010
0000
0100
0000
0001
0010
0100
0000
0001
0000
0100
1000
0010
0000
1000
0000
,
0001
1000
0010
0100
0001
1000
0100
0010
0001
1000
0001
1000
0010
0100
0001
1000
,
0010
0000
0000
0000
0100
0000
0000
0000
0001
0000
0000
0000
1000
0000
0000
0000
0010
0000
0000
0000
0100
0000
0000
0000
0001
0000
0000
0000
1000
0000
0000
0000
0020
0000
0000
0000
0000
0000
0000
0030
0020
0000
0000
0000
0000
0000
0000
0030
0020
0000
0000
0000
0000
0000
0000
0000
0000
0000
0030
0000
1000
0000
0100
0000
,
0010
0000
0000
0000
0000
0000
0000
0000
0000
0000
0000
0000
0001
0000
0000
0000
0000
0000
0000
0000
0000
0000
0000
0000
0010
0000
0000
0000
0000
0000
0000
0000
0000
0000
0000
0000
0100
0000
0000
0000
0000
0000
0000
0000
0000
0000
0000
0000
1000
0000
0000
0000
0000
0000
0000
0000
0000
0000
0000
0000
0010
0000
0000
0000
0000
0000
0000
0000
0000
0000
0000
0000
0100
0000
0000
0000
0000
0000
0000
0000
0000
0000
0000
0000
0001
0000
0000
0000
0000
0000
0000
0000
0000
0000
0000
0000
1000
0000
0000
0000
0000
0000
0000
0000
0000
0000
0000
0000
0100
0000
0000
0000
0000
0000
0000
0000
0000
0000
0000
0000
0010
0000
0000
0000
0000
0000
0000
0000
0000
0000
0000
0000
0100
0000
0000
0000
0000
0000
0000
0000
0000
0000
0000
0000
1000
0000
0000
0000
0000
0000
0000
0000
0000
0010
0000
0000
0000
0000
0000
0000
0000
0000
0000
0000
0100
0000
0000
0000
0000
0000
0000
0000
0000
0000
0000
0000
0001
0000
0000
0000
0000
0000
0000
0000
0000
0000
0000
0000
0000
0000
0000
0000
,
0010
0000
0000
0000
0000
0000
0000
0000
0001
0000
0000
0000
0000
0000
0000
0000
0010
0000
0000
0000
0000
0000
0000
0000
0000
0000
0000
0000
0000
0000
0100
0000
0000
0000
0000
0000
0000
0000
0000
0000
0001
0000
0000
0000
0000
0000
0000
0000
1000
0000
0000
0000
0000
0000
0000
0000
0000
0000
0000
0000
0000
0000
0000
0000
0000
0000
0000
0000
0000
0000
0000
0000
1000
0000
0000
0000
0000
0000
0000
0000
0000
0000
0000
0000
0100
0000
0000
0000
0000
0000
0000
0000
0000
0000
0000
0000
0010
0000
0000
0000
0000
0000
0000
0000
0000
0000
0000
0000
0100
0000
0000
0000
0000
0000
0000
0000
0000
0000
0000
0000
1000
0000
0000
0000
0000
0000
0000
0000
0010
0000
0000
0000
0000
0000
0000
0000
0001
0000
0000
0000
0000
0000
0000
0000
0100
0000
0000
0000
0000
0000
0000
0000
0000
0000
0000
0000
0010
0000
0000
0000
0000
0000
0000
0000
0000
0000
0000
0000
1000
0000
0000
0000
0000
0000
0000
0000
0000
0000
0000
0000
0001
0000
0000
0000
0000
0000
0000
0000
0000
0000
0000
0000
,
0200
0000
0000
0000
0000
0300
0000
0000
0001
0000
0000
0000
0000
0000
0000
0000
0100
0000
0000
0000
0000
0000
0000
0000
0010
0000
0000
0000
0000
0000
0000
0000
1000
0000
0000
0000
0000
0000
0000
0000
0100
0000
0000
0000
0000
0000
0000
0000
0010
0000
0000
0000
0000
0000
0000
0000
0001
0000
0000
0000
0000
0000
0000
0000
,
0100
0010
1000
0001
0100
0010
1000
0001
,
0100
0010
0001
0010
0100
1000
0100
0010
0001
0010
0100
1000
0100
0010
0001
0010
,
0100
1000
0100
0010
0001
0010
0100
1000
0100
0010
0001
0010
0100
1000
0100
0010
,
0001
0100
0010
1000
0001
0100
0010
1000
0001
0100
0010
1000
0001
0100
0010
1000
,
0001
0100
0001
0010
0100
1000
0100
0010
0001
0010
0100
1000
0100
0010
0001
1000
,
0010
0100
0010
0100
0010
0100
0010
0100
0010
0100
0010
0100
0001
0100
0010
0100
0010
0100
0010
0100
0010
0100
0010
0100
,
0001
0100
0010
0100
0010
0100
0010
0100
0010
0100
0010
0100
0001
0100
0010
0100
0010
0100
0010
0100
0010
0100
0010
0100
,
0001
0000
0010
0000
0100
0000
1000
0000
0000
0100
0000
0000
0010
0000
0000
0001
0000
0000
0100
0000
0000
0010
0000
0000
1000
0000
0000
0010
0000
0000
0100
0000
0000
0001
0000
0000
1000
0000
0000
0010
0000
0000
0100
0000
0000
0001
0000
0000
,
1000
0100
0010
0001
1000
0100
0010
0001
1000
0100
0010
0001
1000
0100
0010
0001
,
1100
0010
0001
0100
0001
0010
0100
1001
,
0010
1000
0001
0010
0100
1000
0101
0010
,
1000
0001
1000
0001
1000
0001
1000
0010
1000
0010
1000
0010
1000
0100
1000
0100
,
1000
0001
1000
0001
1000
0001
1000
0010
1000
0010
1000
0010
1000
0010
1000
0010
,
1001
0100
0020
0000
0000
0000
0032
0000
2003
0000
0000
3000
0020
0000
0230
0000
,
0302
0010
0203
0000
0320
0000
2030
0000
3001
0010
0100
1000
0200
0000
0000
0300
,
0022
0000
0000
0000
0000
0000
0000
0033
0100
0000
0000
0000
1000
0000
0000
0000
0022
0000
0000
0000
0000
0000
0000
0033
0100
0000
0000
0000
1000
0000
0000
0000
0022
0000
0000
0000
0000
0000
0000
0033
0100
0000
0000
0000
1000
0000
0000
0000
0022
0000
0000
0000
0000
0000
0000
0033
1000
0000
0000
0000
0000
0000
0000
0000
,
0100
0000
0000
0000
0000
0000
0000
0000
0001
0000
0000
0000
0000
0000
0000
0000
1000
0000
0000
0000
0000
0000
0000
0000
0020
0000
0000
0000
0000
0000
0000
0000
0000
0000
0000
0000
0000
0000
0000
0000
0000
0000
0000
0000
0000
0000
0000
0000
0000
0000
0000
0000
0000
0000
0000
0000
0000
0000
0000
0000
0000
0000
0000
0030
,
1001
0010
0010
0100
0100
0001
0011
2200
,
0000
0000
0000
0000
0000
0000
0000
0000
0000
0000
0000
0000
0000
0000
0000
0000
0000
0000
0000
0000
0000
3300
0000
0000
0010
0000
0000
0000
0000
0000
0000
0000
0000
0000
0000
0000
0000
0000
0000
0000
0000
0000
0000
0000
0000
0000
0000
0000
0010
0000
0000
0000
0000
0000
0000
0000
0000
0000
0000
0000
0000
0000
0000
0000
0000
0000
0000
0000
0000
0000
0000
0000
0100
0000
0000
0000
0000
0000
0000
0000
0000
0000
0000
0000
0000
0000
0000
0000
0000
0000
0000
0000
0000
0000
0000
0000
0100
0000
0000
0000
0000
0000
0000
0000
0010
0000
0000
0000
0000
0000
0000
0000
0001
0000
0000
0000
0000
0000
0000
0000
1000
0000
0000
0000
0000
0000
0000
0000
0010
0000
0000
0000
0000
0000
0000
0000
0001
0000
0000
0000
0000
0000
0000
0000
0100
0000
0000
0000
0000
0000
0000
0000
0000
0000
0000
0000
0000
0000
0000
0000
0000
0000
0000
0000
0000
0000
0000
0000
0010
0000
0000
0000
0000
0000
0000
0000
0000
0000
0000
0000
0000
0000
0000
0000
0000
0000
0000
0000
0000
0000
0000
0000
,
0001
0000
0000
0100
0000
0000
0010
1000
0100
0010
0001
0010
0100
0000
0000
1000
0000
0000
0010
0000
0000
0100
0000
0000
,
0010
0001
0000
0100
0000
0000
1000
0000
0000
0010
0000
0000
0100
0001
0000
0010
0000
0000
0001
0000
0000
1000
0000
0000
,
0200
0000
0000
0000
0000
0300
0020
0000
0030
0002
0000
0003
0000
0000
0000
0020
0000
0030
2000
0000
3000
0000
0000
0000
,
0200
0000
0300
0020
0000
0030
0000
0000
0000
0200
0000
0300
0002
0000
0003
0010
0000
0000
0100
0000
0000
1000
0000
0000
,
0100
0010
0001
0010
0100
1000
0010
0100
0001
1000
0001
1000
0010
1000
0010
0100
,
0010
0001
0010
0100
1000
0010
0100
0001
1000
0100
0010
0001
0010
0100
1000
0100
,
0011
0011
0011
0011
0011
0011
0011
0011
,
0011
0000
0000
0000
0000
0000
0000
0000
0011
0000
0000
0000
0000
0000
0000
0000
0011
0000
0000
0000
0000
0000
0000
0000
0011
0000
0000
0000
0000
0000
0000
0000
0011
0000
0000
0000
0000
0000
0000
0000
2002
0000
0000
0000
0000
0000
0000
0000
0000
0000
0000
0000
0000
0000
0000
0000
0000
0000
0000
0000
0000
0000
0000
3003
,
0101
0101
0101
0010
0110
1100
1100
1100
,
0010
1001
0100
1001
0010
1001
1001
0100
,
0011
0110
0110
0110
0110
0101
0010
1100
,
0001
1100
0010
1010
0100
0011
0011
0011
,
1001
1001
1001
0100
0011
1100
1100
1100
,
0001
0101
0010
0101
1000
0101
0101
0101
,
0110
0001
1010
1010
1010
1001
0010
1100
,
0001
1100
0010
1100
0010
1001
2002
3003
,
0101
0101
0101
0010
0110
1010
1010
1010
,
0001
0110
1000
0110
0001
0110
0110
0110
,
0001
1001
1001
1001
1001
0101
0010
1010
,
0001
1010
0100
1010
1001
0100
0010
0001
,
1100
1100
1100
0010
1001
0011
0011
0011
,
0100
1001
0010
1001
0100
0110
0110
0110
,
0101
1001
0011
0101
1010
1001
0001
1010
,
0000
1010
0000
1001
0000
0110
0202
0000
,
0000
0000
0000
0000
0000
0303
0000
0000
0000
0000
0000
0000
0000
0000
0000
0000
;
