#TITLE:No More Goodbye;
#SUBTITLE:;
#ARTIST:Korsakoff;
#TITLETRANSLIT:;
#SUBTITLETRANSLIT:;
#ARTISTTRANSLIT:;
#CREDIT:Rynker;
#BANNER:../speedcore rejects ban.png;
#BACKGROUND:../speedcore rejects bg.png;
#LYRICSPATH:;
#CDTITLE:;
#MUSIC:No More Goodbye - Korsakoff.ogg;
#OFFSET:-0.233;
#SAMPLESTART:131.541;
#SAMPLELENGTH:12.000;
#SELECTABLE:YES;
#BPMS:0.000=165.000;
#STOPS:;
#BGCHANGES:;
// cache tags:
#FIRSTBEAT:18.000;
#LASTBEAT:546.000;
#SONGFILENAME:Songs/Speedcore Rejects/No More Goodbye - [Rynker]/nomoregoodbye.sm;
#HASMUSIC:1;
#HASBANNER:1;
#MUSICLENGTH:201.898;
// end cache tags

//---------------dance-single - Rynker----------------
#NOTES:
     dance-single:
     Rynker:
     Challenge:
     13:
     0.988,1.000,0.208,0.005,1.000,1354.000,42.000,1.000,0.000,0.000:

0000
0000
0000
0000
,
0000
0000
0000
0000
,
0000
0000
0000
0000
,
0000
0000
0000
0000
,
0000
0000
0000
0000
1000
0001
1000
0100
,
0010
0100
1000
0001
0100
0010
0100
0001
,
1000
0000
0100
0000
0010
0000
0001
1000
0010
0000
0100
0001
0100
0000
0001
0000
,
1000
0100
0010
0001
0100
0010
0100
0001
,
0010
0100
1000
0100
0010
0001
1000
0001
,
0100
0010
0100
0001
1000
0010
0100
0001
,
1000
0100
0010
0100
1000
0010
0100
0001
,
0100
0000
0010
0000
1000
0000
0001
0000
1000
0100
1000
0001
0010
0001
1000
0001
,
0100
0010
0100
0001
1000
0010
0100
0001
1000
0000
0000
0000
0000
0000
0000
0000
,
0001
0001
0001
0001
,
0001
0000
0001
0010
0001
1000
0001
0100
,
0001
0010
0001
1000
0001
0100
0001
0010
,
0001
1000
0001
0100
0010
1000
0010
0100
,
0010
1000
0001
1000
0100
0010
0100
1000
,
0100
0010
0000
0000
0000
0000
0000
0000
,
0000
0000
0000
0000
0000
0000
0000
0000
0001
0000
1000
0000
0001
1000
0100
1000
,
0100
1000
1000
1000
1001
0001
0010
0100
,
1000
0010
0100
0001
1000
0100
0010
0001
,
0100
0100
0010
0100
0001
0001
0010
0100
,
1000
0001
0100
0010
0200
0000
0000
0000
,
0310
1000
1010
0010
0100
0001
1000
0001
,
0100
0010
0100
0001
1000
0010
0100
0010
,
1000
0001
0100
0010
0100
0001
0000
0001
,
0000
0001
0000
0000
0000
0000
0000
0000
,
0000
0000
0000
0000
,
0000
0000
0000
0000
,
0000
0000
0000
0000
,
0000
0000
0000
0000
,
0000
0000
0000
0000
,
0000
0000
0000
0000
,
0000
0000
0000
0000
,
0000
0000
0000
0000
,
0000
0000
0000
0000
0000
0000
0000
0000
1000
0100
1000
0100
0010
0001
0010
0001
,
1000
0100
0010
0001
1000
0100
0010
0001
1000
0010
1000
0010
0100
0001
0100
0001
,
1000
0010
0100
0001
0100
0001
0100
0001
1000
0100
1000
0100
1000
0100
1000
0001
,
0010
0100
1000
0001
0100
0010
1000
0001
0100
0010
1000
0001
1000
0001
1000
0001
,
0010
0100
1000
0100
0010
0001
1000
0001
0100
0010
1000
0010
1000
0010
1000
0001
,
0010
0001
0010
0001
0010
0001
0010
0001
1000
0100
1000
0100
1000
0100
1000
0100
,
0010
0001
1000
0100
0010
0001
1000
0001
1000
0100
1000
0100
1000
0100
1000
0001
,
0010
0100
1000
0001
0100
0010
1000
0001
0100
0010
1000
0001
1000
0001
1000
0001
,
0010
0100
1000
0100
0010
0001
1000
0001
0100
0010
1000
0010
1000
0010
1000
0001
,
0010
0001
0010
0001
0010
0001
0010
0001
1000
0100
1000
0100
1000
0100
1000
0100
,
0010
0001
1000
0100
0010
0001
1000
0001
1000
0100
1000
0100
1000
0100
1000
0001
,
0010
0100
1000
0001
0100
0010
1000
0001
0100
0010
1000
0001
1000
0001
1000
0001
,
0010
0100
1000
0100
0010
0001
1000
0001
0100
0010
1000
0010
1000
0010
1000
0001
,
0010
0001
0010
0001
0010
0001
0010
0001
1000
0100
1000
0100
1000
0100
1000
0100
,
0010
0001
1000
0100
0010
0001
1000
0001
0100
0001
0100
0001
0100
0001
0100
0001
,
0100
0010
1000
0001
0010
0100
1000
0001
0010
0100
1000
0001
1000
0001
1000
0001
,
0100
0010
1000
0010
0100
0001
1000
0001
0010
0100
1000
0100
1000
0100
1000
0001
,
0100
0001
0100
0001
0100
0001
0100
0001
1000
0010
1000
0010
1000
0001
1000
0100
,
0010
0001
1000
0100
0010
0001
1000
0001
1000
0010
1000
0010
1000
0010
0100
0001
,
1000
0001
0010
0100
1000
0010
1000
0001
0100
0010
1000
0001
1000
0001
1000
0001
,
0010
0100
1000
0100
0010
0001
1000
0001
0100
0001
1000
0100
1000
0100
1000
0001
,
0100
0001
0100
0001
0100
0001
0100
0001
1000
0010
1000
0010
1000
0010
1000
0010
,
0100
0001
1000
0100
0010
0001
1000
0001
1000
0010
0100
0010
1000
0001
0010
0001
,
1000
0100
1000
0100
1000
0001
0100
0001
1000
0010
0100
0010
0100
0010
1000
0001
,
0010
0100
1000
0001
0010
0100
1000
0001
0100
0000
0000
0000
0000
0000
0000
0000
,
0000
0000
0000
0000
,
0000
0000
0000
0000
,
0000
0000
0000
0000
,
0000
0000
0000
0000
,
0000
0000
0000
0000
,
0000
0000
0000
0000
,
0000
0000
0000
0000
0000
0000
0000
0000
1000
0100
0010
0001
0010
0100
1000
0001
,
0100
0010
1000
0010
0100
0001
1000
0000
1001
0000
0000
0000
1000
0000
0100
0000
,
0010
0000
0001
0010
0100
0000
0000
0000
1001
0000
0000
0000
0001
0000
0100
0000
,
0010
0100
0001
1000
0100
0000
0010
0001
,
1000
0000
0010
0100
0001
0000
0000
0000
1001
0000
0000
0000
1000
0000
0010
0000
,
0100
0010
1000
0100
0010
0000
0001
0010
,
0100
0000
1000
0001
0100
0000
0000
0000
0101
0000
0000
0000
0001
0000
1000
0000
,
0010
1000
0001
1000
0100
0000
0010
0001
,
1000
0000
0100
0010
0001
0000
0000
0000
0000
0000
0000
0000
0000
0000
0000
0000
,
0000
0000
1000
1000
1001
0000
0101
0001
,
1100
0000
1000
0100
1000
0000
0000
0000
0110
0000
0000
0000
0011
0000
0001
0000
,
1001
1000
1010
0010
0110
0000
0110
0100
,
0101
0000
0001
1000
0001
0000
1000
0100
0010
0000
0000
0000
0011
0000
0010
0000
,
0110
0000
0100
1000
0100
0000
1000
0000
1001
0000
0000
0000
1001
0000
0001
0000
,
0101
0000
0100
0010
1000
0000
0000
0000
1100
0000
0000
0000
0011
0000
0001
0000
,
1000
0010
0100
0001
1000
0000
0001
0000
1001
0000
0000
0000
1000
0000
0100
0000
,
0010
0000
0001
1000
0001
0000
1000
0001
1000
0000
0000
0000
0000
0000
0000
0000
,
0000
0000
0000
0000
0000
0000
0000
0000
1000
0001
0010
0100
1000
0001
1000
0001
,
0100
0010
0100
0010
1000
0001
1000
0001
0100
0010
1000
0001
0100
0010
0100
0001
,
1000
0001
0010
0100
0010
0001
1000
0000
0001
0010
0001
1000
0010
0100
0010
1000
,
0001
0100
0010
0100
0001
1000
0100
0010
0001
1000
0001
0100
0010
0100
0001
1000
,
0100
0010
0001
0100
0010
1000
0001
0010
0100
1000
0001
0100
0010
1000
0010
0000
,
0100
0001
0100
0001
1000
0100
0010
0001
0010
0100
1000
0001
0100
0001
1000
0010
,
0100
0001
0100
0001
1000
0100
0010
0100
1000
0001
0100
0010
1000
0100
0010
0000
,
0001
0100
0010
0100
0001
1000
0100
0010
0001
0010
0100
1000
0001
0010
0100
1000
,
0010
0100
0001
0100
0010
1000
0100
0010
0100
1000
0010
0000
0100
0001
0010
0000
,
0100
1000
0100
0010
0001
1000
0100
0010
0001
0010
0100
1000
0001
0100
0010
0100
,
0001
0010
0100
1000
0100
0010
0001
0010
0100
1000
0010
0000
0100
0001
0010
0000
,
0100
1000
0100
0010
0001
1000
0001
0100
0010
0100
0001
1000
0010
1000
0001
0010
,
0100
1000
0001
0010
0001
0100
0010
1000
0100
1000
0010
0000
0100
0001
0010
0000
,
0100
1000
0001
1000
0001
0010
0100
0010
0001
1000
0001
0100
0010
0100
0001
1000
,
0100
0010
0100
1000
0001
0010
0001
1000
0010
1000
0100
0000
0010
0001
0100
0000
,
0010
0100
0001
1000
0100
0010
0100
1000
0001
0100
0010
0100
0001
0010
0100
1000
,
0100
0010
0001
0100
0010
1000
0001
0100
0010
1000
0100
0000
0010
0001
0100
0000
,
0010
0100
0010
0100
0001
1000
0001
1000
0100
0010
0100
0010
0001
1000
0001
0100
,
0010
0100
0001
1000
0100
0010
0001
0100
0010
0100
0001
0000
0010
0100
1000
0000
,
0001
0010
0100
0010
0001
1000
0001
0100
0010
1000
0001
0100
0010
0100
0001
0010
,
0100
1000
0100
0010
0001
0100
0010
0100
0001
0010
0100
0000
1000
0001
0100
0000
,
0010
1000
0100
1000
0100
0010
0001
1000
0001
0100
0010
0100
0001
1000
0100
0010
,
0001
0010
0100
1000
0001
0100
0010
0100
0001
0010
0100
0000
1000
0100
0010
0000
,
0001
0010
0100
1000
0001
0100
0010
1000
0100
0010
0001
1000
0001
0010
0100
1000
,
0100
0010
0001
0100
0010
1000
0001
0100
0010
1000
0100
0000
0010
0001
0100
0000
,
0010
0100
0010
0100
0001
1000
0001
1000
0100
0010
0100
0010
0001
1000
0001
0100
,
0010
0100
0001
1000
0100
0010
0001
0100
0010
0100
0001
0000
0010
0100
1000
0000
,
0001
0010
0100
0010
0001
1000
0001
0100
0010
1000
0001
0100
0010
0100
0001
0010
,
0100
1000
0100
0010
0001
0100
0010
0100
0001
0010
0100
0000
1000
0001
0100
0000
,
0010
1000
0100
1000
0100
0010
0001
1000
0001
0100
0010
0100
0001
1000
0100
0010
,
0001
0010
0100
1000
0001
0100
0010
0100
0001
0010
0100
0000
1000
0100
0010
0000
,
0001
0100
0010
1000
0100
0010
0100
1000
0001
0100
0010
0100
0001
0010
0100
1000
,
0100
0010
0001
0100
0010
1000
0001
0100
0010
0000
0000
0000
0010
0000
1000
0000
,
1000
0000
0100
0010
0100
0000
0000
0000
0010
0000
0000
0000
0010
0000
0001
0000
,
0001
0100
0010
0010
1000
0000
0100
0100
,
0010
0000
0100
0010
0100
0000
0000
0000
1000
0000
0001
1000
0001
1000
0001
0000
,
1000
0001
0001
0001
1001
0000
0011
0001
,
1010
0000
1000
0010
1000
0000
0000
0000
0110
0000
0000
0000
0101
0000
0001
0000
,
1001
1000
1100
0100
0110
0000
0110
0010
,
0011
0000
0001
1000
0001
0000
1000
0010
0100
0000
0000
0000
0101
0000
0100
0000
,
0110
0000
0010
1000
0010
0000
1000
0000
1001
0000
0000
0000
1001
0000
0001
0000
,
0011
0000
0010
0100
1000
0000
0000
0000
1010
0000
0000
0000
0101
0000
0001
0000
,
1000
0100
0010
0001
1000
0000
0001
0000
1001
0000
0000
0000
1000
0000
0010
0000
,
0100
0000
0001
1000
0001
0000
1000
0001
1000
0000
0000
0000
0001
0000
0100
0000
,
0010
1000
0100
0010
0001
0000
1000
0100
,
1000
0000
0001
0100
0001
0000
0000
0000
1000
0000
0000
0000
0010
0000
0100
0000
,
0010
1000
0100
0010
0100
0000
1000
0001
,
0100
0000
0001
1000
0001
0000
1000
0010
1000
0000
0000
0000
0010
0000
0100
0000
,
0001
0000
1000
0100
1000
0000
0001
0000
1000
0100
1000
0100
0010
0001
0010
0001
,
1000
0100
0010
0001
1000
0100
0010
0001
1000
0010
1000
0010
0100
0001
0100
0001
,
1000
0010
0100
0001
0100
0001
0100
0001
1000
0100
1000
0100
1000
0100
1000
0001
,
0010
0100
1000
0001
0100
0010
1000
0001
0100
0010
1000
0001
1000
0001
1000
0001
,
0010
0100
1000
0100
0010
0001
1000
0001
0100
0000
0000
0000
0000
0000
0000
0000
;
