#TITLE:Empire State Glory;
#SUBTITLE:;
#ARTIST:Dirty Androids;
#TITLETRANSLIT:;
#SUBTITLETRANSLIT:;
#ARTISTTRANSLIT:;
#CREDIT:Zimlord;
#BANNER:../Zeppelin_bn.png;
#BACKGROUND:../bg_Zeppelin.png;
#LYRICSPATH:;
#CDTITLE:../cdtitle_ZAiA.png;
#MUSIC:Dirty Androids - Empire State Glory.ogg;
#OFFSET:-0.035;
#SAMPLESTART:56.910;
#SAMPLELENGTH:22.300;
#SELECTABLE:YES;
#DISPLAYBPM:173.000;
#BPMS:0.000=173.000;
#STOPS:;
#BGCHANGES:;
// cache tags:
#FIRSTBEAT:16.000;
#LASTBEAT:323.833;
#SONGFILENAME:Songs/Cirque du Zeppelin/Empire State Glory - [Zaia]/Empire State Glory.sm;
#HASMUSIC:1;
#HASBANNER:1;
#MUSICLENGTH:115.234;
// end cache tags

//---------------dance-single - 14/8/6-16----------------
#NOTES:
     dance-single:
     14/8/6-16:
     Challenge:
     14:
     1.000,1.000,0.043,0.035,1.000,1002.000,5.000,4.000,0.000,0.000:
0000
0000
0000
0000
,
0000
0000
0000
0000
,
0000
0000
0000
0000
,
0000
0000
0000
0000
,
0001
0000
0001
0000
0100
0000
0010
1000
0001
1000
0100
0000
0010
0000
0100
0000
,
1000
0000
1000
0000
0001
0000
0100
0001
0010
0001
1000
0000
0100
0000
0000
0000
,
0010
0000
0000
0100
0000
0000
1000
0000
0000
0001
0000
0000
0001
0000
0000
1000
0000
0000
0001
0100
0001
1000
0000
0000
,
0010
0000
0000
0000
0000
0000
0100
0000
0000
0001
0000
0000
1000
0000
0000
0000
0000
0000
0100
0000
0000
0010
0000
0000
0000
0000
0000
0000
0000
0000
0001
0000
0010
0000
0001
0000
1000
0000
0000
0000
0000
0000
0010
0000
0000
0000
0000
0000
,
0000
0000
0000
0000
,
1000
0100
1000
0010
0100
0001
0010
0100
,
0010
0001
1000
0001
0100
0010
1000
0100
,
1000
0001
1000
0100
0010
0001
0100
0010
,
0100
0001
1000
0100
1000
0001
0100
0010
,
0010
1000
0001
1000
0100
0010
0100
1000
,
0010
0100
0001
1000
0001
0010
0001
0100
,
0010
0000
0100
0000
0010
0000
0100
0000
0010
0000
0100
0001
1000
0001
1000
0100
,
0000
1000
0001
0000
1000
0010
0000
0100
0001
0000
2000
0000
0000
0000
0000
0000
,
3001
0010
0100
0010
0001
1000
0010
1000
0001
1000
0100
0010
0001
0100
0001
0100
,
0010
1000
0001
1000
0100
1000
0001
0100
0010
0100
0001
1000
0001
0010
0100
1000
,
0001
1000
0010
0100
0010
1000
0001
0010
0001
1000
0001
0100
0010
1000
0100
1000
,
0100
0010
0001
1000
0001
0100
0001
1000
0100
1000
0010
0100
0001
1000
0001
0010
,
0100
1000
0001
0100
0001
1000
0100
1000
0001
1000
0010
0100
0001
0010
0001
0010
,
0100
1000
0001
1000
0010
1000
0001
0010
0100
0010
0001
1000
0001
0100
0010
1000
,
0001
1000
0100
0010
0100
1000
0001
0100
0001
1000
0001
0010
0100
1000
0010
1000
,
0010
0100
0001
1000
0001
0010
0001
1000
0010
1000
0100
0010
0001
1000
0001
0100
,
0010
1000
0100
1000
0001
0100
0010
0100
0001
1000
0100
0010
0001
1000
0010
0100
,
0001
0010
0001
1000
0100
1000
0001
1000
0010
0100
0001
1000
0001
0010
0001
0100
,
0010
1000
0001
1000
0100
0010
0001
1000
0100
1000
0010
0100
0001
1000
0100
0010
,
0100
1000
0001
1000
0010
1000
0100
0010
0001
1000
0010
0100
0001
1000
0100
1000
,
0001
0100
0001
0010
0001
1000
0100
0010
0100
1000
0001
0100
0010
1000
0001
0010
,
0100
1000
0010
1000
0001
0100
0001
1000
0001
0010
0100
1000
0001
1000
0010
1000
,
0001
0100
0001
1000
0001
0010
0100
1000
,
0001
0010
0001
0100
0001
1000
0010
1000
0100
1000
0001
0100
0020
0000
0000
0000
,
1030
0000
1000
0000
0001
0000
1000
0100
0010
0100
1000
0000
0001
0000
0100
0000
,
0010
0000
0010
0000
1000
0000
0001
1000
0100
1000
0001
0000
0100
0000
0000
0000
,
0010
0000
0010
0000
1000
0000
0001
0100
0010
0100
0001
0000
1000
0000
0100
0000
,
1000
0000
1000
0000
0010
0000
0100
0001
1000
0001
0010
0000
0100
0000
0000
0000
,
1000
0000
1000
0000
0001
0000
0010
0100
1000
0100
0010
0000
0001
0000
1000
0000
,
0010
0000
0010
0000
0100
0000
0001
1000
0100
1000
0001
0000
0010
0000
0000
0000
,
0001
0000
0000
0000
0000
0000
0001
0000
0000
0000
0000
0000
0100
0000
0000
0000
0000
0000
0010
0000
0000
0000
0000
0000
1000
0000
0000
0010
0000
0000
0100
0000
0000
0000
0000
0000
0001
0000
0100
0000
0001
0000
1000
0000
0000
0000
0000
0000
,
0001
0000
0000
0000
0000
0000
1000
0000
0000
0100
0000
0000
0010
0000
0000
0000
0000
0000
0100
0000
0000
1000
0000
0000
0000
0000
0000
0000
0000
0000
0001
0000
0100
0000
0001
0000
1000
0000
0000
0000
0000
0000
0000
0000
0000
0000
0000
0000
,
0001
0010
0100
1000
0001
0100
0001
0010
0001
1000
0010
1000
0100
0010
0100
1000
,
0001
0100
0010
1000
0001
0010
0001
0100
0001
1000
0100
1000
0010
0100
0010
1000
,
0001
1000
0100
0010
0001
1000
0010
1000
0100
1000
0001
0100
0001
0010
0100
0010
,
0001
1000
0010
0100
0001
1000
0100
1000
0010
1000
0001
0010
0001
0100
0001
1000
,
0010
0100
0001
1000
0001
0010
0100
1000
0010
1000
0001
0100
0001
0010
0001
1000
,
0010
1000
0001
0100
0010
1000
0100
1000
0001
0010
0001
0100
0001
1000
0100
1000
,
0010
0100
0001
1000
0001
0010
0100
1000
0010
1000
0001
0100
0001
0010
0001
1000
,
0010
0000
0000
1000
0000
0000
0001
0000
0000
0100
0000
0000
0010
0000
0000
1000
0000
0000
0100
0000
0000
1000
0000
0000
0001
0000
0010
0000
0100
0000
1000
0000
0010
0000
1000
0000
0001
0000
0100
0000
0001
0000
0010
0000
0001
0000
1000
0000
,
0010
0100
0001
1000
1000
0100
0010
0100
,
1100
0000
1001
0100
0000
1001
0010
0000
,
0001
1000
0100
0010
0010
0001
1000
0010
,
0100
0000
0001
0000
1000
0000
0001
0000
0010
0000
0100
0000
2000
0000
0000
0000
0000
0000
3001
0000
0000
0000
0000
0000
0000
0000
0000
0100
0000
0000
0010
0000
0000
0000
0000
0000
1000
0000
0000
0000
0000
0000
1000
0000
0000
0000
0000
0000
,
0001
0010
0100
1000
0001
0001
0100
0010
,
1000
0000
0000
0000
0000
0000
0110
0000
0000
0001
0000
0000
0000
0000
0000
0110
0000
0000
1000
0000
0000
0001
0100
0001
,
1000
0000
0001
1000
0000
0001
0010
0000
0100
1000
0000
0001
0100
0000
0010
1000
,
0001
0000
0010
0000
0100
1000
0040
0000
0000
0000
0000
0000
0000
0000
0000
0030
,
0100
0001
1000
0001
0010
0001
1000
0100
0010
0100
1000
0001
0100
0001
1000
0001
,
0100
0010
1000
0010
0100
0001
1000
0100
1000
0001
1000
0010
0100
0001
1000
0001
,
0010
0100
0010
0001
1000
0010
1000
0001
0100
0010
0100
0001
1000
0100
1000
0001
,
1000
0100
0010
0001
0010
0100
1000
0001
0100
0001
1000
0001
0010
0100
1000
0001
,
0100
0001
1000
0100
1000
0001
0010
0100
0010
0001
1000
0010
1000
0001
1000
0010
,
0100
0001
0100
0010
1000
0001
0010
0001
1000
0001
0100
0010
1000
0001
1000
0100
,
0010
0001
1000
0001
0100
0010
1000
0001
,
1000
0100
1000
0100
0010
0100
1000
0001
0100
0010
1000
0001
0200
0000
0000
0000
,
0301
0010
0100
1000
0001
0100
0001
0010
0001
1000
0010
1000
0100
0010
0100
1000
,
0001
0100
0010
1000
0001
0010
0001
0100
0001
1000
0100
1000
0010
0100
0010
1000
,
0001
1000
0100
0010
0001
1000
0010
1000
0100
1000
0001
0100
0001
0010
0100
0010
,
0001
1000
0010
0100
0001
1000
0100
1000
0010
1000
0001
0010
0001
0100
0001
1000
,
0010
0100
0001
1000
0001
0010
0100
1000
0010
1000
0001
0100
0001
0010
0001
1000
,
0010
1000
0001
0100
0010
1000
0100
1000
0001
0010
0001
0100
0001
1000
0100
1000
,
0010
0100
0001
1000
0001
0010
0100
1000
0010
1000
0001
0100
0001
0010
0001
1000
,
0010
1000
0001
0100
0010
1000
0100
1000
0001
0100
0001
1000
0001
1000
0100
1000
,
0001
0100
0001
0010
0001
1000
0100
1000
0010
1000
0001
0010
0100
1000
0001
0100
,
0001
1000
0100
1000
0010
1000
0001
0100
0001
0010
0001
1000
0010
0100
0010
1000
,
0001
0010
0001
0100
0001
1000
0010
1000
0100
1000
0001
0100
0010
1000
0001
0010
,
0001
1000
0010
1000
0100
1000
0001
0010
0001
0100
0001
1000
0100
0010
0001
1000
,
0010
0100
0001
0010
0100
1000
0100
0010
0001
0100
0010
1000
0001
1000
0010
0100
,
0001
0010
0100
1000
0001
0100
0010
1000
0010
0100
0001
0010
0100
1000
0001
1000
,
0010
0100
0001
0010
0100
1000
0100
0010
0001
0100
0010
1000
0001
1000
0100
0010
,
0001
0000
0000
0100
0000
0000
0010
0000
0000
1000
0000
0000
0001
0000
0000
0010
0000
0000
0100
0000
0000
1000
0000
0000
0001
0000
0100
0000
0010
0000
1000
0000
0100
0000
1000
0000
0001
0000
0010
0000
0001
0000
0100
0000
0001
0000
1000
0000
;

//---------------dance-single - 8/16----------------
#NOTES:
     dance-single:
     8/16:
     Hard:
     13:
     1.000,1.000,0.043,0.269,1.000,837.000,5.000,31.000,0.000,0.000:
0000
0000
0000
0000
,
0000
0000
0000
0000
,
0000
0000
0000
0000
,
0000
0000
0000
0000
,
0001
0000
0001
0000
0100
0000
0010
1000
0001
1000
0100
0000
0010
0000
0100
0000
,
1000
0000
1000
0000
0001
0000
0100
0001
0010
0001
1000
0000
0100
0000
0000
0000
,
0010
0000
0100
0000
1000
0000
0001
0000
0001
0000
1000
0000
0001
1000
0001
0000
,
0010
0000
0100
1000
0001
0000
0100
0010
0000
0000
1000
0010
0100
0000
0001
0000
,
0000
0000
0000
0000
,
1000
0100
1000
0010
0100
0001
0010
0100
,
0010
0001
1000
0001
0100
0010
1000
0100
,
1000
0001
1000
0100
0010
0001
0100
0010
,
0100
0001
1000
0100
1000
0001
0100
0010
,
0010
1000
0001
1000
0100
0010
0100
1000
,
0010
0100
0001
1000
0001
0010
0001
0100
,
0010
0000
0100
0000
0010
0000
0100
0000
0010
0000
0100
0001
1000
0001
1000
0100
,
0000
1000
0001
0000
1000
0010
0000
0100
0001
0000
2000
0000
0000
0000
0000
0000
,
3001
0000
0100
0000
0010
0000
1000
0001
0010
0001
1000
0000
0100
0010
0100
0000
,
1000
0010
0100
0001
1000
0100
1000
0010
,
0100
0000
0001
0000
1000
0000
0001
0010
0100
0010
0001
0000
1000
0000
0001
0100
,
0001
1000
0010
1000
0100
0010
0100
1000
,
0001
0000
0010
0000
0100
0000
1000
0001
0100
0001
1000
0000
0010
0100
0010
0000
,
1000
0100
0010
0001
1000
0010
1000
0100
,
0010
0000
0001
0000
1000
0000
0001
0100
0010
0100
0001
0000
1000
0000
0001
0010
,
0001
0000
0000
1000
0001
0000
0100
0000
0000
0010
1000
0000
0002
0000
0013
0100
,
1000
0010
0100
0001
0010
0001
1000
0010
,
0100
0001
0010
0001
1000
0010
0100
0001
,
0010
0100
1000
0010
1000
0100
0010
0001
,
0100
0001
1000
0100
0010
0001
0100
0001
,
1000
0010
0100
0010
1000
1000
0000
0001
,
0010
0100
1000
0001
0000
1000
0000
0001
,
1000
0100
1000
0001
1000
0010
0100
0001
,
1000
0010
1000
0100
1000
0001
0010
0001
0100
0001
1000
0100
0020
0000
0000
0000
,
0031
0000
0001
0000
1000
0000
0001
0100
0010
0100
0001
0000
1000
0000
0100
0000
,
0010
0000
0010
0000
0001
0000
1000
0001
0100
0001
1000
0000
0100
0000
0000
0000
,
0010
0000
0010
0000
0001
0000
1000
0100
0010
0100
1000
0000
0001
0000
0100
0000
,
0001
0000
0001
0000
0010
0000
0100
1000
0001
1000
0010
0000
0100
0000
0000
0000
,
0001
0000
0001
0000
1000
0000
0010
0100
0001
0100
0010
0000
1000
0000
0001
0000
,
0010
0000
0010
0000
0100
0000
1000
0001
0100
0001
1000
0000
0010
0000
0000
0000
,
1000
0000
1000
0000
0100
0000
0010
0000
0001
0010
0100
0000
1000
0001
1000
0000
,
0001
0000
1000
0100
0010
0000
0100
1000
0000
0000
0001
1000
0001
0000
0000
0000
,
1000
0100
0010
0001
1000
0010
1000
0100
1000
0001
0100
0001
0010
0100
0010
0001
,
1000
0010
0100
0001
1000
0100
1000
0010
1000
0001
0010
0001
0100
0010
0100
0001
,
1000
0001
0010
0100
1000
0001
0100
0001
0010
0001
1000
0010
1000
0100
0010
0100
,
1000
0001
0100
0010
1000
0001
0010
0001
0100
0001
1000
0100
1000
0010
1000
0001
,
0100
0010
1000
0001
1000
0100
0010
0001
0100
0001
1000
0010
1000
0100
1000
0001
,
0100
0001
1000
0010
0100
0001
0010
0001
1000
0100
1000
0010
1000
0001
0010
0001
,
0100
0010
1000
0001
1000
0100
0010
0001
0100
0001
1000
0010
1000
0100
1000
0001
,
0100
0001
1000
0010
0100
0001
0010
0001
1000
0010
0100
0001
1000
0001
1000
0010
,
0100
0010
1000
0001
0001
0010
0100
0010
,
0011
0000
1001
0010
0000
1001
0100
0000
,
1000
0001
0010
0100
0100
1000
0001
0100
,
0010
1000
0001
0010
0002
0000
1003
0000
0000
0010
0100
0000
0001
0000
0001
0000
,
1000
0100
0010
0001
1000
1000
0010
0100
,
0001
0000
0000
0000
0110
0000
1000
0000
0000
0000
0110
0000
0001
0000
1000
0001
,
0100
0000
0001
1000
0000
0001
0010
0000
0100
1000
0000
0001
0100
0000
0010
1000
,
0001
0000
0010
0000
0100
1000
0040
0000
0000
0000
0000
0000
0000
0000
0000
0030
,
0100
0000
0000
0000
0000
0000
0000
0000
0001
0000
0000
0000
0000
0000
0000
0000
2000
0000
0000
0000
0000
0000
0000
0000
0001
0000
0000
0000
0000
0000
0000
3000
2000
0000
0000
0000
0000
0000
0000
0000
3020
0000
0000
0000
0000
0000
0000
0000
0100
0000
0000
0000
0000
0000
0000
0030
0020
0000
0000
0000
0000
0000
0000
0000
,
0230
0000
0000
0000
0000
0000
0000
0000
0001
0000
0000
0000
0000
0000
0000
0300
0200
0000
0000
0000
0000
0000
0000
0000
0320
0000
0000
0000
0000
0000
0000
0000
1030
0000
0000
0000
0000
0000
0000
0000
0002
0000
0000
0000
0000
0000
0000
0000
0010
0000
0000
0000
0000
0000
0000
0003
0002
0000
0000
0000
0000
0000
0000
0000
,
0023
0000
0000
0000
0000
0000
0000
0000
0130
0000
0000
0000
0000
0000
0000
0000
2000
0000
0000
0000
0000
0000
0000
0000
0100
0000
0000
0000
0000
0000
0000
3000
2000
0000
0000
0000
0000
0000
0000
0000
3002
0000
0000
0000
0000
0000
0000
0000
1000
0000
0000
0000
0000
0000
0000
0003
0002
0000
0000
0000
0000
0000
0000
0000
,
0203
0000
0000
0000
0000
0000
0000
0000
0001
0000
0000
0000
0000
0000
0000
0300
0200
0000
0000
0000
0000
0000
0000
0000
0320
0000
0000
0000
0000
0000
0000
0000
1030
0000
0000
0000
0000
0000
0000
0000
0002
0000
0000
0000
0000
0000
0000
0000
0013
0000
0000
0000
0000
0000
0000
0000
0100
0000
0000
0000
0000
0000
0000
0000
,
1000
0000
0000
0000
0000
0000
0000
0000
0001
0000
0000
0000
0000
0000
0000
0000
0020
0000
0000
0000
0000
0000
0000
0000
0100
0000
0000
0000
0000
0000
0000
0030
0020
0000
0000
0000
0000
0000
0000
0000
0230
0000
0000
0000
0000
0000
0000
0000
1000
0000
0000
0000
0000
0000
0000
0300
0200
0000
0000
0000
0000
0000
0000
0000
,
2300
0000
0000
0000
0000
0000
0000
0000
0001
0000
0000
0000
0000
0000
0000
3000
2000
0000
0000
0000
0000
0000
0000
0000
3020
0000
0000
0000
0000
0000
0000
0000
0130
0000
0000
0000
0000
0000
0000
0000
0002
0000
0000
0000
0000
0000
0000
0000
1003
0000
0000
0000
0000
0000
0000
0000
0100
0000
0000
0000
0000
0000
0000
0000
,
0010
0001
1000
0001
0100
0010
1000
0001
,
1000
0100
1000
0100
0010
0100
1000
0001
0100
0010
1000
0001
0200
0000
0000
0000
,
0301
0010
0100
1000
0001
0100
0001
0010
0001
1000
0010
1000
0100
0010
0100
1000
,
0001
0100
0010
1000
0001
0010
0001
0100
0001
1000
0100
1000
0010
0100
0010
1000
,
0001
1000
0100
0010
0001
1000
0010
1000
0100
1000
0001
0100
0001
0010
0100
0010
,
0001
1000
0010
0100
0001
1000
0100
1000
0010
1000
0001
0010
0001
0100
0001
1000
,
0010
0100
0001
1000
0001
0010
0100
1000
0010
1000
0001
0100
0001
0010
0001
1000
,
0010
1000
0001
0100
0010
1000
0100
1000
0001
0010
0001
0100
0001
1000
0100
1000
,
0010
0100
0001
1000
0001
0010
0100
1000
0010
1000
0001
0100
0001
0010
0001
1000
,
0010
1000
0001
0100
0010
1000
0100
1000
0001
0100
0001
1000
0001
1000
0100
1000
,
0001
0100
0001
0010
0001
1000
0100
1000
0010
1000
0001
0010
0100
1000
0001
0100
,
0001
1000
0100
1000
0010
1000
0001
0100
0001
0010
0001
1000
0010
0100
0010
1000
,
0001
0010
0001
0100
0001
1000
0010
1000
0100
1000
0001
0100
0010
1000
0001
0010
,
0001
1000
0010
1000
0100
1000
0001
0010
0001
0100
0001
1000
0100
0010
0001
1000
,
0010
0100
0001
0010
0100
1000
0100
0010
0001
0100
0010
1000
0001
1000
0010
0100
,
0001
0010
0100
1000
0001
0100
0010
1000
0010
0100
0001
0010
0100
1000
0001
1000
,
0010
0100
0001
0010
0100
1000
0100
0010
0001
0100
0010
1000
0001
1000
0100
0010
,
0001
0100
0010
1000
0001
0010
0100
1000
0001
0100
0001
0100
0010
1000
0001
0010
;

//---------------dance-single - 4----------------
#NOTES:
     dance-single:
     4:
     Medium:
     10:
     0.925,1.000,0.043,0.269,0.577,709.000,5.000,31.000,0.000,0.000:
0000
0000
0000
0000
,
0000
0000
0000
0000
,
0000
0000
0000
0000
,
0000
0000
0000
0000
,
0001
0000
0001
0000
0100
0000
0010
1000
0001
1000
0100
0000
0010
0000
0100
0000
,
1000
0000
1000
0000
0001
0000
0100
0001
0010
0001
1000
0000
0100
0000
0000
0000
,
0010
0000
0100
0000
1000
0000
0001
0000
0001
0000
1000
0000
0001
1000
0001
0000
,
0010
0000
0100
1000
0001
0000
0100
0010
0000
0000
1000
0010
0100
0000
0001
0000
,
0000
0000
0000
0000
,
1000
0100
1000
0010
0100
0001
0010
0100
,
0010
0001
1000
0001
0100
0010
1000
0100
,
1000
0001
1000
0100
0010
0001
0100
0010
,
0100
0001
1000
0100
1000
0001
0100
0010
,
0010
1000
0001
1000
0100
0010
0100
1000
,
0010
0100
0001
1000
0001
0010
0001
0100
,
0010
0000
0100
0000
0010
0000
0100
0000
0010
0000
0100
0001
1000
0001
1000
0100
,
0000
1000
0001
0000
1000
0010
0000
0100
0001
0000
2000
0000
0000
0000
0000
0000
,
3001
0000
0100
0000
0010
0000
1000
0001
0010
0001
1000
0000
0100
0010
0100
0000
,
1000
0010
0100
0001
1000
0100
1000
0010
,
0100
0000
0001
0000
1000
0000
0001
0010
0100
0010
0001
0000
1000
0000
0001
0100
,
0001
1000
0010
1000
0100
0010
0100
1000
,
0001
0000
0010
0000
0100
0000
1000
0001
0100
0001
1000
0000
0010
0100
0010
0000
,
1000
0100
0010
0001
1000
0010
1000
0100
,
0010
0000
0001
0000
1000
0000
0001
0100
0010
0100
0001
0000
1000
0000
0001
0010
,
0001
0000
0000
1000
0001
0000
0100
0000
0000
0010
1000
0000
0002
0000
0013
0100
,
1000
0010
0100
0001
0010
0001
1000
0010
,
0100
0001
0010
0001
1000
0010
0100
0001
,
0010
0100
1000
0010
1000
0100
0010
0001
,
0100
0001
1000
0100
0010
0001
0100
0001
,
1000
0010
0100
0010
1000
1000
0000
0001
,
0010
0100
1000
0001
0000
1000
0000
0001
,
1000
0100
1000
0001
1000
0010
0100
0001
,
1000
0010
1000
0100
1000
0001
0010
0001
0100
0001
1000
0100
0020
0000
0000
0000
,
0031
0000
0001
0000
1000
0000
0001
0100
0010
0100
0001
0000
1000
0000
0100
0000
,
0010
0000
0010
0000
0001
0000
1000
0001
0100
0001
1000
0000
0100
0000
0000
0000
,
0010
0000
0010
0000
0001
0000
1000
0100
0010
0100
1000
0000
0001
0000
0100
0000
,
0001
0000
0001
0000
0010
0000
0100
1000
0001
1000
0010
0000
0100
0000
0000
0000
,
0001
0000
0001
0000
1000
0000
0010
0100
0001
0100
0010
0000
1000
0000
0001
0000
,
0010
0000
0010
0000
0100
0000
1000
0001
0100
0001
1000
0000
0010
0000
0000
0000
,
1000
0000
1000
0000
0100
0000
0010
0000
0001
0010
0100
0000
1000
0001
1000
0000
,
0001
0000
1000
0100
0010
0000
0100
1000
0000
0000
0001
1000
0001
0000
0000
0000
,
1000
0000
0010
0000
0100
0000
0010
0000
1000
0000
0001
0010
0001
0000
0100
0000
,
0010
0000
1000
0000
0001
0000
0010
0000
0100
0000
1000
0001
1000
0000
0010
0000
,
0100
0000
0001
0000
1000
0000
0100
0000
0010
0000
0001
0100
0001
0000
1000
0000
,
0010
0000
1000
0000
0001
0000
0010
0000
0100
0000
1000
0010
1000
0100
1000
0001
,
0010
0000
0100
0000
1000
0000
0010
0000
1000
0000
0001
0100
0001
0000
0010
0000
,
0100
0000
1000
0000
0001
0000
0100
0000
0010
0000
1000
0001
1000
0000
0100
0000
,
0010
0000
0001
0000
1000
0000
0010
0000
0100
0000
0001
0010
0001
0000
1000
0000
,
0100
0000
1000
0000
0001
0000
0100
0000
0001
0010
0100
1000
0001
1000
0001
0100
,
0010
0100
0001
1000
1000
0100
0010
0100
,
1100
0000
1001
0100
0000
1001
0010
0000
,
0001
1000
0100
0010
0010
0001
1000
0010
,
0100
0001
1000
0100
2000
0000
3001
0000
0000
0100
0010
0000
1000
0000
1000
0000
,
0001
0010
0100
1000
0001
0001
0100
0010
,
1000
0000
0000
0000
0110
0000
0001
0000
0000
0000
0110
0000
1000
0000
0001
1000
,
0010
0000
1000
0001
0000
1000
0100
0000
0010
0001
0000
1000
0010
0000
0100
0001
,
1000
0000
0100
0000
0010
0001
0400
0000
0000
0000
0000
0000
0000
0000
0000
0300
,
0010
0000
0000
0000
0000
0000
0000
0000
1000
0000
0000
0000
0000
0000
0000
0000
0002
0000
0000
0000
0000
0000
0000
0000
1000
0000
0000
0000
0000
0000
0000
0003
0002
0000
0000
0000
0000
0000
0000
0000
0203
0000
0000
0000
0000
0000
0000
0000
0010
0000
0000
0000
0000
0000
0000
0300
0200
0000
0000
0000
0000
0000
0000
0000
,
0320
0000
0000
0000
0000
0000
0000
0000
1000
0000
0000
0000
0000
0000
0000
0030
0020
0000
0000
0000
0000
0000
0000
0000
0230
0000
0000
0000
0000
0000
0000
0000
0301
0000
0000
0000
0000
0000
0000
0000
2000
0000
0000
0000
0000
0000
0000
0000
0100
0000
0000
0000
0000
0000
0000
3000
2000
0000
0000
0000
0000
0000
0000
0000
,
3200
0000
0000
0000
0000
0000
0000
0000
0310
0000
0000
0000
0000
0000
0000
0000
0002
0000
0000
0000
0000
0000
0000
0000
0010
0000
0000
0000
0000
0000
0000
0003
0002
0000
0000
0000
0000
0000
0000
0000
2003
0000
0000
0000
0000
0000
0000
0000
0001
0000
0000
0000
0000
0000
0000
3000
2000
0000
0000
0000
0000
0000
0000
0000
,
3020
0000
0000
0000
0000
0000
0000
0000
1000
0000
0000
0000
0000
0000
0000
0030
0020
0000
0000
0000
0000
0000
0000
0000
0230
0000
0000
0000
0000
0000
0000
0000
0301
0000
0000
0000
0000
0000
0000
0000
2000
0000
0000
0000
0000
0000
0000
0000
3100
0000
0000
0000
0000
0000
0000
0000
0010
0000
0000
0000
0000
0000
0000
0000
,
0001
0000
0000
0000
0000
0000
0000
0000
1000
0000
0000
0000
0000
0000
0000
0000
0200
0000
0000
0000
0000
0000
0000
0000
0010
0000
0000
0000
0000
0000
0000
0300
0200
0000
0000
0000
0000
0000
0000
0000
0320
0000
0000
0000
0000
0000
0000
0000
0001
0000
0000
0000
0000
0000
0000
0030
0020
0000
0000
0000
0000
0000
0000
0000
,
0032
0000
0000
0000
0000
0000
0000
0000
1000
0000
0000
0000
0000
0000
0000
0003
0002
0000
0000
0000
0000
0000
0000
0000
0203
0000
0000
0000
0000
0000
0000
0000
0310
0000
0000
0000
0000
0000
0000
0000
2000
0000
0000
0000
0000
0000
0000
0000
3001
0000
0000
0000
0000
0000
0000
0000
0010
0000
0000
0000
0000
0000
0000
0000
,
0100
1000
0001
1000
0010
0100
0001
1000
,
0001
0010
0001
0010
0100
0010
0001
1000
0010
0100
0001
1000
0020
0000
0000
0000
,
1030
0000
0100
0000
0010
0000
0100
0000
1000
0000
0001
0100
0001
0000
0010
0000
,
0100
0000
1000
0000
0001
0000
0100
0000
0010
0000
1000
0001
1000
0000
0100
0000
,
0010
0000
0001
0000
1000
0000
0010
0000
0100
0000
0001
0010
0001
0000
1000
0000
,
0100
0000
1000
0000
0001
0000
0100
0000
0010
0000
1000
0100
1000
0010
1000
0001
,
0100
0000
0010
0000
1000
0000
0100
0000
1000
0000
0001
0010
0001
0000
0100
0000
,
0010
0000
1000
0000
0001
0000
0010
0000
0100
0000
1000
0001
1000
0000
0010
0000
,
0100
0000
0001
0000
1000
0000
0100
0000
0010
0000
0001
0100
0001
0000
1000
0000
,
0010
0000
1000
0000
0001
0000
0010
0000
0001
0100
0001
0010
0001
1000
0010
0100
,
0001
0000
0010
0000
0100
0000
0010
0000
0001
0000
1000
0010
1000
0000
0100
0000
,
0010
0000
0001
0000
1000
0000
0010
0000
0100
0000
0001
1000
0001
0000
0010
0000
,
0100
0000
1000
0000
0001
0000
0100
0000
0010
0000
1000
0100
1000
0000
0001
0000
,
0010
0000
0001
0000
1000
0000
0010
0000
0100
0000
0001
0010
0001
1000
0001
1000
,
0010
0100
0001
0010
0100
1000
0100
0010
0001
0100
0010
1000
0001
1000
0010
0100
,
0001
0010
0100
1000
0001
0100
0010
1000
0010
0100
0001
0010
0100
1000
0001
1000
,
0010
0100
0001
0010
0100
1000
0100
0010
0001
0100
0010
1000
0001
1000
0100
0010
,
0001
0100
0010
1000
0001
0010
0100
1000
0001
0100
0001
0100
0010
1000
0001
0010
;
