#TITLE:Cross Breeding;
#SUBTITLE:;
#ARTIST:REDALiCE;
#TITLETRANSLIT:;
#SUBTITLETRANSLIT:;
#ARTISTTRANSLIT:;
#CREDIT:;
#BANNER:Cross Breeding-bn.png;
#BACKGROUND:Cross Breeding-bg.jpg;
#LYRICSPATH:;
#CDTITLE:Type MARS.png;
#MUSIC:Cross Breeding.mp3;
#OFFSET:-0.020;
#SAMPLESTART:88.800;
#SAMPLELENGTH:22.200;
#SELECTABLE:YES;
#BPMS:0.000=86.500,32.000=173.000,63.750=163.000,64.000=173.000,96.000=86.500,160.000=173.000;
#STOPS:;
#BGCHANGES:;
// cache tags:
#FIRSTBEAT:0.000;
#LASTBEAT:288.000;
#SONGFILENAME:Songs/Definitive Keyboard Megapack/Cross Breeding(typeMARS)/Cross Breeding.sm;
#HASMUSIC:1;
#HASBANNER:1;
#MUSICLENGTH:136.341;
// end cache tags

//---------------dance-single - ----------------
#NOTES:
     dance-single:
     :
     Challenge:
     13:
     1.000,1.000,1.000,0.425,0.807,781.000,297.000,58.000,0.000,46.000:
1001
0000
0000
0000
1001
0000
0000
0000
1001
0000
0000
0000
1001
0000
0000
0000
0110
0000
0000
0000
0110
0000
0000
0000
0110
0000
1000
0001
0110
0000
0100
0000
,
0120
0000
0000
0000
2130
0000
0000
3000
1001
0000
0000
0000
1001
0000
0000
0000
0110
0000
0001
0000
0110
0000
0000
0000
0110
0000
1000
0000
0110
0000
0001
0000
,
1010
0000
0000
0000
1010
0000
0100
0000
1010
0000
0100
0000
1010
0000
0000
0000
1001
0000
0000
0000
1001
0000
0100
0000
1001
0000
0010
0100
1001
0000
0110
0000
,
1002
0000
0000
0000
0123
0000
0000
0030
1001
0000
0100
0000
1001
0000
0010
0000
1001
0000
0000
0000
0110
0000
0010
0000
0110
0000
0100
0000
0110
0000
0000
0000
,
1001
0000
0000
0000
1001
0000
0000
0000
1001
0000
0100
0000
1001
0000
0010
0000
1001
0000
0000
0000
0110
0000
0001
0000
0110
0000
1000
0001
0110
0000
0010
0000
,
1002
0000
2103
0000
3110
0001
0110
0001
0110
0000
1001
0100
1001
0010
1001
0100
,
1001
0010
0101
0010
1001
0000
1100
0010
1001
0010
0110
0100
1001
0000
0110
0001
,
0110
0000
0000
0000
1100
0000
0000
0000
0001
0000
0000
0000
1100
0000
0000
0000
0001
0000
0000
0000
0110
0000
1000
0000
0001
0000
0000
0000
0110
0000
0000
0000
0120
0000
0000
0000
0000
0000
0000
0000
2130
0000
0000
0000
0000
0000
0000
0000
3001
0000
0000
0000
0001
0010
0100
1000
0001
0000
0000
0000
0100
0000
0000
0000
,
0110
0000
0100
0000
1001
0000
0010
0000
0001
0000
0100
0001
0110
0000
0100
0000
,
1001
0000
0010
0000
0101
0000
0010
0000
1000
0000
0001
0100
1010
0000
0100
0000
,
1001
0000
0010
0000
1001
0000
0100
0000
0010
0000
0001
1000
0110
0000
0100
0000
,
1001
0000
0010
0000
0001
0000
0100
0000
0110
0000
1000
0010
0101
0000
0010
0100
,
1001
0000
0010
0000
1001
0000
0100
0000
0010
0000
1000
0001
1100
0000
0010
0000
,
1001
0000
0010
0000
0001
0000
0100
0000
0010
0000
1000
0010
1100
0000
0010
0000
,
1001
0000
0100
0000
0011
0000
0100
0000
0010
0000
1000
0001
1100
0000
0010
0000
,
1001
0000
0010
0000
0100
0000
0001
0000
1100
0000
0010
0001
1100
0000
0010
0100
,
1001
0000
0010
0000
0110
0000
1000
0000
0001
0000
0100
0010
1001
0000
0100
0000
,
1001
0000
0010
0000
0101
0000
0010
0000
1000
0000
0001
0100
1010
0000
0100
0000
,
1001
0000
0010
0000
0110
0000
0100
0000
0001
0000
1000
0010
0101
0000
0010
0000
,
1001
0000
0100
0000
0110
0000
0001
0000
0100
0000
0010
1000
0101
0000
0010
0100
,
1001
0000
0010
0000
0110
0000
0100
0000
0001
0000
0100
0010
1001
0000
0100
0000
,
1001
0000
0010
0000
0101
0000
0100
0000
0010
0000
1000
0001
1100
0000
0010
0000
,
1001
0100
1001
0100
1001
0100
1001
0010
,
2001
0000
0000
0000
3210
0000
0000
0000
0301
0010
0100
1000
0010
0100
0001
1000
,
0012
0100
1000
0100
0000
0010
1000
0010
0203
1000
0001
2310
0000
0001
3120
0001
,
1230
0010
0001
0010
0000
1000
0001
0010
1300
0100
0010
0100
1002
0010
1000
0010
,
1203
0010
0001
1000
0000
1000
0001
0010
2301
0100
0010
3102
0000
1000
0213
1000
,
0321
0100
1000
0001
0000
0100
0001
0100
2031
0100
0001
3210
0001
1000
0321
0100
,
2031
0100
0001
0010
0000
0100
0001
0100
3012
1000
0010
1203
0000
0010
2301
0010
,
3102
0010
1000
0100
0000
0100
1000
0010
0103
0001
0010
0001
1200
0010
0001
1000
,
0312
0100
1000
0100
0000
0100
1000
0010
1203
0010
0001
2310
0000
0100
3012
1000
,
0213
1000
0001
1000
0000
0001
0010
1000
0321
1000
0100
2031
0100
0010
3102
1000
,
0113
1000
0001
1100
0010
0001
0110
1000
0110
0001
0100
0011
0100
0010
1100
0010
,
0101
0010
0001
1100
0010
0001
0110
1000
0110
0001
0100
1010
0100
0010
1001
0100
,
1001
0010
0001
1100
0010
0100
1001
0010
1001
0100
0010
0101
0010
1000
0110
0001
,
1100
0010
0001
1100
0010
0001
0110
0001
0110
1000
0010
0101
0010
1100
0101
0010
,
1001
0100
0010
1100
0010
0001
1100
0110
0011
0100
0010
1100
0001
1100
0110
0011
,
1001
0100
0010
1100
0001
0100
0110
1001
0110
0001
0100
1010
0100
0011
1100
0010
,
1001
0100
0010
1001
0100
0010
0011
1100
1001
0010
0001
1100
0010
1100
0011
1001
,
1001
0010
0001
0010
0001
0010
0001
0010
1000
0010
1000
0010
1000
0010
1000
0010
2001
0010
0100
0010
0001
0000
0001
0010
3100
0000
0002
0000
0203
0000
0320
0000
,
1031
0010
0001
1100
0010
0001
0100
0011
,
1100
0010
0001
0110
1000
0101
1100
0110
,
1001
0010
0001
1100
0010
0001
0110
0001
,
1001
0100
0010
1100
0010
0001
0110
0001
,
1001
0100
0010
1100
0010
0001
0110
1000
,
0101
0010
0001
1100
0010
1001
0110
1001
,
0101
0010
0001
1100
0010
0001
0110
1000
,
0101
0010
0001
1100
0010
1001
0110
1001
,
1020
0000
0100
0000
1000
0000
0001
0000
0100
0000
0001
1000
0100
0000
0100
0000
,
2031
0000
0100
0000
0010
0000
3201
0000
0010
0000
1000
0001
2310
0000
0100
0000
,
3012
0000
1000
0000
0100
0000
1000
0000
0010
0000
0100
0010
1000
0000
0100
0000
,
1003
0000
0010
0000
0001
0000
1000
0000
0210
0000
0001
1000
0001
0000
1000
0010
,
1302
0000
0010
0000
1000
0000
0100
0000
1000
0000
0010
0100
1000
0000
0010
0000
,
2103
0000
0001
0000
0100
0000
3021
0000
0100
0000
1000
0001
1230
0000
0010
0000
,
1302
0000
0100
0000
1000
0000
0010
0000
0100
0000
1000
0010
0100
0000
0010
0000
,
1203
0000
0010
0000
1000
0000
2301
0000
0100
0000
0001
0100
3021
0100
1000
0100
,
1031
0010
0001
1100
0010
0100
1001
0010
,
1001
0100
0001
1100
0010
0101
0101
1010
,
1001
0010
0001
1100
0010
0100
1001
0010
,
0110
0001
0100
1010
0100
0001
1010
0001
,
1001
0100
0010
1100
0010
0001
0101
0010
,
1100
0010
0001
1100
0010
1001
1001
0110
,
0101
0010
0001
1100
0010
0100
1001
0010
,
1001
0100
0010
0101
0010
1100
1100
1001
,
0110
0001
0100
1010
0100
0001
0101
0010
,
1001
0000
0100
0000
0010
0000
1100
0000
0001
0000
1001
0100
1010
0000
1001
0000
,
0110
0001
0100
1010
0001
0100
1001
0010
,
0101
0010
0001
1100
0010
1001
0101
0010
,
1001
0100
0010
1100
0001
0100
0110
0001
,
1100
0000
0010
0000
0001
0000
0101
0000
0100
0000
0011
1000
0101
0000
1001
0000
,
0110
0000
0001
0000
0110
0000
1000
0000
0110
0000
0001
1000
0110
0000
1001
0000
,
0120
0000
0000
0000
0000
0000
0000
0000
1032
0000
0000
0000
0000
0000
0000
0000
1003
0000
0000
0000
1000
0100
0010
0001
1000
0000
0000
0000
1001
0000
0000
0000
,
0110
0000
0000
0000
;

//---------------dance-single - ----------------
#NOTES:
     dance-single:
     :
     Hard:
     11:
     0.996,1.000,1.000,0.374,0.700,751.000,149.000,51.000,0.000,1.000:
1001
0000
0000
0000
1000
0000
0000
0000
1001
0000
0000
0000
0001
0000
0000
0000
1001
0000
0000
0000
1000
0000
0000
0000
0001
0000
1000
0100
0010
0000
0001
0000
,
0110
0000
0000
0000
0100
0000
0000
0000
0110
0000
0000
0000
0010
0000
0000
0000
0110
0000
0000
0000
0100
0000
1000
0000
0001
0000
0001
0100
0010
0000
1000
0000
,
0101
0000
0000
0000
0001
0000
0000
0000
0101
0000
0000
0000
0100
0000
0000
0000
0101
0000
0000
0000
0001
0000
0000
0000
0101
0000
1000
0010
0100
0000
0010
0000
,
1100
0000
1000
0000
1100
0000
0100
0000
1100
0000
1000
1000
0100
0010
0100
0000
,
0101
0000
0000
0000
0001
0000
0000
0000
0101
0000
0000
0000
1000
0000
0000
0000
1100
0000
0000
0000
0100
0000
0000
0000
1100
0000
0010
0100
0010
0000
0100
0000
,
1001
0000
0001
0000
1001
0000
1000
0000
0110
0000
0010
0000
0110
0000
0100
0100
,
1001
0001
1001
1000
1100
0100
0110
0010
,
0001
0000
1100
0000
0000
0000
0101
0000
0000
0000
0010
1000
0001
0000
0001
0000
2001
0000
0000
0000
3200
0000
0000
0000
0310
0000
1000
0001
0100
0000
0010
1000
,
0001
0000
0100
0000
0110
0000
1000
0000
0001
0000
0100
0010
1000
0000
0001
0000
,
1000
0000
0010
0000
0110
0000
0001
0000
0100
0000
0010
0001
0100
0000
0010
0000
,
1000
0000
0001
0000
1100
0000
0010
0000
0001
0000
0100
0010
0001
0000
0100
0000
,
1000
0000
0001
0000
0110
0000
1000
0000
0001
0000
0100
0010
1000
0000
0100
0010
,
0001
0000
0100
0000
1001
0000
0100
0000
0001
0000
0100
0010
1000
0000
0001
0000
,
0100
0000
0001
0000
1001
0000
1000
0000
0100
0000
1000
0010
0100
0000
0001
0000
,
1000
0000
0010
0000
0110
0000
0001
0000
0100
0000
0010
1000
0001
0000
0100
0000
,
0001
0000
0100
0000
0110
0000
1000
0000
0001
0000
0100
0010
1000
0000
0010
0100
,
1001
0000
0100
0000
0101
0000
0010
0000
1000
0000
0001
0100
0010
0000
1000
0000
,
1001
0000
0100
0000
0110
0000
0001
0000
0100
0000
0010
1000
0001
0000
0100
0000
,
0101
0000
0010
0000
1100
0000
1000
0000
0010
0000
0100
0001
0100
0000
0010
0000
,
1100
0000
0010
0000
0001
0000
0100
0000
0001
0000
1000
0001
0100
0000
0010
0100
,
0011
0000
0100
0000
0110
0000
0010
0000
1000
0000
0100
0001
1000
0000
0010
0000
,
1100
0000
0010
0000
0101
0000
0010
0000
0001
0000
0100
0010
1000
0000
0100
0000
,
1001
0000
0101
0000
1000
0000
0011
0000
1000
0000
0101
1000
0100
0000
1001
0000
,
0120
0000
0000
0000
2030
0000
0000
0000
3001
0010
0100
1000
0001
0010
0100
1000
,
0002
1000
0100
0010
0000
0010
1000
0010
0203
1000
0001
0320
0000
0100
2030
0100
,
3002
0010
0100
1000
0000
1000
0100
0010
0103
1000
0010
0001
0200
0001
0010
0001
,
2300
0010
0001
0100
0000
0010
0100
0010
3002
1000
0010
0203
0000
1000
0320
0001
,
2030
0100
0010
0001
0000
0100
0010
0100
3002
0100
1000
0023
1000
0001
0230
1000
,
0302
0010
0100
0010
0000
1000
0010
1000
0203
0010
0001
2300
0000
0001
3020
1000
,
0230
0010
0001
0010
0000
0010
1000
0010
0301
0100
0010
1000
0002
0100
0010
0100
,
2003
0010
0001
0100
0000
0010
0100
0001
3020
1000
0001
0230
1000
0010
0302
0100
,
2003
0010
0001
0100
0000
0010
0001
0100
3020
0100
1000
0032
0100
1000
0203
0310
,
1001
0010
0001
0100
0010
1000
0010
0001
1100
0010
0001
0100
0010
1000
0001
0100
,
0110
0001
0100
0010
1000
0100
0010
0001
1100
0010
0001
0100
0010
1000
0100
0010
,
1001
0010
0001
0100
0010
1000
0001
0100
0110
0010
0001
0100
0010
1000
0100
0010
,
1001
0100
0010
0001
0100
0010
1000
0100
0011
1000
0100
0010
0001
0100
0010
1000
,
0101
0010
1000
0100
0010
0001
1100
0010
1001
0100
0010
1000
0001
0100
1010
0100
,
0110
0001
0100
1000
0010
0001
1100
0010
0101
0010
1000
0100
0001
0100
1010
0100
,
1001
0010
0001
1100
0010
0001
0110
1000
1001
0010
0001
0101
0010
1000
0110
0010
,
1001
0000
0010
0000
0001
0000
0110
0000
1000
0000
0100
0000
1001
0000
0010
0000
1001
0000
0001
0010
0100
0000
1000
0100
0010
0000
0002
0000
0203
0000
0320
0000
,
1030
0100
0010
1001
0010
0001
0100
0010
,
1100
0010
0100
1001
0010
0001
0100
0010
,
1100
0010
0001
1100
0010
0001
0100
0010
,
1001
0100
0010
1100
0010
0001
0100
0010
,
1001
0100
0010
1100
0010
0001
0100
0010
,
1001
0010
0001
1100
0010
0100
0101
0010
,
1100
0010
0001
1001
0100
0010
1100
0010
,
0110
0100
0001
1001
1000
0100
0110
0001
,
2000
0000
0010
0000
0001
0000
0100
0000
0010
0000
0100
0001
0010
0000
0010
0000
,
3200
0000
0001
0000
1000
0000
0320
0000
1000
0000
0100
0001
2030
0000
0100
0010
,
3002
0000
0100
0000
0010
0000
1000
0000
0100
0000
0010
1000
0100
0000
0010
0000
,
0103
0000
0001
0000
1000
0000
0010
0000
0201
0000
1000
0001
0010
0000
0010
1000
,
0320
0000
0001
0000
0100
0000
1000
0000
0100
0000
0001
0100
1000
0000
0100
0000
,
2031
0000
0010
0000
0100
0000
3002
0000
0010
0000
1000
0010
0203
0000
1000
0001
,
0320
0000
1000
0000
0100
0000
1000
0000
0001
0000
0100
1000
0100
0000
0001
0000
,
0032
0100
0100
0203
1000
1000
0320
0001
,
1030
0100
0010
0101
0010
0100
1001
0010
,
1001
0100
0010
0101
0010
1000
0110
0010
,
0110
0100
1000
0101
0010
0100
1100
0010
,
1001
0010
0001
0101
0010
1000
1100
0010
,
1001
0010
0001
1100
0010
0100
1001
0010
,
0101
0010
0001
1100
0010
0100
0011
1000
,
1001
0010
0001
1100
0010
0100
0110
0010
,
1001
0010
0100
1100
1000
0100
0101
0001
,
1001
1000
0100
0110
0010
0001
1100
0010
,
0101
0000
0010
0000
0100
0000
1100
0000
1000
0000
0001
0100
0011
0000
1000
0000
,
1001
0010
0001
1100
0010
0100
1001
0100
,
0110
0010
0001
1100
1000
0100
0110
0001
,
1100
0010
0001
0110
1000
0100
0011
0011
,
1100
0010
0001
0110
1000
0011
0110
0110
,
1100
0000
0001
0000
0100
0000
0110
0000
1000
0000
0001
0100
1010
0000
0110
0000
,
1002
0000
0000
0000
0203
0000
0000
0000
0301
0000
0010
1000
0001
0000
0100
0010
,
1001
0000
0000
0000
;
