#TITLE:Disconnected;
#SUBTITLE:-DeaD ZoNe-;
#ARTIST:Unknown artist;
#TITLETRANSLIT:;
#SUBTITLETRANSLIT:;
#ARTISTTRANSLIT:;
#CREDIT:;
#BANNER:;
#BACKGROUND:;
#LYRICSPATH:;
#CDTITLE:;
#MUSIC:Disconnected -DeaD ZoNe-.mp3;
#OFFSET:0.000;
#SAMPLESTART:99.940;
#SAMPLELENGTH:12.000;
#SELECTABLE:YES;
#BPMS:0.000=110.000,480.000=220.000,672.000=110.000,720.000=220.000,752.000=55.000;
#STOPS:;
#BGCHANGES:;
// cache tags:
#FIRSTBEAT:16.000;
#LASTBEAT:754.000;
#SONGFILENAME:Songs/toune 2/Disconnected -DeaD ZoNe-/Disconnected -DeaD ZoNe-.sm;
#HASMUSIC:1;
#HASBANNER:0;
#MUSICLENGTH:355.709;
// end cache tags

//---------------dance-single - ----------------
#NOTES:
     dance-single:
     :
     Challenge:
     10:
     0.832,1.000,0.686,0.028,1.000,1817.000,244.000,10.000,0.000,4.000:
0000
0000
0000
0000
,
0000
0000
0000
0000
,
0000
0000
0000
0000
,
0000
0000
0000
0000
,
1010
0000
0000
0000
1000
0001
0000
0000
1001
0000
0000
0000
0000
0000
0000
0110
,
0000
0000
0000
1000
0100
0000
0000
0100
0010
0100
0000
0001
0010
0001
0000
1000
,
1100
0000
0000
0010
0100
0000
0000
0000
0110
0000
0000
0000
0000
0000
0000
0101
,
0000
0000
0000
0010
0100
0000
0000
1000
0100
0001
0000
0001
0100
1000
0000
0010
,
0100
0000
1000
0000
0100
0000
0010
0000
0100
0010
0001
0010
0000
0100
0000
1100
,
0000
0100
0000
0010
0001
0000
0000
0100
0001
0100
0000
0010
0100
0010
0000
1000
,
0100
0000
1000
0000
0100
0000
0010
0000
0001
0100
1000
0010
0000
0100
0000
0110
,
0000
0010
0000
0001
0100
0000
0000
0010
0100
0010
0000
1000
0100
1000
0000
0100
,
0010
0000
1000
0000
0001
0000
1000
0000
0100
1000
0010
0100
0000
0010
0000
0101
,
0000
0010
0000
0100
1000
0000
0000
0100
1000
0100
0000
0010
0001
0010
0000
0100
,
0010
0000
0100
0000
0010
0000
0100
0000
0010
0001
1000
0100
0000
0010
0000
0110
,
0000
0000
0010
0000
0001
0000
0000
0000
0001
0000
0010
0000
0000
0000
0010
0000
0001
0100
0001
0100
0010
0000
0100
0000
1000
0000
0000
0000
1100
0000
0000
0000
,
0001
1000
0001
1000
0010
1000
0000
1100
0000
0000
0000
0000
0000
0000
0000
0000
,
1000
0000
0001
0000
1000
0000
0001
0000
0100
0000
0001
0000
0000
0000
0011
0000
0100
0010
0100
0010
0100
0000
0010
0000
1000
0000
0000
0000
1001
0000
0000
0000
,
1000
0001
1000
0001
0100
0010
0000
0110
0000
0000
0000
0000
0000
0000
0000
0000
,
0010
0000
0001
0000
0100
0000
0001
0000
1000
0000
0100
0000
0000
0000
1100
0000
0100
0010
0001
0010
0100
0000
1000
0000
0100
0000
0000
0000
1100
0000
0000
0000
,
0010
0100
0010
0100
1000
0100
0000
0101
0000
0000
0000
0000
0000
0000
0000
0000
,
0100
0000
0010
0000
0100
0000
0010
0000
0001
0000
0010
0000
0000
0000
1010
0000
0001
1000
0001
1000
0001
0000
1000
0000
0100
0000
0000
0000
0110
0000
0000
0000
,
0100
0010
0100
0010
0001
1000
0000
1001
0000
0000
0000
0000
0000
0000
0000
0000
,
1000
0000
0010
0000
0001
0000
0010
0000
0100
0000
0001
0000
0000
0000
0101
0000
0001
1000
0010
1000
0001
0000
0100
0000
0001
0000
0000
0000
0101
0000
0000
0000
,
0100
0001
0100
1000
0100
0010
0100
0001
0000
1000
0100
0010
1000
0001
0010
1000
,
0100
0001
0010
0001
0100
0010
1000
0100
0000
1000
0100
0010
0001
0100
0001
1000
,
0001
0010
0001
0100
0001
1000
0001
0010
0000
0100
0001
1000
0100
0010
1000
0100
,
0001
0010
1000
0010
0001
1000
0100
0001
0000
0100
0001
1000
0010
0001
0010
0100
,
0001
0000
1000
0000
0100
0000
1000
0000
0010
0000
0100
0000
0000
0000
0010
0000
0100
0001
1000
0001
0100
0000
0010
0000
0001
0000
0100
0000
0001
0000
1000
0000
,
0010
0000
0100
0000
0001
0000
0100
0000
1000
0000
0001
0000
0000
0000
1000
0000
0001
0010
0100
0010
0001
0000
1000
0000
0010
0000
0001
0000
0010
0000
0100
0000
,
0001
0000
0010
0000
1000
0000
0010
0000
0001
0000
1000
0000
0000
0000
0001
0000
1000
0100
0010
0100
1000
0000
0001
0000
0100
0000
1000
0000
0100
0000
0010
0000
,
0010
0000
1000
0000
0100
0000
1000
0000
0010
0000
0100
0000
0000
0000
0010
0000
0100
0001
1000
0001
0100
0000
0010
0000
0001
0000
0100
0000
0001
0000
1000
0000
,
0001
0100
0010
0100
0110
1000
0100
1000
0100
0010
0100
0001
0011
0100
0001
1000
,
0010
1000
0010
0100
0101
0010
0100
0001
1000
0010
1000
0100
1100
0100
0001
1000
,
0001
0100
0001
0010
0011
0100
0001
1000
0010
0100
0010
1000
1100
0010
0001
0100
,
0001
0010
0100
1000
1001
0100
0010
0100
0010
0100
0001
0010
0110
1000
0001
1000
,
0100
1000
0001
1000
1001
0010
1000
0010
1000
0001
1000
0100
0101
1000
0100
0010
,
0001
0010
0001
1000
1100
0001
1000
0100
0010
0001
0010
1000
1010
1000
0100
0010
,
0100
1000
0100
0001
0101
1000
0100
0010
0001
1000
0001
0010
1010
0001
0100
1000
,
0100
0001
1000
0010
0110
1000
0001
1000
0001
1000
0100
0001
1001
0010
0100
0010
,
0100
0000
0000
0000
0001
1000
0000
0000
1001
0000
0000
0000
0000
0000
0000
0100
,
0000
0000
0000
0000
0100
0010
0000
0001
0010
1000
0000
1000
0100
0001
0000
0010
,
0001
0000
0000
0000
0010
0100
0000
0000
0110
0000
0000
0000
0000
0000
0000
0001
,
0000
0000
0000
0000
0001
1000
0000
0010
1000
0100
0000
0100
0001
0010
0000
1000
,
0001
0000
0000
0000
0010
0100
0000
0000
0110
0000
0000
0000
0000
0000
0000
0001
,
0000
0000
0000
0000
0001
1000
0000
0010
1000
0100
0000
0100
0001
0010
0000
1000
,
0010
0000
0000
0000
1000
0001
0000
0000
1001
0000
0000
0000
0000
0000
0000
0010
,
0000
0000
0000
0000
0010
0100
0000
1000
0100
0001
0000
0001
0010
1000
0000
0100
,
0001
0000
0000
0000
1000
0000
0100
0000
1010
0000
0000
0000
0001
0000
0100
0000
1100
0000
0001
0100
0001
0000
0010
0000
0110
0000
0000
0000
0010
0000
1000
0000
,
0010
0000
0000
0000
0100
0000
0001
0000
1100
0000
0000
0000
0010
0000
0001
0000
0101
0000
0010
0001
0010
0000
1000
0000
1001
0000
0000
0000
1000
0000
0100
0000
,
1000
0000
0000
0000
0010
0000
1000
0000
0011
0000
0000
0000
0100
0000
1000
0000
1010
0000
0100
1000
0100
0000
0001
0000
1001
0000
0000
0000
0001
0000
0010
0000
,
0001
0000
0000
0000
1000
0000
0100
0000
1010
0000
0000
0000
0001
0000
0100
0000
1100
0000
0001
0100
0001
0000
0010
0000
0110
0000
0000
0000
0010
0000
1000
0000
,
0010
0000
0000
0000
0100
0000
0001
0000
1100
0000
0000
0000
0010
0000
0001
0000
0101
0000
0010
0001
0010
0000
1000
0000
1001
0000
0000
0000
1000
0000
0100
0000
,
1000
0000
0000
0000
0001
0000
0010
0000
0101
0000
0000
0000
1000
0000
0010
0000
0011
0000
1000
0010
1000
0000
0100
0000
0110
0000
0000
0000
0100
0000
0001
0000
,
0100
0000
0000
0000
1000
0000
0100
0000
1010
0000
0000
0000
0001
0000
0100
0000
1100
0000
0001
0100
0001
0000
0010
0000
0110
0000
0000
0000
0010
0000
1000
0000
,
0010
0000
0000
0000
0100
0000
0001
0000
1100
0000
0000
0000
0010
0000
0001
0000
0101
0000
0010
0001
0010
0000
1000
0000
1001
0000
0000
0000
1000
0000
0100
0000
,
0010
0000
0000
0000
0001
0000
0000
0000
0100
0000
1000
0000
0000
0000
1000
0000
0100
0010
0100
0010
0100
0000
0010
0000
0011
0000
0000
0000
0011
0000
0000
0000
,
0100
0000
0000
0000
1000
0000
0000
0000
0010
0000
0001
0000
0000
0000
0001
0000
0010
0100
0010
0100
0010
0000
0100
0000
1100
0000
0000
0000
1100
0000
0000
0000
,
1000
0000
0000
0000
0010
0000
0000
0000
0001
0000
0100
0000
0000
0000
0100
0000
0001
1000
0001
1000
0001
0000
1000
0000
1010
0000
0000
0000
1010
0000
0000
0000
,
0001
0000
0000
0000
0100
0000
0000
0000
1000
0000
0010
0000
0000
0000
0010
0000
1000
0001
1000
0001
1000
0000
0001
0000
0101
0000
0000
0000
0101
0000
0000
0000
,
0001
0000
0000
0000
0100
0000
0000
0000
1000
0000
0010
0000
0000
0000
0010
0000
1000
0001
1000
0001
1000
0000
0001
0000
0101
0000
0000
0000
0101
0000
0000
0000
,
1000
0000
0000
0000
0010
0000
0000
0000
0001
0000
0100
0000
0000
0000
0100
0000
0001
1000
0001
1000
0001
0000
1000
0000
1010
0000
0000
0000
1010
0000
0000
0000
,
0010
0000
0000
0000
0001
0000
0000
0000
0100
0000
1000
0000
0000
0000
1000
0000
0100
0010
0100
0010
0100
0000
0010
0000
0011
0000
0000
0000
0011
0000
0000
0000
,
0100
0000
0000
0000
1000
0000
0000
0000
0010
0000
0001
0000
0000
0000
0001
0000
0010
0100
0010
0100
0010
0000
0100
0000
1100
0000
0000
0000
1100
0000
0010
0000
,
2200
0000
0000
0000
0000
0000
0000
0000
0000
0000
0000
0000
0000
0000
0000
3310
,
0000
0000
0000
0000
0100
0001
0000
1000
0100
1000
0000
0010
0100
0010
0000
1000
,
0202
0000
0000
0000
0000
0000
0000
0000
0000
0000
0000
0000
0000
0000
0000
1303
,
0000
0000
0000
0000
0010
1000
0000
0100
0010
0001
0000
0010
0100
1000
0000
0001
,
0220
0000
0000
0000
0000
0000
0000
0000
0000
0000
0000
0000
0000
0000
0000
0331
,
0000
0000
0000
0000
0001
0100
0000
0010
0100
0010
0000
1000
0100
0010
0000
0100
,
2002
0000
0000
0000
0000
0000
0000
0000
0000
0000
0000
0000
0000
0000
0000
3103
,
0000
0000
0000
0000
0100
0010
0000
0100
0010
1000
0000
0100
0001
1000
0000
0010
,
1000
0001
0100
0001
0100
0010
1000
0000
1100
0000
0000
1000
0001
1000
0001
0000
,
1010
0000
0010
0001
0010
0001
0000
0001
0100
0000
0110
0000
1000
0001
1000
0000
,
0100
0001
0100
1000
0100
0010
0001
0000
0101
0000
0000
1000
0010
0100
0001
0000
,
0001
0010
0001
0100
0010
0100
0000
0010
0100
0000
1100
0000
0010
1000
0010
0000
,
0100
0010
0001
0010
0001
1000
0100
0000
0101
0000
0000
0100
0010
0100
0010
0000
,
1100
0000
1000
0010
1000
0010
0000
0010
0001
0000
1001
0000
0100
0010
0100
0000
,
0001
0010
0001
0100
0001
1000
0010
0000
0011
0000
0000
0100
1000
0001
0010
0000
,
0010
1000
0010
0001
1000
0001
0000
1000
0001
0000
0101
0000
1010
0000
0000
0000
,
0100
0010
0001
0010
0001
1000
0100
0000
0101
0000
0000
0100
0010
0100
0010
0000
,
1100
0000
1000
0010
1000
0010
0000
0010
0001
0000
1001
0000
0100
0010
0100
0000
,
0001
0010
0001
0100
0001
1000
0010
0000
0011
0000
0000
0100
1000
0001
0010
0000
,
0010
1000
0010
0001
1000
0001
0000
1000
0001
0000
0101
0000
1000
0100
1000
0000
,
0001
1000
0010
1000
0010
0100
0001
0000
0011
0000
0000
0001
1000
0001
1000
0000
,
0101
0000
0100
1000
0100
1000
0000
1000
0010
0000
0110
0000
0001
1000
0001
0000
,
0010
1000
0010
0001
0010
0100
1000
0001
1010
0100
0010
0001
0100
0010
1000
0010
,
1000
0000
0100
0000
1000
0000
0010
0000
0100
0000
0010
0000
0000
0000
0100
0000
0010
0001
0100
0001
1000
0010
0100
1000
0100
0010
0100
0010
0001
0010
0001
0100
,
0001
0000
0000
0000
0001
1000
0000
0000
1001
0000
0000
0000
0000
0000
0000
0100
,
0000
0000
0000
0000
0100
0010
0000
0001
0010
1000
0000
1000
0100
0001
0000
0010
,
0001
0000
0000
0000
0010
0100
0000
0000
0110
0000
0000
0000
0000
0000
0000
0001
,
0000
0000
0000
0000
0001
1000
0000
0010
1000
0100
0000
0100
0001
0010
0000
1000
,
0001
0000
0000
0000
0010
0100
0000
0000
0110
0000
0000
0000
0000
0000
0000
0001
,
0000
0000
0000
0000
0001
1000
0000
0010
1000
0100
0000
0100
0001
0010
0000
1000
,
0010
0000
0000
0000
1000
0001
0000
0000
1001
0000
0000
0000
0000
0000
0000
0010
,
0000
0000
0000
0000
0010
0100
0000
1000
0100
0001
0000
0001
0010
1000
0000
0100
,
0001
0000
0000
0000
0010
0100
0000
0000
0110
0000
0000
0000
0000
0000
0000
0001
,
0000
0000
0000
0000
0001
1000
0000
0010
1000
0100
0000
0100
0001
0010
0000
1000
,
0010
0000
0000
0000
1000
0001
0000
0000
1001
0000
0000
0000
0000
0000
0000
0010
,
0000
0000
0000
0000
0010
0100
0000
1000
0100
0001
0000
0001
0010
1000
0000
0100
,
0010
0000
0000
0000
1000
0001
0000
0000
1001
0000
0000
0000
0000
0000
0000
0010
,
0000
0000
0000
0000
0010
0100
0000
1000
0100
0001
0000
0001
0010
1000
0000
0100
,
1000
0000
0000
0000
0100
0010
0000
0000
0110
0000
0000
0000
0000
0000
0000
1000
,
0000
0000
0000
0000
1000
0001
0000
0100
0001
0010
0000
0010
1000
0100
0000
0001
,
0110
0000
0110
0000
,
0110
0000
0000
0110
0110
0000
0110
0000
,
0110
0000
0110
0000
,
0110
0000
0000
0000
0000
0000
0100
0010
0110
0000
0110
0000
0110
0000
0000
0000
,
0110
0000
0110
0000
,
0110
0000
0000
0110
0110
0000
0110
0000
,
0110
0000
0110
0000
,
0110
0000
0000
0000
0000
0000
0100
0010
0110
0000
0110
0000
0110
0000
0000
0000
,
1010
0000
0110
0000
0101
0000
0011
0110
,
1010
0000
0000
0000
0101
0000
0000
0000
0011
0000
0101
0000
1100
0000
0001
1000
,
1100
0000
1001
0000
0011
0000
1010
1001
,
1100
0000
0000
0000
0011
0000
0000
0000
1010
0000
0011
0000
0101
0000
0010
0100
,
0010
0000
0001
0000
0010
0000
1000
0000
0010
0000
0001
0000
0010
0000
1000
0001
,
0010
0000
0001
0000
0010
0000
1000
0000
0010
0000
0001
0000
0010
0000
1000
0001
,
0010
0100
1000
0100
0010
0001
0100
0001
0010
0001
0100
0010
1000
0100
1000
0100
,
0010
0000
0100
0000
0001
0000
0010
0000
0001
0000
0100
0000
0001
0000
1000
0000
0001
1000
0001
0100
0001
1000
0010
1000
0100
0010
0001
0010
0100
1000
0001
1000
,
0100
0000
0010
0001
0010
0000
0100
0010
1000
0000
0110
0000
0101
0000
0000
0000
,
1100
0000
0000
0000
0000
0000
0010
0100
0010
0000
0101
0000
1001
0000
0000
0000
,
0110
0000
0000
0000
0001
0100
1000
0000
1000
0100
0001
0000
0000
0000
1100
0000
,
1100
0000
0000
0000
0001
0010
0000
0000
0100
0000
0110
0000
1001
0000
0000
0000
,
0001
0000
1000
0010
1000
0000
0001
1000
0100
0000
1001
0000
0011
0000
0000
0000
,
0101
0000
0000
0000
0000
0000
1000
0001
1000
0000
0011
0000
0110
0000
0000
0000
,
1001
0000
0000
0000
0010
0001
0100
0000
0100
0001
0010
0000
0000
0000
0101
0000
,
0101
0000
0000
0000
0010
1000
0000
0000
0001
0000
1001
0000
0110
0000
0000
0000
,
0010
0000
0100
1000
0100
0000
0010
0100
0001
0000
0110
0000
1010
0000
0000
0000
,
0011
0000
0000
0000
0000
0000
0100
0010
0100
0000
1010
0000
1001
0000
0000
0000
,
0110
0000
0000
0000
1000
0010
0001
0000
0001
0010
1000
0000
0000
0000
0011
0000
,
0011
0000
0000
0000
1000
0100
0000
0000
0010
0000
0110
0000
1001
0000
0000
0000
,
1000
0000
0001
0100
0001
0000
1000
0001
0010
0000
1001
0000
1100
0000
0000
0000
,
1010
0000
0000
0000
0000
0000
0001
1000
0001
0000
1100
0000
0110
0000
0000
0000
,
1001
0000
0000
0000
0100
1000
0010
0000
0010
1000
0100
0000
0000
0000
1010
0000
,
1000
0010
0000
0000
0100
0001
0000
0000
1001
0000
0000
0000
0000
0000
0000
0000
,
0001
0000
1000
0010
1000
0000
0001
1000
0100
0000
1001
0000
0011
0000
0000
0000
,
0101
0000
0000
0000
0000
0000
1000
0001
1000
0000
0011
0000
0110
0000
0000
0000
,
1001
0000
0000
0000
0010
0001
0100
0000
0100
0001
0010
0000
0000
0000
0101
0000
,
0101
0000
0000
0000
0010
1000
0000
0000
0001
0000
1001
0000
0110
0000
0000
0000
,
0010
0000
0100
1000
0100
0000
0010
0100
0001
0000
0110
0000
1010
0000
0000
0000
,
0011
0000
0000
0000
0000
0000
0100
0010
0100
0000
1010
0000
1001
0000
0000
0000
,
0110
0000
0000
0000
1000
0010
0001
0000
0001
0010
1000
0000
0000
0000
0011
0000
,
0011
0000
0000
0000
1000
0100
0000
0000
0010
0000
0110
0000
1001
0000
0000
0000
,
1000
0000
0001
0100
0001
0000
1000
0001
0010
0000
1001
0000
1100
0000
0000
0000
,
1010
0000
0000
0000
0000
0000
0001
1000
0001
0000
1100
0000
0110
0000
0000
0000
,
1001
0000
0000
0000
0100
1000
0010
0000
0010
1000
0100
0000
0000
0000
1010
0000
,
1010
0000
0000
0000
0100
0001
0000
0000
1000
0000
1001
0000
0110
0000
0000
0000
,
0100
0000
0010
0001
0010
0000
0100
0010
1000
0000
0110
0000
0101
0000
0000
0000
,
1100
0000
0000
0000
0000
0000
0010
0100
0010
0000
0101
0000
1001
0000
0000
0000
,
0110
0000
0000
0000
0001
0100
1000
0000
1000
0100
0001
0000
0000
0000
1100
0000
,
0100
1000
0000
0000
0001
0010
0000
0000
0110
0000
0000
0000
0000
0000
0000
0000
,
1000
0100
0010
0100
0010
0001
0010
0100
,
0010
0001
0010
0100
0010
1000
0100
1000
,
0100
0010
0100
0010
0001
0010
0001
0010
,
0100
0001
0010
0100
0010
0001
0010
0100
,
0010
0100
1000
0100
0010
0100
1000
0100
,
0010
0001
1000
0001
0100
0010
0100
0001
,
0010
0100
1000
0100
0010
0001
1000
0001
,
0100
0010
0001
0010
0100
1000
0100
0010
0001
0000
0010
0000
1000
0000
0000
0000
,
0100
0001
1000
0001
1000
0010
1000
0001
,
1000
0010
1000
0001
1000
0100
0001
0100
,
0001
1000
0001
1000
0010
1000
0010
1000
,
0001
0010
1000
0001
1000
0010
1000
0001
,
1000
0001
0100
0001
1000
0001
0100
0001
,
1000
0010
0100
0010
0001
1000
0001
0010
,
1000
0001
0100
0001
1000
0010
0100
0010
,
0001
1000
0010
1000
0001
0100
0001
1000
0010
0100
0010
0100
0010
0001
0010
0100
,
1000
0000
0000
0000
0100
0000
0000
0000
0010
0000
0100
0000
0000
0000
0100
0000
0010
0001
0100
0001
0010
0000
1000
0000
0001
0000
0000
0000
0101
0000
0000
0000
,
0010
0000
0000
0000
0100
0000
0000
0000
0001
0000
1000
0000
0000
0000
1000
0000
0001
1000
0100
1000
0010
0000
0001
0000
0100
0000
0000
0000
0110
0000
0000
0000
,
0100
0000
0000
0000
0001
0000
0000
0000
1000
0000
0001
0000
0000
0000
0001
0000
1000
0010
0001
0010
1000
0000
0100
0000
0010
0000
0000
0000
0011
0000
0000
0000
,
1000
0000
0000
0000
0001
0000
0000
0000
0010
0000
0100
0000
0000
0000
0100
0000
0010
0100
0001
0100
1000
0000
0010
0000
0001
0000
0000
0000
1001
0000
0000
0000
,
0010
0000
0000
0000
1000
0000
0000
0000
0001
0000
1000
0000
0000
0000
1000
0000
0001
0100
1000
0100
0001
0000
0010
0000
0100
0000
0000
0000
1100
0000
0000
0000
,
0001
0000
0000
0000
1000
0000
0000
0000
0100
0000
0010
0000
0000
0000
0010
0000
0100
0010
1000
0010
0001
0000
0100
0000
1000
0000
0000
0000
1001
0000
0000
0000
,
1000
0000
0000
0000
0100
0000
0000
0000
0010
0000
0100
0000
0000
0000
0100
0000
0010
0001
0100
0001
0010
0000
1000
0000
0001
0000
0000
0000
0101
0000
0000
0000
,
0010
0000
0000
0000
0100
0000
0000
0000
0001
0000
1000
0000
0000
0000
1000
0000
0001
1000
0100
1000
0010
0000
0001
0000
0100
0000
0000
0000
0110
0000
0000
0000
,
0010
1000
0100
0010
0001
0100
1000
0010
0100
0001
0010
0001
0100
1000
0010
1000
,
0010
0100
0010
0001
0010
0001
0100
1000
0010
1000
0100
0010
0001
0010
0001
0100
,
1000
0010
0100
1000
0100
0010
0100
0001
0010
1000
0100
0010
0100
0010
0001
0100
,
1000
0010
0100
1000
0010
0100
0001
0010
0001
0100
0010
0100
1000
0001
0100
0010
,
0100
1000
0100
0010
0001
0010
0001
0100
,
0010
1000
0100
1000
0010
0100
0001
0010
,
0001
0100
0001
1000
0001
0100
0010
0100
,
0010
0001
0010
0100
1000
0010
1000
0100
,
0010
0000
0001
0010
0001
0000
1000
0010
1000
0000
0100
0010
0100
0000
0010
0001
,
0010
0000
1000
0010
0100
0000
0001
1000
0001
0000
0100
0010
0100
0000
1000
0100
,
0010
0000
0001
0010
0100
0000
1000
0100
0001
0000
0010
0100
1000
0000
0100
0010
,
0100
0010
0001
0100
0001
0010
0100
1000
0100
0010
0001
1000
0001
0100
0010
0100
,
2002
0000
3003
0000
;
