#TITLE:Here We Go;
#SUBTITLE:;
#ARTIST:m1dy;
#TITLETRANSLIT:;
#SUBTITLETRANSLIT:;
#ARTISTTRANSLIT:;
#CREDIT:Rynker;
#BANNER:Bn-Here.png;
#BACKGROUND:Bg-Here.png;
#LYRICSPATH:;
#CDTITLE:;
#MUSIC:02 Here We Go.ogg;
#OFFSET:-0.171;
#SAMPLESTART:29.659;
#SAMPLELENGTH:12.000;
#SELECTABLE:YES;
#DISPLAYBPM:200.000;
#BPMS:0.000=200.000;
#STOPS:;
#BGCHANGES:;
// cache tags:
#FIRSTBEAT:10.000;
#LASTBEAT:497.500;
#SONGFILENAME:Songs/SPEEEDCOOOORE/Here We Go - [Rynker]/Here We Go.sm;
#HASMUSIC:1;
#HASBANNER:1;
#MUSICLENGTH:151.563;
// end cache tags

//---------------dance-single - Rynker----------------
#NOTES:
     dance-single:
     Rynker:
     Challenge:
     14:
     1.000,1.000,0.271,0.871,1.000,923.000,41.000,132.000,15.000,3.000:

0000
0000
0000
0000
,
0000
0000
0000
0000
,
0000
0000
2200
0000
,
0000
0000
3300
0000
,
0000
0000
0202
0000
,
0000
0000
0303
0000
,
0000
0000
0022
0000
,
0000
0000
0033
0000
,
0000
0000
2020
0000
,
0000
0000
0000
0000
,
0000
3030
2002
0000
,
0000
0000
0000
0000
,
0000
3003
2200
0000
,
0000
3300
0022
0000
,
0000
0033
0101
1010
,
0001
0010
0100
1000
0001
0000
0100
0000
000M
M000
00M0
0M00
000M
M000
00M0
0000
,
0000
0000
1201
0000
0000
0000
0300
0000
0001
0000
1000
0010
1000
0000
0001
0000
,
1000
0100
0010
0000
0001
0000
0100
0000
0001
0000
0010
0100
1000
0000
0001
0000
,
0100
0010
1000
0000
0001
0000
0010
0001
0010
0000
0001
1000
0001
0000
1000
0000
,
0010
0100
0001
0000
1000
0000
0100
0000
0210
0000
0310
0001
1000
0000
2001
0000
,
3001
0000
1000
0001
0100
0000
0010
1000
0100
0000
0010
0000
0001
0010
0001
0000
,
1000
0000
0001
0000
0100
0000
0010
1000
0001
0000
1000
0100
0010
0000
0001
0000
,
1000
0010
1000
0000
0100
0000
0010
0001
0010
0000
0001
0100
0001
0000
0100
0000
,
0010
1000
0010
0000
1000
0000
1200
0000
0000
0300
0010
0001
0100
0000
0201
0000
,
0301
1000
0100
0010
0200
0000
0310
0001
2000
0000
0010
0000
0010
0000
0001
0000
,
0001
0000
0100
0000
0100
0000
3002
0000
0100
0000
0103
0010
1000
0000
0002
0000
,
1000
0100
0013
0000
0001
0000
0001
0010
0002
0000
0010
0000
0010
0000
1000
0000
,
1000
0000
0100
0000
0103
0000
2000
0000
3010
0100
0001
0010
0100
0000
2000
0100
,
3010
0000
0001
0000
0100
0000
0010
1000
0200
0000
0010
0000
0010
0000
1000
0000
,
1000
0000
0010
0000
0010
0000
2300
0000
0001
0000
3001
0100
0001
0000
2000
0000
,
3010
0100
0001
0000
2000
0000
3100
0000
0010
0001
1000
0010
0100
0001
1000
0100
,
0010
0001
1000
0001
0100
0010
0200
0000
0000
0000
0310
1000
0001
0000
0010
0000
,
0100
1000
0100
1000
0000
0000
0000
0000
0000
0002
0000
0000
0010
0000
0000
0010
0000
0000
1000
0000
0000
1000
0000
0000
,
0100
0000
0100
0000
1000
0000
2003
0000
0000
0000
3100
0010
0100
0000
2000
0000
,
3010
0100
0010
0100
0001
0000
0100
0001
0200
0000
0001
0000
0001
0000
0001
0000
,
0001
0000
0001
0000
0001
0000
0302
0003
0000
0000
M000
0M00
M000
000M
00M0
000M
,
0000
M000
00M0
0000
1021
0000
0000
0030
0002
0000
0010
0000
0010
0000
1000
0000
,
1000
0000
0100
0000
0103
0000
0002
0000
0003
0000
0010
0100
0010
0100
2000
0000
,
3010
0100
0010
0100
0002
0000
1003
0100
2000
0000
0100
0000
0100
0000
0001
0000
,
0001
0000
0010
0000
0010
0000
3002
0000
0103
0010
1000
0010
0100
0000
0002
0010
,
0103
0000
1000
0000
0001
0100
0002
0000
1003
0000
0010
0100
0001
0000
0102
0000
,
0103
0010
1000
0000
2010
0000
3010
0100
0001
0010
0001
1000
0100
1000
0100
0010
,
0002
0000
0103
0010
0100
0001
1000
0100
1000
0001
0010
0001
1000
0010
0100
0001
,
1000
0000
0000
0001
0000
0000
0100
0000
0000
0010
0000
0000
1000
0000
0001
0000
1000
0000
0002
0000
0000
0000
0000
0000
0000
0000
0000
0000
0000
0000
0023
0000
0000
0000
0000
0000
0230
0000
0000
0000
0000
0000
0300
0000
0000
0000
0000
0000
,
1201
0300
0000
0000
2000
0000
0000
3020
,
0000
0000
0000
0000
0230
0000
0000
0302
,
0000
0000
0000
0000
2003
0000
0000
3020
,
0000
0000
0000
0000
0000
0000
0000
0000
0230
0000
0301
0010
0001
0000
0010
0000
,
0110
0200
0000
0300
2100
0000
0000
3020
,
0000
0000
0000
0000
0230
0000
0000
0302
,
0000
0000
0000
0000
2003
0000
0000
3020
,
0000
0000
0000
0000
0000
0030
0101
0000
0000
0000
1001
0000
1001
0000
0000
0000
,
1100
0000
0000
1000
0001
0000
0010
0000
0400
0000
1000
0000
0000
0000
0340
0000
,
0001
0000
0100
0000
0034
1000
0000
4003
,
0100
0000
0010
0000
3040
0100
0000
1030
,
0004
0000
0100
0000
0000
0003
1000
0000
0100
0000
0100
1000
0100
0000
2000
3000
,
1001
0002
0103
0100
0400
0010
0000
0304
,
0010
0000
0100
0000
4003
0010
0000
3400
,
1000
0000
0010
0000
0340
0100
0000
0034
,
1000
0000
0000
0000
0100
0000
0000
0000
1003
0000
1000
0010
1000
0000
0002
0003
,
0011
0000
0020
0000
0130
1000
0000
0000
0002
0000
0000
0000
0000
0000
0203
0000
,
0000
0000
0000
0000
0320
0000
0000
2030
,
0000
0000
0000
0000
3002
0000
0000
0203
,
0000
0000
0000
0000
0000
0000
0000
0000
0310
0000
0010
1000
0010
0000
1000
0000
,
1100
0200
0000
0000
0320
0000
0000
0032
,
0000
0000
0000
0000
2003
0000
0000
3200
,
0000
0000
0000
0000
0320
0000
0000
0032
,
0000
0000
0000
0000
0000
0000
0000
0000
1003
0000
1000
0100
1000
0000
0100
0000
,
0110
0020
0000
0000
0032
0000
0000
0000
,
0000
0000
2003
0000
,
0000
0000
3200
0000
,
0000
0000
0000
0000
,
0000
0000
0000
0000
,
0000
0000
0000
0000
,
0000
0000
0000
0300
,
0000
0000
0000
0000
0000
0000
0000
0000
1000
0001
0100
0010
1000
0001
0010
0100
,
0010
0001
1000
0001
0100
0010
1000
0001
0010
0100
0010
0001
1000
0001
0100
0010
,
0100
0001
1000
0100
0010
0001
0100
0010
0100
0001
1000
0100
0010
0100
1000
0001
,
0100
0010
1000
0100
0010
0001
0100
0010
1000
0001
0010
0100
0010
0001
1000
0001
,
0100
0001
0010
0100
0010
0001
1000
0010
0200
0000
0310
1000
0010
0000
2000
0000
,
3100
0000
0010
0001
1000
0001
0010
0001
1000
0010
0100
0001
0100
0010
1000
0001
,
0010
0100
0010
0001
1000
0010
0100
0010
1000
0100
0010
0001
0010
0100
1000
0001
,
0100
0010
1000
0010
0100
0001
1000
0001
2000
0000
0000
0000
0000
0000
0000
0000
,
0000
0000
0000
0000
0000
0000
3000
0000
0001
0100
0010
1000
0100
0010
0001
0010
,
0100
1000
0001
0100
0010
0100
0001
0010
0100
1000
0010
1000
0001
0010
0100
0010
,
0001
1000
0001
0100
0010
1000
0010
0100
0001
1000
0100
0010
0001
0010
0001
1000
,
0100
1000
0001
0100
0010
0100
0001
1000
0100
0010
0100
1000
0001
0100
0010
1000
,
0100
0010
0100
1000
0001
0100
0010
1000
0001
0100
0001
0100
0001
0000
1000
0100
,
1000
0000
0100
0000
0010
0001
0010
0100
1000
0001
0100
0010
1000
0001
0010
0100
,
0010
0001
1000
0100
0010
0001
0100
0010
1000
0010
0100
0001
1000
0100
0010
0001
,
0010
0100
1000
0001
0100
0010
0100
0001
1000
0100
0010
0001
0100
0010
0100
0001
,
0010
0100
1000
0010
0100
0001
0200
0000
0000
0300
0001
0010
0001
0000
0002
0000
,
1003
0000
0100
0000
1000
0000
0100
0000
0000
0000
0000
0000
2000
0000
0000
0000
0000
0000
3000
0000
0000
0000
0000
0000
0001
0000
0000
1000
0000
0000
0010
0000
0000
0100
0000
0000
0001
0000
0000
1000
0000
0000
0100
0000
0000
0010
0000
0000
,
0100
1000
0001
1000
0010
0100
0001
1000
0100
0010
0100
1000
0001
1000
0010
0100
,
0010
1000
0001
0010
0100
1000
0010
0100
0010
1000
0001
0010
0100
0010
0001
1000
,
0010
0100
0001
0010
0100
1000
0020
0000
0030
0000
1000
0001
0010
0000
0200
0000
,
0310
0001
0010
0100
1000
0000
0001
1000
0010
1000
0100
0010
0001
0010
0100
1000
,
0001
0100
0010
1000
0001
0010
0100
1000
0001
0010
0001
1000
0010
0100
0001
1000
,
0100
0010
0100
1000
0001
0100
0010
0100
0001
0010
0100
1000
0100
0010
0001
1000
,
0010
0100
0001
0100
0010
1000
0001
1000
0100
1000
0010
0100
0001
0010
0100
1000
,
0010
0100
0001
0010
0100
1000
0100
0010
0002
0000
0010
0000
0010
0000
1000
0000
,
1000
0000
0010
0000
0013
0000
0020
0100
1030
0001
0100
0001
1000
0100
0020
0100
,
1030
0001
1000
0010
0100
0001
0200
0010
1300
0001
2000
0000
0001
0000
0001
0000
,
0010
0000
0010
0000
0001
0000
3002
0000
0013
0100
1000
0001
1000
0000
0002
0100
,
0013
1000
0001
1000
0100
0010
0002
1003
0001
0100
0002
0000
0100
0000
0100
0000
,
1000
0000
1000
0000
0010
0000
0023
0100
1030
0001
0100
0010
1000
0001
0020
0130
,
0010
0001
1000
0100
0010
0001
0100
0010
1000
0010
0100
0001
1000
0100
0010
0001
,
0010
0100
1000
0001
0100
0010
0200
0000
0000
0000
0310
1000
0001
0000
1000
0000
,
0001
0010
0001
0010
0000
0000
0000
0000
0000
0000
0000
0000
2200
0000
0000
0000
0000
0000
0000
0000
0000
0000
0000
0000
,
0000
0000
0000
0000
0000
3300
0002
0000
0103
0010
0100
0010
1000
0000
0002
0000
,
1003
0100
0010
0000
0001
0000
0100
0000
0202
0000
0000
0000
0000
0000
0000
0000
,
0000
0000
0000
0000
0303
0000
0002
0000
0013
0100
0010
0100
1000
0000
0002
0000
,
0013
0100
1000
0000
0001
0000
0010
0000
0022
0000
0000
0000
0000
0000
0000
0000
,
0000
0000
0000
0000
0033
0000
2000
0000
3010
0100
0010
0100
0001
0000
0010
0000
,
0100
1000
0002
0000
1003
0000
0010
0000
2020
0000
0000
0000
0000
0000
0000
0000
,
0000
0000
0000
0000
3030
0000
2000
0000
3010
0100
0010
0100
0001
0000
0200
0000
,
0310
1000
0001
0000
1000
0000
0001
0000
2002
0000
0000
0000
0000
0000
0000
0000
,
0000
0000
0000
0000
,
0000
3003
2200
0000
,
0000
0000
0000
0000
,
0000
3300
0220
0000
,
0000
0330
0022
0000
,
0000
0033
1001
0110
,
1000
0001
0010
0100
1000
0000
0002
0003
1000
0100
1000
0100
1000
0000
0100
0000
,
0010
0001
0100
0000
0101
0000
0001
0000
0000
0000
0000
0000
0000
0000
0000
0000
;
