#TITLE:STRUGGLE III;
#SUBTITLE:Radiata Stories (2005);
#ARTIST:岩垂徳行;
#TITLETRANSLIT:;
#SUBTITLETRANSLIT:;
#ARTISTTRANSLIT:Noriyuki Iwadare;
#CREDIT:;
#BANNER:STRUGGLE III.png;
#BACKGROUND:STRUGGLE III-bg.png;
#LYRICSPATH:;
#CDTITLE:yesssssvsdondon.png;
#MUSIC:STRUGGLE III.mp3;
#OFFSET:-0.532;
#SAMPLESTART:39.532;
#SAMPLELENGTH:12.740;
#SELECTABLE:YES;
#BPMS:0.000=160.000;
#STOPS:;
#BGCHANGES:;
// cache tags:
#FIRSTBEAT:0.000;
#LASTBEAT:268.000;
#SONGFILENAME:Songs/VGMP 3/STRUGGLE III (Yesssss & dondon151)/STRUGGLE III.sm;
#HASMUSIC:1;
#HASBANNER:1;
#MUSICLENGTH:107.964;
// end cache tags

//---------------dance-single - ----------------
#NOTES:
     dance-single:
     :
     Hard:
     12:
     1.000,1.000,1.000,0.843,0.801,602.000,246.000,91.000,0.000,59.000:
0101
1000
0010
0100
0001
0000
0000
0000
0000
0000
0000
0000
0000
0000
0000
0000
,
1000
0000
0000
0000
0000
0000
0000
0000
0010
0100
0000
0000
0000
0000
0000
0000
0000
0000
0000
0000
0010
0000
0000
0000
0010
0000
0000
0000
0010
0000
0000
0000
,
2101
3000
0001
0000
0010
0000
0100
0000
0010
0100
0000
0002
0000
0003
1000
0000
,
0011
0000
0000
0000
0000
0000
0000
0000
0000
0000
0000
0000
0000
0000
0000
0000
0000
0000
0000
0000
0000
0000
0000
0000
0011
0000
0000
0000
0000
0000
0000
0000
0000
0000
0000
0000
0000
0000
0000
0000
0000
0000
0000
0000
0000
0000
0000
0000
0110
0000
0000
0000
0000
0000
0000
0000
0000
0000
0000
0000
0000
0000
0000
0000
0000
0000
0000
0000
0000
0000
0000
0000
1010
0000
0000
0000
0000
0000
0000
0000
0000
0000
0000
0000
0000
0000
0000
0000
0000
0000
0000
0000
0000
0000
0000
0000
0000
0000
0000
0000
0000
0000
0000
0000
0000
0000
0000
0000
0001
0000
0000
0000
0000
0000
0000
0000
0000
0000
0000
0000
0010
0000
0000
0000
0000
0000
0000
0000
0000
0000
0000
0000
0000
0000
0000
0000
0000
0000
0000
0000
0000
0000
0000
0000
0000
0000
0000
0100
0000
0000
0000
0000
0000
0000
0000
0000
0000
0000
0000
0000
0000
0000
0000
1000
0000
0000
0000
0000
0000
0000
0000
0000
0000
0000
0000
0000
0000
0000
0000
0000
0000
0000
0000
0000
0000
0000
0000
0000
0000
0000
0000
0000
,
1102
0003
0010
0000
0100
0000
1000
0000
0100
0010
0000
0002
0000
0003
1000
0000
,
0011
0000
0011
0000
0101
0000
1001
0000
0100
0000
0100
1000
0100
0000
0010
0000
,
1102
0003
0010
0000
0100
0000
0100
0000
1000
0010
0000
0002
0000
0003
1000
0000
,
0101
0000
0000
0000
0110
0000
0000
0000
0110
0000
0000
0000
1100
0000
0000
0000
0000
0022
0000
0000
0000
0000
0000
0033
0022
0000
0000
0000
0003
0000
0030
0000
,
1102
0003
0010
0000
0100
0000
0100
0000
1000
0100
0000
0002
0000
0003
0100
0000
,
1001
0000
1010
0000
1100
0000
1111
0000
0111
0000
0111
0000
0222
0003
0030
0300
,
1011
0000
1000
0000
0011
0000
0100
0000
1010
0000
0000
1000
0001
0000
1000
0100
,
0011
0000
0100
0000
0101
0000
1000
0000
0110
0000
0000
0001
1000
0000
1100
0010
,
1001
0000
0100
0000
0011
0000
0100
0000
1001
0000
0000
1000
0010
0000
1000
0100
,
0011
0000
0100
0000
1010
0000
1000
0000
0101
0010
0000
0100
0010
1000
0011
1000
,
0101
0000
0100
0000
1010
0000
0100
0000
1001
0000
0000
1000
0001
0000
1000
0100
,
0011
0000
0100
0000
0011
0000
1000
0000
0101
0000
0010
0100
0010
0100
0011
1000
,
0101
0000
0100
0000
1010
0000
0100
0000
0011
0000
0000
1000
0001
0000
0100
0010
,
2001
0000
0010
0001
3200
0010
0001
1000
0320
0000
1100
0000
0032
1000
0000
0010
,
2203
0000
0000
0000
0000
0000
0000
0000
0000
0000
0000
0000
0000
0000
0000
0000
0000
0000
0000
0000
0000
0000
0000
0000
0000
0000
0000
0001
0000
0000
0000
0000
0000
0000
0000
0000
0000
0000
0000
0000
0000
0000
0000
0000
0000
0000
0000
0000
0000
0000
0000
0000
0000
0000
0000
0000
0010
0000
0000
0000
0000
0000
0000
0000
0000
0000
0000
0000
0000
0000
0000
0000
0000
0000
0000
0000
0000
0000
0000
0000
0000
0000
0000
0000
0011
0000
0000
0000
0000
0000
0000
0000
0000
0000
0000
0000
0300
0000
0000
0000
0000
0000
0000
0000
0000
0000
0000
0000
0000
0000
0000
0000
0000
0000
0000
0000
0000
0000
0000
0000
0000
0000
0000
0000
0000
0000
0000
0000
0000
0000
0000
0000
3000
0000
0000
0000
0000
0000
0000
0000
0000
0000
0000
0000
0000
0000
0000
0000
0000
0000
0000
0000
0000
0000
0000
0000
0000
0000
0000
0000
0000
0000
0000
0000
0000
0000
0000
0000
0000
0000
0000
0000
0000
0000
0000
0000
0000
0000
0000
0000
0000
0000
0000
0000
0000
0000
0000
0000
0000
0000
0000
0000
,
0000
0000
0101
0000
0000
0011
0000
0000
1010
0000
0000
0000
1100
0000
0020
0000
,
2030
0000
3011
0000
0000
0101
0000
0000
0110
0000
1000
0000
0011
0000
0000
0000
,
0000
0000
1100
0000
0000
1100
0000
0000
1100
0010
0001
1010
0100
1000
0101
0010
,
2101
0000
3000
0000
0001
0000
0110
0110
0000
0110
0110
0000
0110
0000
0101
0000
,
0000
0000
0110
0000
0000
0110
0000
0000
0101
0000
0000
1010
0000
0000
1020
0000
,
2030
0000
3110
0000
0000
0110
0000
0000
0110
0000
0000
0110
0000
0000
0101
0000
,
1111
1000
1000
1100
1010
1010
1011
1011
,
2111
3000
0001
0000
1010
0000
0100
0000
1001
0110
0001
0020
0100
1030
0101
0000
,
0101
0000
0110
0000
1010
0000
1100
0011
0000
0011
0000
0101
1010
0000
1001
0100
,
1021
0030
0001
0000
1010
0000
0100
0000
1001
0110
0001
0020
1000
0030
0101
0000
,
0011
0000
0000
0000
0000
0000
0000
0000
0101
0000
0000
0000
0000
0000
0000
0000
0110
0000
0000
0000
0000
0000
0000
1000
0011
0000
0000
0000
0000
0000
0000
0000
0000
0000
0000
0000
0000
0000
0000
0000
0101
0000
0000
0000
1000
0000
0000
0000
0110
0000
0000
0000
0001
0000
0000
0000
1010
0000
0000
0000
0000
0000
0000
0000
,
2111
3000
0001
0000
1010
0000
0100
0000
1001
0110
1000
0021
0100
0030
1001
0000
,
0011
0000
0101
0000
0110
0000
0110
1000
0100
1000
0100
1000
0100
0100
0010
0000
,
1102
0003
0010
0000
1001
0000
0100
0000
1001
0110
0001
0020
0100
1030
0001
0000
,
1100
0011
0000
0000
0110
0000
0000
0000
1010
0000
0000
0000
1100
0000
0000
0000
0001
0000
0010
0000
2001
0000
0010
0000
0001
0000
3000
0000
0100
0000
0000
0000
,
1011
0000
0100
0000
1010
0000
0100
0000
0011
0000
0000
1000
0100
0010
1001
0010
,
0101
0000
1000
0000
0110
0000
1000
0000
0100
0000
0000
0010
0001
1000
0101
1010
,
0101
0000
1000
0000
0011
0000
0100
0000
1001
0000
0000
1000
0001
0010
1100
0011
,
1100
0000
0100
0000
0011
0000
0100
0000
1001
0110
1000
0110
0001
1000
0011
1000
,
0101
0000
0100
0000
1010
0000
0100
0000
0011
0000
0001
1010
0100
0001
1100
0011
,
1100
0000
0100
0000
0011
0000
0100
0000
1001
0000
1000
0010
0100
0001
1010
0100
,
1001
0000
1000
0000
0011
0000
0100
0000
1001
0000
0000
1000
0001
0100
1001
0010
,
0200
0000
0010
0001
2300
0010
0100
0001
3020
0000
1000
0000
0230
0001
0000
1000
,
0321
0001
1031
0001
0001
0001
1021
0001
,
0231
0001
0311
2001
0001
3001
1201
0002
,
2300
0000
0000
0000
0010
0000
3223
0030
0000
0000
0000
0000
0321
0000
0000
0000
,
1030
0100
0010
0000
1200
0000
0000
0320
0000
2030
0000
0000
3021
1000
0230
0010
,
0302
0000
0003
0010
1000
0000
0100
0000
0000
0000
0000
0000
1002
0000
0000
0000
,
0023
0000
0000
0000
0100
0000
2032
0000
0000
0003
0002
0000
3123
0000
0000
0000
,
0230
0000
0000
0000
0001
0000
2300
0000
0000
0000
3000
0000
1100
0010
0101
0000
,
1101
0010
0101
0000
1100
0010
0101
0000
1100
0010
0101
0020
1001
0000
1231
0000
,
1321
0130
0001
0010
1000
0100
1001
0010
1000
0100
0001
0010
1001
0100
0001
0010
,
1001
0100
0001
0010
1000
0100
1001
0010
1000
0100
0001
0010
1001
0100
0001
0010
,
1001
0100
0001
0010
1000
0100
1001
0010
1000
0100
0001
0010
1001
0100
0001
0010
,
1001
0000
0000
0000
0000
0000
0000
0000
0000
0000
0000
0000
0100
0000
0000
0000
0000
0000
0000
0000
0000
0000
0000
0000
0001
0000
0000
0000
0000
0000
0000
0000
0000
0000
0000
0000
0010
0000
0000
0000
0000
0000
0000
0000
0000
1000
0000
0000
0000
0000
0000
0000
0000
0000
0000
0000
0000
0000
0000
0000
0100
0000
0000
0000
0000
0000
0000
0000
0010
0000
0000
0000
0000
0000
0000
0000
0000
0000
0000
0000
0000
0000
0000
0000
0000
0000
0000
0010
0000
0000
0000
0000
0000
0000
0000
0000
0000
0000
1000
0000
0000
0000
0000
0000
0000
0000
0000
0000
0000
0000
0000
0000
0100
0000
0000
0000
0000
0000
0000
0000
0000
0000
0000
0000
0000
0000
0000
0001
0000
0000
0000
0000
0000
0000
0000
0000
0000
0000
0000
0000
0000
0000
0000
0000
0100
0000
0000
0000
0000
0000
0000
0000
0000
0000
0000
0000
0000
0000
0000
0000
0000
0000
0000
0000
0000
0000
0000
0000
0000
0000
0000
0000
0000
0000
0000
0000
0000
0000
0000
0000
0000
0000
0000
0000
0000
0000
0000
0000
0000
0000
0000
0000
,
0100
0100
2000
0010
3201
0000
0300
0000
0022
0000
0033
0000
0001
0010
0100
1000
,
0110
1100
0010
0000
0022
0133
1000
0001
,
1010
0000
0100
0000
0022
0000
0033
0000
1010
0000
0100
0000
1022
0000
1033
0100
,
1011
1010
1010
1010
1010
1101
1101
1101
,
1000
0000
0000
0000
0000
0000
0000
0000
0010
0100
0000
0000
0010
0000
0100
0000
0010
0000
0100
0000
0010
0000
0100
0000
0010
0000
0100
0000
0010
0000
0100
0000
,
1012
0003
0100
0000
0010
0000
0100
0000
1000
0100
0000
0020
0000
0030
1000
0000
,
0101
0000
0000
0000
0000
0000
0000
0000
0000
0000
0000
0000
0000
0000
0000
0000
0000
0000
0000
0000
0000
0000
0000
0000
0110
0000
0000
0000
0000
0000
0000
0000
0000
0000
0000
0000
0000
0000
0000
0000
0000
0000
0000
0000
0000
0000
0000
0000
1010
0000
0000
0000
0000
0000
0000
0000
0000
0000
0000
0000
0000
0000
0000
0000
0000
0000
0000
0000
0000
0000
0000
0000
1100
0000
0000
0000
0000
0000
0000
0000
0000
0000
0000
0000
0000
0000
0000
0000
0000
0000
0000
0000
0000
0000
0000
0000
0000
0000
0000
0000
0000
0000
0000
0000
0000
0000
0000
0000
0001
0000
0000
0000
0000
0000
0000
0000
0000
0000
0000
0000
0100
0000
0000
0000
0000
0000
0000
0000
0000
0000
0000
0000
0000
0000
0000
0000
0000
0000
0000
0000
0000
0000
0000
0000
0000
0000
0000
0010
0000
0000
0000
0000
0000
0000
0000
0000
0000
0000
0000
0000
0000
0000
0000
1000
0000
0000
0000
0000
0000
0000
0000
0000
0000
0000
0000
0000
0000
0000
0000
0000
0000
0000
0000
0000
0000
0000
0000
0000
0000
0000
0000
0000
,
1012
0003
0100
0000
0010
0000
0100
0000
1000
0100
0000
0020
0000
0030
1000
0000
,
0101
0000
0110
0000
1010
0000
1100
0000
1000
0000
0100
0010
0001
0000
0100
0000
,
1012
0003
0100
0000
0010
0000
0100
0000
1000
0100
0000
0020
0000
0030
1000
0000
,
0101
0000
0000
0000
0110
0000
0000
0000
1010
0000
0000
0000
1100
0000
0000
0000
0000
0202
0000
0000
0000
0000
0000
0303
0202
0000
0000
0000
0003
0000
0300
0000
,
1012
0003
0100
0000
0010
0000
0100
0000
1000
0100
0000
0020
0000
0030
1000
0000
,
0101
0000
0110
0000
1010
0000
1111
0000
1011
0000
1011
0000
2022
0003
0030
3000
,
0111
0000
0000
0000
;

//---------------dance-single - ----------------
#NOTES:
     dance-single:
     :
     Challenge:
     12:
     1.000,1.000,1.000,0.408,0.991,700.000,299.000,44.000,0.000,43.000:
1100
0010
0100
0010
0001
0000
0000
0000
0000
0000
0000
0000
0000
0000
0000
0000
,
1100
0000
0000
0000
0000
0000
0000
0000
0010
0001
0000
0000
0000
0000
0000
0000
0000
0000
0000
0000
0100
0000
0000
0000
0100
0000
0000
0000
0100
0000
0000
0000
,
1012
0003
0100
0000
0011
0000
0100
0000
1010
0100
0001
0010
0100
0000
1000
0000
,
0101
0000
0000
0000
1010
0000
0000
0000
0110
0000
0000
0000
1100
0000
0000
0000
0010
0000
1001
0000
0110
0000
0000
0000
0101
0000
0000
1010
0100
0000
0000
0000
,
1011
0000
0100
0000
0011
0000
0100
0000
1010
0100
0001
0010
0100
0000
1000
0000
,
0101
0000
1010
0000
0110
0000
1100
0000
1001
0100
1010
0100
0011
0000
0110
0000
,
1012
0003
0100
0000
0011
0000
0100
0000
1010
0100
0001
0010
0100
0000
1100
0000
,
0101
0000
0000
0000
1010
0000
0000
0000
0110
0000
0000
0000
1100
0000
0000
0000
1010
0000
0102
0003
0010
0000
0100
0000
0012
0003
0000
0000
0100
0000
0000
0000
,
1012
0003
0100
0000
0011
0000
0100
0000
1010
0100
0001
0010
0100
0000
1000
0000
,
0101
0000
0000
0000
0000
0000
0000
0000
0000
0000
0000
0000
0000
0000
0000
0000
0000
0000
0000
0000
0000
0000
0000
0000
1010
0000
0000
0000
0000
0000
0000
0000
0000
0000
0000
0000
0000
0000
0000
0000
0000
0000
0000
0000
0000
0000
0000
0000
0110
0000
0000
0000
0000
0000
0000
0000
0000
0000
0000
0000
0000
0000
0000
0000
0000
0000
0000
0000
0000
0000
0000
0000
1010
0001
0000
0000
0000
0000
0000
0000
0000
0000
0000
0000
0000
0000
0000
0000
0000
0000
0000
0000
0000
0000
0000
0000
0010
0001
0000
0000
0000
0000
0000
0000
0000
0000
0000
0000
0000
0000
0000
0000
0000
0000
0000
0000
0000
0000
0000
0000
0100
0010
0000
0000
0000
0000
0000
0000
0000
0000
0000
0000
0000
0000
0000
0000
0000
0000
0000
0000
0000
0000
0000
0000
1001
0200
0000
0000
0000
0000
0000
0000
0000
0000
0000
0000
0010
0000
0000
0000
0000
0000
0000
0000
0000
0000
0000
0000
0001
0000
0000
0000
0000
0000
0000
0000
0000
0000
0000
0000
0000
0000
0000
0000
0000
0000
0300
0000
0000
0000
0000
0000
,
1101
0000
0100
0000
0011
0000
0100
0000
0101
0000
0010
1000
0100
0000
1000
0010
,
0101
0000
0100
0000
0011
0000
1100
0010
0101
0000
0010
0001
0100
0000
1001
0010
,
0101
0000
0100
0000
0011
0000
1100
0010
0101
0000
0010
1000
0100
0000
1000
0010
,
0101
0000
0100
0000
0011
0000
1100
0010
0101
0010
0001
1100
0010
0100
1001
0000
,
0101
0000
0100
0000
0011
0000
0100
0000
0101
0000
0010
1000
0100
0000
1000
0010
,
0101
0000
0110
0000
0011
0000
1100
0010
1001
0000
1000
0100
0011
0100
1001
0010
,
0101
0000
0100
0000
0011
0000
1100
0010
0101
0000
0010
1000
0100
0000
1000
0010
,
2101
0000
0000
0000
0010
0000
0000
3000
0211
0000
0000
0000
0000
0000
0000
0300
1021
0000
0000
0000
0100
0000
0000
0030
1201
0000
0000
0000
0010
0000
0000
0300
,
1012
0000
0000
0000
0000
0000
0000
0000
0000
0000
0000
0000
1000
0000
0110
0000
0000
0000
0000
0000
0000
1100
0000
0000
0000
0000
0000
0000
0000
0000
0000
0000
0000
0000
0000
0000
1000
0000
0000
0003
0000
0000
0000
0000
0000
0000
0000
0000
,
0100
0000
0011
0000
1000
0110
0000
0000
1100
0000
0000
0000
1001
0000
0100
0000
,
0010
0000
0000
0101
0000
0000
1000
0110
0000
0000
0000
0000
1010
0000
0000
0100
0000
0000
1010
0000
0000
0000
0000
0000
,
0010
0000
0000
0000
0000
0000
0000
0000
0000
0000
0000
0000
0000
0000
0000
0000
0000
0000
0000
0000
0000
0000
0000
0000
1000
0100
0000
0000
0000
0000
0000
0000
0000
0000
0000
0000
0000
0000
0000
0000
0000
0000
0000
0000
0000
0000
0000
0000
0001
0000
0000
0000
0000
0000
0000
0000
0000
0000
0000
0000
1000
0100
0000
0000
0000
0000
0000
0000
0000
0000
0000
0000
0000
0000
0000
0000
0000
0000
0000
0000
0000
0000
0000
0000
0000
0000
0000
0000
0000
0000
0000
0000
0000
0000
0000
0000
1100
0000
0000
0000
0000
0000
0000
0000
0000
0000
0000
0000
0001
0000
0000
0000
0000
0000
0000
0000
0000
0000
0000
0000
0100
0000
0000
0000
0000
0000
0000
0000
0000
0000
0000
0000
1010
0000
0000
0000
0000
0000
0000
0000
0000
0000
0000
0000
0101
0000
0000
0000
0000
0000
0000
0000
0000
0000
0000
0000
0010
0000
0000
0000
0000
0000
0000
0000
0000
0000
0000
0000
1001
0000
0000
0000
0000
0000
0000
0000
0000
0000
0000
0000
0100
0000
0000
0000
0000
0000
0000
0000
0000
0000
0000
0000
,
1011
0000
0000
0000
0000
0000
0000
0000
0000
0000
0000
0000
0000
0000
0000
0000
0000
0000
0000
0000
0000
0000
0000
0000
0000
0000
0000
0000
0000
0000
0000
0000
0000
0000
0000
0000
0000
0000
0000
0000
0000
0000
0000
0000
0000
0000
0000
0000
1000
0000
0000
0000
0000
0000
0000
0000
0000
0000
0000
0000
0000
0000
0000
0000
0000
0000
0000
0000
0000
0000
0000
0000
0101
0000
0000
0000
0000
0000
0000
0000
0000
0000
0000
0000
0000
0000
0000
0000
0000
0000
0000
0000
0000
0000
0000
0000
0000
0000
0000
0000
0000
0000
0000
0000
0101
0000
0000
0000
0000
0000
0000
0000
0000
0000
0000
0000
0000
0000
0000
0000
0000
0000
0000
0000
0000
0000
0000
0000
0000
0000
0000
0000
0000
0000
0000
0000
0000
0000
0101
0000
0000
0000
0000
0000
1000
0000
0000
0000
0000
0000
0000
0000
0000
0000
0000
0000
0000
0000
0000
0000
0000
0000
0000
0000
0000
0000
0000
0000
0011
0000
0000
0000
0000
0000
0000
0000
0000
0000
0000
0000
0000
0000
0000
0000
0000
0000
0000
0000
0000
0000
0000
0000
,
1000
0000
0101
0000
1000
0101
0000
0000
0101
1000
0100
1010
0101
0010
1100
0001
,
0000
0000
0101
0000
1000
0101
0000
0000
0101
0000
0000
0101
1000
0000
0011
0000
,
1101
0010
0100
1010
1101
1101
0111
0111
,
1012
0003
0100
0000
0011
0000
0100
0000
1010
0101
1000
0010
0100
0001
1100
0000
,
0101
0000
0000
0000
1010
0000
0000
0000
0110
0000
0000
0000
1100
0000
0012
0003
0100
0000
0012
0003
1000
0000
0010
0000
0101
0000
1000
0000
0011
0000
0100
0000
,
1012
0003
0100
0000
0011
0000
0100
0001
1010
0101
0000
0010
0100
0000
1000
0000
,
0101
0000
0000
0000
0000
0000
0000
0000
1010
0000
0000
0000
0000
0000
0000
0000
0110
0000
0000
0000
0000
0000
0000
1100
0010
0000
0000
0000
0001
0000
0000
0000
0010
0000
0000
0000
0100
0000
0000
0000
0011
0000
0000
0000
1000
0000
0000
0000
0101
0000
0000
0000
1000
0000
0000
0000
0011
0000
0000
0000
0000
0000
0000
0000
,
1012
0003
0100
0000
0011
0000
0100
0001
1010
0101
0000
0010
0100
0000
1000
0000
,
0101
0000
1010
0000
0110
0000
1010
0100
1001
0100
1000
0101
1000
1000
0101
0000
,
1012
0003
0100
0000
0011
0000
0100
0001
1010
0101
0000
0010
0001
0010
1100
0000
,
1001
0000
0010
0000
0000
0000
0000
0000
0100
0000
0000
0000
0000
0000
0000
0000
0010
0000
0000
0000
0000
0000
0000
0000
1000
0000
0000
0000
0000
0000
0000
0000
0100
0000
0000
0000
1000
0000
0000
0000
0110
0002
0000
0000
1000
0000
0000
0000
0010
0000
0000
0000
0000
0000
0000
0000
0100
0000
0000
0000
0000
0000
0003
0000
,
1110
0000
0110
0000
0011
0000
0100
0000
0011
0000
0000
1000
0010
0100
1000
0010
,
0101
1000
0110
0000
0011
0000
0100
0000
0011
1000
0100
1001
0100
0010
1001
0010
,
0101
0000
0110
0000
0011
0000
0100
0000
0011
0100
0000
1000
0010
0100
1000
0010
,
0101
0000
0110
0000
0011
0000
0100
0000
1001
0110
0001
1100
0010
0100
1001
0010
,
0101
0000
0110
0000
0011
0000
0100
0000
0011
0000
0010
1100
0010
0100
1000
0010
,
0101
0000
0110
0000
0011
0000
0100
0000
1001
0000
0010
0100
0010
0100
1001
0000
,
0101
0000
0110
0000
0011
0000
0100
0000
0011
0000
0010
1100
0010
0100
1000
0010
,
2101
0000
0000
0000
0010
0000
0000
3000
0211
0000
0000
0000
0000
0000
0000
0300
1021
0000
0000
0000
0100
0000
0000
0030
1201
0000
0000
0000
0010
0000
0000
0300
,
1012
0000
0000
0000
1000
0000
0000
0010
0000
0010
0100
0003
1001
0000
0000
0000
,
0110
0000
0000
0000
0010
0000
1001
0100
0010
0001
0100
0001
0110
1000
0102
0000
,
1010
0000
0000
0000
0000
0000
0000
0000
0100
0000
0003
0000
1020
0030
0000
0000
0001
0000
0010
0000
0001
0000
0000
0000
0101
0000
0010
0000
0001
0000
0000
0000
,
1000
0100
0010
0000
0102
0000
0003
2000
3000
0200
0000
0300
0011
0100
0010
0001
,
1020
0030
0100
0000
0001
0000
1000
0010
0000
0010
0100
0000
1001
0000
0000
0000
,
0110
0000
0001
0100
0010
1000
0102
0000
1000
0003
0012
0103
1020
0100
1000
0030
,
0110
0000
0000
0000
0010
0000
1100
0000
0000
0000
0100
0000
1010
0100
0010
0000
,
1001
0100
0011
0000
1001
0100
1010
0000
1001
0100
1010
0002
0100
0003
1100
0000
,
1012
0103
0010
0100
1001
0100
0010
0100
1000
0100
0010
0100
1001
0100
0010
0100
,
1000
0100
0010
0100
1001
0100
0010
0100
1000
0100
0010
0100
1001
0100
0010
0100
,
1000
0100
0010
0100
1001
0100
0010
0100
1000
0100
0010
0100
1001
0100
0010
0100
,
1000
0000
0000
0000
0000
0000
0000
0000
0000
0000
0000
0000
0100
0000
0000
0000
0000
0000
0000
0000
0000
0000
0000
0000
0010
0000
0000
0000
0000
0000
0000
0000
0000
0000
0000
0000
0100
0000
0000
0000
0000
0000
0000
0000
0000
1000
0000
0000
0001
0000
0000
0000
0000
0000
0000
0000
0000
0000
0000
0000
0100
0000
0000
0000
0000
0000
0000
0000
0000
0010
0000
0000
0000
0000
0000
0000
0000
0000
0000
0000
0000
0100
0000
0000
0000
0000
0000
0000
0000
0000
0000
0000
0010
0000
0000
0000
0000
0000
0000
0001
0000
0000
0000
0000
0000
0000
0000
0000
0000
0000
0000
1000
0000
0000
0000
0000
0000
0000
0000
0000
0000
0000
0000
0000
0100
0000
0000
0000
0000
0000
0000
0000
0000
0000
0000
0000
0000
0000
0000
0000
0000
0000
0000
0000
0001
0000
0000
0000
0000
0000
0000
0000
0000
0000
0000
0000
0000
0000
0000
0000
0000
0000
0000
0000
0000
0000
0000
0000
0000
0000
0000
0000
0000
0000
0000
0000
0000
0000
0000
0000
0010
0000
0000
0000
0000
0000
0000
0000
0000
0000
0000
0000
,
1100
0100
0010
0100
1001
0000
0010
0100
0021
0130
1000
0000
1001
0100
0010
1000
,
0011
0000
0110
0001
1110
0000
0010
0100
1020
0030
0101
0010
1100
0001
0110
0001
,
1010
0000
0000
0000
0000
0000
0000
0000
0110
0000
0000
0000
0000
0000
0000
0000
1002
0000
0000
0000
0003
0000
0000
0000
0000
0000
0000
0000
0000
0000
0000
0000
1010
0000
0000
0000
0000
0000
0000
0000
0110
0000
0000
0000
0000
0000
0000
0000
1002
0000
0000
0000
0003
0000
0000
0000
0100
0000
0000
1000
0000
0000
0000
0000
,
0011
1110
1110
1110
1110
1011
1011
1011
,
0100
0000
0000
0000
0000
0000
0000
0000
0010
0001
0000
0000
1000
0000
0010
0000
0100
0000
0010
0000
0100
0000
0010
0000
0100
0000
0010
0000
0100
0000
0010
0000
,
1102
0003
0010
0000
0101
0000
0010
0000
1100
0010
0100
0001
0010
0000
0100
0000
,
1001
0000
0000
0000
0101
0000
0000
0000
1010
0000
0000
0000
1100
0000
0000
0000
1000
0000
0101
0000
1010
0000
0000
0000
0110
0000
0000
1001
0010
0000
0000
0000
,
1101
0000
0010
0000
0101
0000
0010
0000
1100
0010
0100
0001
0010
0000
0100
0000
,
1001
0000
0101
0000
1010
0000
1100
0000
1001
0100
1010
0001
0110
0000
0011
0000
,
1102
0003
0010
0000
0101
0000
0010
0000
1100
0010
0100
0001
0010
0000
0110
0000
,
1001
0000
0000
0000
0101
0000
0000
0000
1010
0000
0000
0000
1100
0000
0000
0000
0110
0000
1002
0003
0100
0000
0010
0000
0102
0003
0000
0000
0010
0000
0000
0000
,
1102
0003
0010
0000
0101
0000
0010
0000
1100
0010
0100
0001
0010
0000
0100
0000
,
1001
0000
0000
0000
0000
0000
0000
0000
0000
0000
0000
0000
0000
0000
0000
0000
0000
0000
0000
0000
0000
0000
0000
0000
0101
0000
0000
0000
0000
0000
0000
0000
0000
0000
0000
0000
0000
0000
0000
0000
0000
0000
0000
0000
0000
0000
0000
0000
1010
0000
0000
0000
0000
0000
0000
0000
0000
0000
0000
0000
0000
0000
0000
0000
0000
0000
0000
0000
0000
0000
0000
0000
0110
0001
0000
0000
0000
0000
0000
0000
0000
0000
0000
0000
0000
0000
0000
0000
0000
0000
0000
0000
0000
0000
0000
0000
0010
0001
0000
0000
0000
0000
0000
0000
0000
0000
0000
0000
0000
0000
0000
0000
0000
0000
0000
0000
0000
0000
0000
0000
0100
0010
0000
0000
0000
0000
0000
0000
0000
0000
0000
0000
0000
0000
0000
0000
0000
0000
0000
0000
0000
0000
0000
0000
1001
0200
0000
0000
0000
0000
0000
0000
0000
0000
0000
0000
0010
0000
0000
0000
0000
0000
0000
0000
0000
0000
0000
0000
0001
0000
0000
0000
0000
0000
0000
0000
0000
0000
0000
0000
0000
0000
0000
0000
0000
0000
0300
0000
0000
0000
0000
0000
,
1011
0000
0000
0000
;

//---------------dance-single - Copied from----------------
#NOTES:
     dance-single:
     Copied from:
     Medium:
     10:
     1.000,1.000,1.000,0.760,0.801,597.000,170.000,82.000,0.000,0.000:
0101
1000
0010
0100
0001
0000
0000
0000
0000
0000
0000
0000
0000
0000
0000
0000
,
1000
0000
0000
0000
0000
0000
0000
0000
0010
0001
0000
0000
0000
0000
0000
0000
0000
0000
0000
0000
0100
0000
0000
0000
0100
0000
0000
0000
0100
0000
0000
0000
,
1002
0000
0003
0000
0010
0000
0000
0000
0100
0000
0000
0000
1000
0000
0000
0000
0100
0000
0010
0000
0000
0000
0002
0000
0000
0003
0000
0000
1000
0000
0000
0000
,
0101
0000
0000
0000
0000
0000
0000
0000
0000
0000
0000
0000
0000
0000
0000
0000
0000
0000
0000
0000
0000
0000
0000
0000
1010
0000
0000
0000
0000
0000
0000
0000
0000
0000
0000
0000
0000
0000
0000
0000
0000
0000
0000
0000
0000
0000
0000
0000
0110
0000
0000
0000
0000
0000
0000
0000
0000
0000
0000
0000
0000
0000
0000
0000
0000
0000
0000
0000
0000
0000
0000
0000
1000
0000
0000
0000
0000
0000
0000
0000
0000
0000
0000
0000
0000
0000
0000
0000
0000
0000
0000
0000
0000
0000
0000
0000
0000
0000
0000
0000
0000
0000
0000
0000
0000
0000
0000
0000
0001
0000
0000
0000
0000
0000
0000
0000
0000
0000
0000
0000
0010
0000
0000
0000
0000
0000
0000
0000
0000
0000
0000
0000
0000
0000
0000
0000
0000
0000
0000
0000
0000
0000
0000
0000
0000
0000
0000
0100
0000
0000
0000
0000
0000
0000
0000
0000
0000
0000
0000
0000
0000
0000
0000
1000
0000
0000
0000
0000
0000
0000
0000
0000
0000
0000
0000
0000
0000
0000
0000
0000
0000
0000
0000
0000
0000
0000
0000
0000
0000
0000
0000
0000
,
1002
0000
0003
0000
0010
0000
0000
0000
0100
0000
0000
0000
1000
0000
0000
0000
0100
0000
0010
0000
0000
0000
0002
0000
0000
0003
0000
0000
1000
0000
0000
0000
,
0101
0000
1010
0000
0110
0000
1000
0000
1000
0010
0100
0001
0100
0000
0010
0000
,
1002
0000
0003
0000
0010
0000
0000
0000
0100
0000
0000
0000
1000
0000
0000
0000
0100
0000
0010
0000
0000
0000
0002
0000
0000
0003
0000
0000
1000
0000
0000
0000
,
0101
0000
0000
0000
1010
0000
0000
0000
0110
0000
0000
0000
1000
0000
0000
0000
0000
0022
0000
0000
0000
0000
0000
0033
0022
0000
0000
0000
0003
0000
0030
0000
,
1002
0000
0003
0000
0010
0000
0000
0000
0100
0000
0000
0000
1000
0000
0000
0000
0100
0000
0010
0000
0000
0000
0002
0000
0000
0003
0000
0000
1000
0000
0000
0000
,
0101
0000
0000
0000
0000
0000
0000
0000
0000
0000
0000
0000
0000
0000
0000
0000
0000
0000
0000
0000
0000
0000
0000
0000
1010
0000
0000
0000
0000
0000
0000
0000
0000
0000
0000
0000
0000
0000
0000
0000
0000
0000
0000
0000
0000
0000
0000
0000
0110
0000
0000
0000
0000
0000
0000
0000
0000
0000
0000
0000
0000
0000
0000
0000
0000
0000
0000
0000
0000
0000
0000
0000
0010
0001
0000
0000
0000
0000
0000
0000
0000
0000
0000
0000
0000
0000
0000
0000
0000
0000
0000
0000
0000
0000
0000
0000
0010
0001
0000
0000
0000
0000
0000
0000
0000
0000
0000
0000
0000
0000
0000
0000
0000
0000
0000
0000
0000
0000
0000
0000
0100
0010
0000
0000
0000
0000
0000
0000
0000
0000
0000
0000
0000
0000
0000
0000
0000
0000
0000
0000
0000
0000
0000
0000
2000
0200
0000
0000
0000
0000
0000
0000
0000
0000
0000
0000
0000
0000
0000
0000
0000
0000
0300
0000
0000
0000
0000
0000
0000
0000
0000
0000
0000
0000
0000
0000
0000
0000
0000
0000
3000
0000
0000
0000
0000
0000
0000
0000
0000
0000
0000
0000
,
1001
0000
1000
0000
0011
0000
0100
0000
1010
0000
0000
1000
0001
0000
1000
0100
,
0011
0000
0100
0000
0101
0000
1000
0000
0110
0000
0000
0001
1000
0000
0100
0010
,
1001
0000
0100
0000
0011
0000
0100
0000
1001
0000
0000
1000
0010
0000
1000
0100
,
0011
0000
0100
0000
1010
0000
1000
0000
0101
0010
0000
0100
0010
1000
0001
1000
,
0101
0000
0100
0000
1010
0000
0100
0000
1001
0000
0000
1000
0001
0000
1000
0100
,
0011
0000
0100
0000
0011
0000
1000
0000
0101
0000
0010
0100
0010
0100
0001
1000
,
0101
0000
0100
0000
1010
0000
0100
0000
0011
0000
0000
1000
0001
0000
0100
0010
,
2001
0000
0000
0000
0010
0000
0000
3000
0200
0000
0000
0000
0000
0000
0000
0300
0020
0000
0000
0000
0100
0000
0000
0030
0002
0000
0000
0000
0100
0000
0000
0003
,
2000
0000
0000
0000
0000
0000
0000
0000
0000
0000
0000
0000
0000
0000
0000
0000
0000
0000
0000
0000
0000
0000
0000
0000
0000
0000
0000
0001
0000
0000
0000
0000
0000
0000
0000
0000
0000
0000
0000
0000
0000
0000
0000
0000
0000
0000
0000
0000
3000
0000
0000
0000
0000
0000
0000
0000
0011
0000
0000
0000
0000
0000
0000
0000
0000
0000
0000
0000
0000
0000
0000
0000
0000
0000
0000
0000
0000
0000
0000
0000
0000
0000
0000
0000
0101
0000
0000
0000
0000
0000
0000
0000
0000
0000
0000
0000
0000
0000
0000
0000
0000
0000
0000
0000
0000
0000
0000
0000
0000
0000
0000
0000
0000
0000
0000
0000
0000
0000
0000
0000
0000
0000
0000
0000
0000
0000
0000
0000
0000
0000
0000
0000
0000
0000
0000
0000
0000
0000
0000
0000
0000
0000
0000
0000
0000
0000
0000
0000
0000
0000
0000
0000
0000
0000
0000
0000
0000
0000
0000
0000
0000
0000
0000
0000
0000
0000
0000
0000
0000
0000
0000
0000
0000
0000
0000
0000
0000
0000
0000
0000
0000
0000
0000
0000
0000
0000
0000
0000
0000
0000
0000
0000
,
0000
0000
0000
0000
0101
0000
0000
0000
0000
0000
0011
0000
0000
0000
0000
0000
1010
0000
0000
0000
0000
0000
0000
0000
1100
0000
0000
0000
0020
0000
0000
0030
,
1000
0000
0000
0011
0000
0000
0000
0101
0000
0000
0000
0000
0110
0000
0000
1000
0000
0000
0011
0000
0000
0000
0000
0000
,
0000
0000
1100
0000
0000
1100
0000
0000
1100
0010
0001
0010
0100
1000
0100
0010
,
2001
0000
0000
0000
0000
0000
0000
0000
0000
0000
0000
0000
0000
0000
0000
0000
0000
0000
3000
0000
0000
0000
0000
0000
0000
0000
0000
0000
0000
0000
0000
0000
0000
0000
0000
0000
0000
0000
0000
0000
0000
0000
0000
0000
0000
0000
0000
0000
0001
0000
0000
0000
0000
0000
0000
0000
0000
0000
0000
0000
0000
0000
0000
0000
0000
0000
0000
0000
0000
0000
0000
0000
0110
0000
0000
0000
0000
0000
0000
0000
0000
0000
0000
0000
0100
0000
0000
0000
0000
0000
0000
0000
0000
0000
0000
0000
0000
0000
0000
0000
0000
0000
0000
0000
0110
0000
0000
0000
0000
0000
0000
0000
0000
0000
0000
0000
0000
0000
0000
0000
0000
0000
0000
0000
0000
0000
0000
0000
0000
0000
0000
0000
0000
0000
0000
0000
0000
0000
0110
0000
0000
0000
0000
0000
0000
0000
0000
0000
0000
0000
0000
0000
0000
0000
0000
0000
0000
0000
0000
0000
0000
0000
0000
0000
0000
0000
0000
0000
0101
0000
0000
0000
0000
0000
0000
0000
0000
0000
0000
0000
0000
0000
0000
0000
0000
0000
0000
0000
0000
0000
0000
0000
,
0000
0000
0000
0000
0110
0000
0000
0000
0000
0000
0110
0000
0000
0000
0000
0000
0110
0000
0000
0000
0000
0000
1100
0000
0000
0000
0000
0000
1020
0000
0000
0030
,
1000
0000
0110
0000
0000
0110
0000
0000
0110
0000
0000
0110
0000
0000
0101
0000
,
1001
0010
0100
1100
1010
1010
1001
1001
,
2001
0000
3000
0000
0001
0000
0000
0000
1010
0000
0000
0000
0100
0000
0000
0000
1001
0000
0010
0000
0001
0000
0020
0000
0100
0030
1000
0000
0101
0000
0000
0000
,
0101
0000
0110
0000
1010
0000
0100
0011
0000
0011
0000
0010
1100
0000
1000
0100
,
0021
0000
0030
0000
0001
0000
0000
0000
1010
0000
0000
0000
0100
0000
0000
0000
1001
0000
0100
0000
0001
0000
0020
0000
0100
0030
0000
0000
1001
0000
0000
0000
,
0011
0000
0000
0000
0000
0000
0000
0000
0101
0000
0000
0000
0000
0000
0000
0000
0110
0000
0000
0000
0000
0000
0000
1000
0001
0000
0000
0000
0000
0000
0000
0000
0000
0000
0000
0000
0000
0000
0000
0000
0001
0000
0000
0000
1000
0000
0000
0000
0010
0000
0000
0000
0100
0000
0000
0000
0001
0000
0000
0000
0000
0000
0000
0000
,
2001
0000
3000
0000
0001
0000
0000
0000
1010
0000
0000
0000
0100
0000
0000
0000
1001
0000
0010
0000
1000
0000
0020
0000
0100
0030
0000
0000
1001
0000
0000
0000
,
0011
0000
0101
0000
0110
0000
0100
1000
0100
1000
0100
1000
0100
0100
0010
0000
,
1002
0000
0003
0000
0010
0000
0000
0000
1001
0000
0000
0000
0100
0000
0000
0000
1001
0000
0010
0000
0001
0000
0020
0000
0100
0030
1000
0000
0001
0000
0000
0000
,
1000
0001
0000
0000
0110
0000
0000
0000
1010
0000
0000
0000
0100
0000
0000
0000
1000
0000
0010
0000
0100
0000
0001
0000
0010
0000
0000
0000
0100
0000
0000
0000
,
1001
0000
0100
0000
1010
0000
0100
0000
0011
0000
0000
1000
0100
0010
0001
0010
,
0101
0000
1000
0000
0110
0000
1000
0000
0100
0000
0000
0010
0001
1000
0001
1000
,
0011
0000
1000
0000
0011
0000
0100
0000
1001
0000
0000
0100
1000
0010
1000
0001
,
1100
0000
0100
0000
0011
0000
0100
0000
1001
0010
0001
0100
0001
1000
0010
1000
,
0101
0000
0100
0000
1010
0000
0100
0000
0011
0000
0001
0010
0100
1000
0100
0010
,
1100
0000
0100
0000
0011
0000
0100
0000
1001
0000
1000
0010
0100
0001
0010
0100
,
1001
0000
1000
0000
0011
0000
0100
0000
1001
0000
0000
1000
0001
0100
0001
0010
,
0200
0000
0000
0000
0001
0000
0000
0300
2000
0000
0000
0000
0000
0000
0000
3000
0020
0000
0000
0000
1000
0000
0000
0030
0200
0000
0000
0000
1000
0000
0000
0300
,
0021
0000
0000
0000
0001
0000
0000
0000
0031
0000
0000
0000
0001
0000
0000
0000
0001
0000
0000
0000
0001
0000
0000
0000
0021
0000
0000
0000
0001
0000
0000
0030
,
0201
0000
0000
0000
0001
0000
0000
0000
0301
0000
0000
0000
2001
0000
0000
0000
0001
0000
0000
0000
3001
0000
0000
0000
0201
0000
0000
0000
0002
0000
0000
0300
,
2000
0000
0000
0000
0000
0000
0000
0000
0000
0000
0000
3003
0220
0000
0030
0000
0000
0000
0000
0000
0000
0000
0000
0300
0020
0000
0000
0000
0000
0000
0000
0000
,
1030
0000
0100
0000
0010
0000
0000
0000
0200
0000
0000
0000
0000
0300
0020
0000
0000
0030
2000
0000
0000
0000
0000
3000
0100
0000
1000
0000
0100
0000
0010
0000
,
0002
0000
0000
0003
0100
0000
0000
0000
0000
0000
0000
0000
1000
0000
0000
0000
0000
0000
0000
0000
0000
0000
0000
0000
0002
0000
0000
0000
0000
0000
0000
0003
,
0020
0000
0000
0000
0000
0000
0000
0000
0000
0000
0000
0030
2002
0000
0000
0000
0000
0000
0003
0000
0002
0000
0000
3003
0020
0000
0000
0000
0000
0000
0000
0030
,
0200
0000
0000
0000
0000
0000
0000
0000
0000
0000
0000
0300
2000
0000
0000
0000
0000
0000
0000
3000
0000
0000
0000
0000
0100
0000
0010
0000
0001
0000
0000
0000
,
0100
0000
0010
0000
0001
0000
0000
0000
0100
0000
0010
0000
0001
0000
0000
0000
0100
0000
0010
0000
1001
0000
0020
0000
1000
0000
0000
0030
1200
0000
0000
0300
,
1001
0100
0010
0100
1000
0100
0010
0100
1000
0100
0010
0100
1000
0100
0010
0100
,
1000
0100
0010
0100
1000
0100
0010
0100
1000
0100
0010
0100
1000
0100
0010
0100
,
1000
0100
0010
0100
1000
0100
0010
0100
1000
0100
0010
0100
1000
0100
0010
0100
,
1000
0000
0000
0000
0000
0000
0000
0000
0000
0000
0000
0000
0100
0000
0000
0000
0000
0000
0000
0000
0000
0000
0000
0000
0010
0000
0000
0000
0000
0000
0000
0000
0000
0000
0000
0000
0100
0000
0000
0000
0000
0000
0000
0000
0000
1000
0000
0000
0000
0000
0000
0000
0000
0000
0000
0000
0000
0000
0000
0000
0100
0000
0000
0000
0000
0000
0000
0000
0010
0000
0000
0000
0000
0000
0000
0000
0000
0000
0000
0000
0000
0000
0000
0000
0000
0000
0000
0001
0000
0000
0000
0000
0000
0000
0000
0000
0000
0000
1000
0000
0000
0000
0000
0000
0000
0000
0000
0000
0000
0000
0000
0000
0100
0000
0000
0000
0000
0000
0000
0000
0000
0000
0000
0000
0000
0000
0000
0010
0000
0000
0000
0000
0000
0000
0000
0000
0000
0000
0000
0000
0000
0000
0000
0000
0100
0000
0000
0000
0000
0000
0000
0000
0000
0000
0000
0000
0000
0000
0000
0000
0000
0000
0000
0000
0000
0000
0000
0000
0000
0000
0000
0000
0000
0000
0000
0000
0000
0000
0000
0000
0000
0000
0000
0000
0000
0000
0000
0000
0000
0000
0000
0000
,
0100
0000
0100
0000
2000
0000
0010
3000
0201
0000
0000
0300
0000
0000
0000
0000
0022
0000
0033
0000
0000
0000
0000
0000
0001
0000
0010
0000
0100
0000
1000
0000
,
0110
0000
1100
0000
0010
0000
0000
0000
0022
0033
0100
0000
1000
0000
0001
0000
,
1010
0000
0100
0000
0022
0033
0000
0000
1010
0000
0100
0000
0022
0033
1000
0100
,
1010
1010
1010
1010
1010
1001
1001
1001
,
1000
0000
0000
0000
0000
0000
0000
0000
0010
0001
0000
0000
0100
0000
0010
0000
0100
0000
0010
0000
0100
0000
0010
0000
0100
0000
0010
0000
0100
0000
0010
0000
,
1002
0000
0003
0000
0010
0000
0000
0000
0100
0000
0000
0000
0010
0000
0000
0000
1000
0000
0100
0000
0000
0000
0020
0000
0000
0030
0000
0000
0100
0000
0000
0000
,
1001
0000
0000
0000
0000
0000
0000
0000
0000
0000
0000
0000
0000
0000
0000
0000
0000
0000
0000
0000
0000
0000
0000
0000
0101
0000
0000
0000
0000
0000
0000
0000
0000
0000
0000
0000
0000
0000
0000
0000
0000
0000
0000
0000
0000
0000
0000
0000
1010
0000
0000
0000
0000
0000
0000
0000
0000
0000
0000
0000
0000
0000
0000
0000
0000
0000
0000
0000
0000
0000
0000
0000
0100
0000
0000
0000
0000
0000
0000
0000
0000
0000
0000
0000
0000
0000
0000
0000
0000
0000
0000
0000
0000
0000
0000
0000
0000
0000
0000
0000
0000
0000
0000
0000
0000
0000
0000
0000
0001
0000
0000
0000
0000
0000
0000
0000
0000
0000
0000
0000
0100
0000
0000
0000
0000
0000
0000
0000
0000
0000
0000
0000
0000
0000
0000
0000
0000
0000
0000
0000
0000
0000
0000
0000
0000
0000
0000
0010
0000
0000
0000
0000
0000
0000
0000
0000
0000
0000
0000
0000
0000
0000
0000
1000
0000
0000
0000
0000
0000
0000
0000
0000
0000
0000
0000
0000
0000
0000
0000
0000
0000
0000
0000
0000
0000
0000
0000
0000
0000
0000
0000
0000
,
1002
0000
0003
0000
0010
0000
0000
0000
0100
0000
0000
0000
0010
0000
0000
0000
1000
0000
0100
0000
0000
0000
0020
0000
0000
0030
0000
0000
0100
0000
0000
0000
,
1001
0000
0101
0000
1010
0000
0100
0000
1000
0100
0010
0001
0100
0000
0010
0000
,
1002
0000
0003
0000
0010
0000
0000
0000
0100
0000
0000
0000
0010
0000
0000
0000
1000
0000
0100
0000
0000
0000
0020
0000
0000
0030
0000
0000
0100
0000
0000
0000
,
1001
0000
0000
0000
0101
0000
0000
0000
1010
0000
0000
0000
0100
0000
0000
0000
0000
0202
0000
0000
0000
0000
0000
0303
0202
0000
0000
0000
0003
0000
0300
0000
,
1002
0000
0003
0000
0010
0000
0000
0000
0100
0000
0000
0000
0010
0000
0000
0000
1000
0000
0100
0000
0000
0000
0020
0000
0000
0030
0000
0000
0100
0000
0000
0000
,
1001
0000
0000
0000
0000
0000
0000
0000
0000
0000
0000
0000
0000
0000
0000
0000
0000
0000
0000
0000
0000
0000
0000
0000
0101
0000
0000
0000
0000
0000
0000
0000
0000
0000
0000
0000
0000
0000
0000
0000
0000
0000
0000
0000
0000
0000
0000
0000
1010
0000
0000
0000
0000
0000
0000
0000
0000
0000
0000
0000
0000
0000
0000
0000
0000
0000
0000
0000
0000
0000
0000
0000
0010
0001
0000
0000
0000
0000
0000
0000
0000
0000
0000
0000
0000
0000
0000
0000
0000
0000
0000
0000
0000
0000
0000
0000
0010
0001
0000
0000
0000
0000
0000
0000
0000
0000
0000
0000
0000
0000
0000
0000
0000
0000
0000
0000
0000
0000
0000
0000
0100
0010
0000
0000
0000
0000
0000
0000
0000
0000
0000
0000
0000
0000
0000
0000
0000
0000
0000
0000
0000
0000
0000
0000
2000
0200
0000
0000
0000
0000
0000
0000
0000
0000
0000
0000
0000
0000
0000
0000
0000
0000
0300
0000
0000
0000
0000
0000
0000
0000
0000
0000
0000
0000
0000
0000
0000
0000
0000
0000
3000
0000
0000
0000
0000
0000
0000
0000
0000
0000
0000
0000
,
1001
0000
0000
0000
;
