#TITLE:Jump! Jump! Jump!;
#SUBTITLE:From Super Mario Bros 3;
#ARTIST:Konami/Nintendo;
#TITLETRANSLIT:;
#SUBTITLETRANSLIT:;
#ARTISTTRANSLIT:;
#CREDIT:;
#BANNER:Jump Jump Jump banner.png;
#BACKGROUND:Jump Jump Jump bg.png;
#LYRICSPATH:;
#CDTITLE:Thanh Cd title.png;
#MUSIC:06 Jansu! Jansu! Jansu!.mp3;
#OFFSET:1.500;
#SAMPLESTART:36.510;
#SAMPLELENGTH:12.000;
#SELECTABLE:YES;
#DISPLAYBPM:150.000;
#BPMS:0.000=150.000;
#STOPS:;
#BGCHANGES:;
// cache tags:
#FIRSTBEAT:4.000;
#LASTBEAT:228.000;
#SONGFILENAME:Songs/toune 2/Jump! Jump! Jump!/Jump Jump Jump.sm;
#HASMUSIC:1;
#HASBANNER:1;
#MUSICLENGTH:90.844;
// end cache tags

//---------------dance-single - ----------------
#NOTES:
     dance-single:
     :
     Challenge:
     10:
     0.997,1.000,1.000,0.517,0.776,483.000,104.000,47.000,0.000,0.000:
0000
0000
0000
0000
,
1020
1000
1000
1030
0102
0100
0100
0103
,
0201
0001
0001
0301
1100
0000
0110
0000
,
2001
0001
0001
3001
2100
0100
0100
3100
,
1000
0000
1001
0000
0000
0000
0000
0000
0000
1100
0000
0000
0000
0011
0000
0000
,
1000
0100
1000
0100
0010
0001
0100
0000
0010
0000
1000
0000
0100
0000
0010
0000
,
0001
0010
0100
1000
0100
0010
0002
0000
0000
0000
0000
0000
0003
0000
0000
0000
,
0001
1000
0001
0100
0010
1000
0100
0000
0010
0000
0001
0000
1000
0000
0100
0000
,
0010
0001
0000
0010
0001
0010
0100
1000
0100
1000
0100
0010
0001
0010
0001
0100
,
0010
1000
0100
0010
0001
0100
0010
1000
0100
0010
0001
0000
1000
0000
0100
0000
,
0010
0001
1000
0100
0010
0100
1000
0010
0200
0000
0000
0000
0000
0300
0000
0000
,
1000
0001
0100
0010
1000
0100
0010
0001
0100
0010
1000
0010
1000
0100
0010
0100
,
1000
0010
0100
0001
0010
0100
1000
0100
0010
0001
0010
0001
0010
0100
0010
0000
,
1001
1100
1001
0101
0110
1010
0110
0101
,
1001
1100
0110
0011
0000
1001
1100
1001
,
0101
0110
1010
0101
1001
1100
0110
0011
,
0110
1001
1100
0110
0000
0001
0001
0000
,
1001
0011
1001
1010
0110
0101
0110
1010
,
1001
0011
0110
1100
0000
0001
0001
0001
,
1100
0110
0011
1001
0000
0100
0100
0100
,
1001
1010
0110
0101
0000
1000
1000
1000
,
1001
0101
0110
1010
0000
0010
0001
1000
,
0200
0000
0000
0000
,
0000
0000
0300
0000
0000
1000
0001
0010
,
0100
1000
0100
2000
3000
0011
0011
0000
,
0010
0100
0001
2000
3000
0101
0101
0000
,
1000
0010
0100
0002
0003
0000
1001
0000
,
0001
1000
0001
0000
0110
0000
1001
0000
,
0100
0010
0001
0020
0030
1100
1100
0000
,
0100
0010
0001
2000
3000
0101
0101
0000
,
0001
1000
0100
0020
0030
0001
1000
0100
,
0010
0001
1000
0010
0100
0101
1010
1001
,
0010
1001
0110
0101
1000
1100
0110
0011
,
0102
0100
0100
0103
2010
0010
0010
3010
,
2001
0001
0001
3001
1001
0000
1100
0000
,
2001
0001
0001
3001
0120
0100
0100
0130
,
0001
0000
1001
0000
0000
0000
0000
0000
0000
1010
0000
0000
0000
0101
0000
0000
,
0001
0100
0001
0100
0010
1000
0100
0000
0010
0000
0001
0000
1000
0000
0001
0000
,
1000
0010
0100
0001
0100
0010
2000
0000
0000
0000
0000
0000
0000
3000
0000
0000
,
0010
1000
0001
0100
0010
1000
0100
0000
1000
0000
0100
0000
0010
0000
0001
0000
,
1000
0001
0000
1000
0001
0010
0100
0010
0100
0010
0100
1000
0100
1000
0010
0100
,
0010
1000
0100
0010
0001
0100
0010
1000
0100
0010
0001
0000
1000
0000
0100
0000
,
0010
0001
1000
0100
0010
0100
1000
0010
0200
0000
0000
0000
0000
0300
0000
0000
,
0010
0100
0001
0010
0100
0010
0001
0100
0010
1000
0010
1000
0100
0010
0001
0010
,
0100
1000
0100
0010
0100
1000
0010
0100
0001
0010
0100
1000
0100
0010
0001
1000
,
0100
0010
0100
1000
0010
0100
0001
0010
0100
1000
0001
0000
1000
0000
0100
0000
,
0010
0001
1000
0100
0010
0001
0010
0100
2000
0000
0000
0000
0000
3000
0000
0000
,
0010
0001
0010
0001
0100
0010
1000
0001
0100
0010
1000
0100
0010
0001
1000
0000
,
0010
0001
0000
0010
0100
1000
0000
1000
0001
0100
0010
1000
0100
0010
0001
0100
,
0010
1000
0100
0010
0100
1000
0010
0000
1000
0000
0010
0000
0100
0000
0001
0010
,
0100
1000
0100
0010
0100
1000
0200
0000
0000
0000
0000
0000
0300
0000
0000
0000
,
0100
1000
0010
0100
0010
0100
0001
0010
0001
0000
1000
0000
0100
0000
0010
0000
,
0100
1000
0100
0010
0001
0010
0100
0010
0100
1000
0100
1000
0100
0010
0001
0000
,
1001
0000
0000
2200
0000
3300
0000
0220
0000
0330
0000
0000
0000
0022
0000
0033
,
0000
2002
0000
3003
0000
0202
0000
0303
0000
2020
0000
0000
3030
0000
0000
0220
,
0000
0330
0000
2002
0000
3003
0000
2200
0000
0000
3300
0000
0000
0022
0000
0033
,
0000
0220
0330
2002
0000
0000
0000
0000
0000
0000
0000
0000
0000
0000
0000
0000
,
3003
0000
0000
0000
;
