#TITLE:Invocation Of Apocalyptic Evil;
#SUBTITLE:Valley Of The Damned;
#ARTIST:Dragonforce;
#TITLETRANSLIT:;
#SUBTITLETRANSLIT:;
#ARTISTTRANSLIT:;
#CREDIT:Dog_E;
#BANNER:invocation.PNG;
#BACKGROUND:invocation-bg.PNG;
#LYRICSPATH:;
#CDTITLE:DogETitle.PNG;
#MUSIC:01_dragonforce-invocation_of_the_apocalyptic_evil-amrc.mp3;
#OFFSET:-1.338;
#SAMPLESTART:0.100;
#SAMPLELENGTH:12.820;
#SELECTABLE:YES;
#BPMS:0.000=136.000;
#STOPS:;
#BGCHANGES:;
// cache tags:
#FIRSTBEAT:0.000;
#LASTBEAT:28.000;
#SONGFILENAME:Songs/CMDKDF Pack/Invocation Of Apocalyptic Evil (Dog_E)/01_dragonforce-invocation_of_the_apocalyptic_evil-amrc.sm;
#HASMUSIC:1;
#HASBANNER:1;
#MUSICLENGTH:13.659;
// end cache tags

//---------------dance-single - Blank----------------
#NOTES:
     dance-single:
     Blank:
     Medium:
     2:
     0.199,0.179,0.073,0.659,0.000,9.000,1.000,9.000,0.000,0.000:
















2000
3200
0320
0000
,
0000
0000
0030
0002
0000
0000
0000
0000
,
0000
0000
0000
0000
0000
0000
0003
0010
,
2000
0000
0000
0000
0000
0000
0000
3000
,
0200
0000
0000
0000
0000
0000
0000
0300
,
0020
0000
0000
0000
0000
0000
0000
0030
,
2002
0000
0000
0000
,
3003
0000
0000
0000
;

//---------------dance-single - Blank----------------
#NOTES:
     dance-single:
     Blank:
     Hard:
     4:
     0.418,0.384,0.439,0.805,0.037,23.000,6.000,11.000,0.000,10.000:









1002
0123
0231
1000
,
0010
0000
1300
0022
0100
0000
0000
0000
,
0000
0000
0000
0000
0000
0000
0000
0000
0000
0000
0000
0000
0033
0000
0010
0100
,
0002
0000
0100
0000
1000
0000
0010
0003
,
0220
0001
1000
0001
1000
0001
1000
0330
,
0022
0000
0000
0000
0000
0000
0000
2030
,
0000
0000
0000
0000
,
3003
0000
0000
0000
;

//---------------dance-single - Blank----------------
#NOTES:
     dance-single:
     Blank:
     Challenge:
     8:
     0.858,0.820,0.366,0.366,0.805,72.000,5.000,5.000,0.000,0.000:

1001
0100
0010
0001
0110
0001
0010
0100
1001
0100
0010
0100
0010
0100
0010
0100
,
0010
0100
0010
0100
0010
0100
0021
0000
0100
0000
1000
0000
0100
0000
0001
0000
,
0100
0000
0000
0000
1000
0000
0000
0000
0100
0000
0000
0000
0001
0000
0000
0000
0100
0000
0000
0000
1030
0000
0000
0000
0100
0000
0000
0000
0001
1000
0100
0010
,
0002
0000
0000
0000
,
2003
0100
0001
0100
0010
0100
0010
0001
,
3020
0000
0100
0000
1000
0000
0100
0000
0001
0000
0100
0000
1000
0000
0100
0030
,
2001
0010
0001
0010
0100
0010
0001
0010
0100
0010
0001
0010
0100
0010
0001
0010
,
3100
0000
0000
0000
;

//---------------dance-single - Blank----------------
#NOTES:
     dance-single:
     Blank:
     Edit:
     11:
     1.000,1.000,0.586,0.512,1.000,133.000,8.000,7.000,0.000,34.000:






1000
0000
0000
0100
0000
0000
0010
0000
0000
0001
0000
0000
0001
0000
0000
0010
0000
0000
0100
0000
0000
1000
0000
0000
0010
0000
1000
0000
0100
0000
0010
0000
0001
0000
0100
0000
0010
0000
1000
0000
0100
0000
0010
0000
0001
0000
0100
0000
,
0010
0000
1000
0000
0100
0000
0010
0000
0001
0000
0100
0000
0010
0000
1000
0000
0100
0000
1020
0000
0000
0100
0000
0000
1000
0000
0000
0100
0000
0000
0001
0000
0000
0100
0000
0000
1000
0000
0000
0001
0000
0000
1130
0000
0000
0010
0000
0000
,
0102
0000
0000
0000
0100
0000
0000
0000
1000
0000
0000
0000
0100
0000
0000
0000
0010
0000
0000
0000
0100
0000
0000
0000
1000
0000
0000
0003
0110
0000
1000
0000
,
0021
0000
0100
0000
1000
0000
0100
0000
0001
0000
0100
0000
1000
0000
0100
0000
0001
0000
0100
0000
1000
0030
0100
0000
,
2001
0100
0010
0001
0010
0100
0010
0001
0010
0100
0010
0001
0010
0100
3010
0001
,
0120
0001
1000
0100
0001
0100
1000
0100
0001
0100
1000
0100
0001
0100
1000
0100
0001
0100
1000
0100
1000
0130
0001
0100
,
2102
0010
0100
0010
0100
0010
0100
0010
0100
0010
0100
0010
0100
0010
0100
0010
0100
0010
0100
0010
0100
0010
0100
0010
0100
0010
0100
0010
0100
0010
0100
0010
,
3103
0000
0000
0000
;
