#TITLE:P8107(Live);
#SUBTITLE:;
#ARTIST:onoken (step by YsK-Yosaku);
#TITLETRANSLIT:;
#SUBTITLETRANSLIT:;
#ARTISTTRANSLIT:;
#CREDIT:;
#BANNER:p8107.png;
#BACKGROUND:p8107-bg.png;
#LYRICSPATH:;
#CDTITLE:cdtitle.png;
#MUSIC:p8107.mp3;
#OFFSET:-0.080;
#SAMPLESTART:49.500;
#SAMPLELENGTH:12.000;
#SELECTABLE:YES;
#DISPLAYBPM:45.000:180.000;
#BPMS:0.000=180.000,84.000=90.000,116.000=180.000,372.000=90.000,380.000=45.000,383.250=720.014;
#STOPS:;
#BGCHANGES:;
// cache tags:
#FIRSTBEAT:4.000;
#LASTBEAT:409.500;
#SONGFILENAME:Songs/Japanese Collaboration Mix/p8107/p8107.sm;
#HASMUSIC:1;
#HASBANNER:1;
#MUSICLENGTH:147.886;
// end cache tags

//---------------dance-single - ----------------
#NOTES:
     dance-single:
     :
     Challenge:
     10:
     0.698,0.969,0.352,0.156,0.135,648.000,52.000,23.000,0.000,0.000:
0000
0000
0000
0000
,
0020
0000
0000
0000
,
0000
0000
0000
0000
,
0000
0000
0000
0000
,
0000
0000
0000
0000
,
1030
0100
0010
0010
0001
0010
1000
0100
,
0001
0100
1000
0010
0100
0100
0010
1000
,
0001
0100
0010
0001
0010
0010
0001
1000
,
0010
0001
0010
1000
0100
0001
0100
0100
,
0010
1000
0100
0010
0001
0001
0010
1000
,
0010
0001
0001
0100
1000
0100
0001
0010
,
0001
0100
1000
0010
1000
0100
0010
0001
,
0010
0100
1000
0100
0001
0100
1000
0010
,
1000
0100
0001
0010
0001
1000
0001
0100
,
0010
0100
0001
0001
0010
0001
0010
1000
,
0001
0100
1000
0001
0010
1000
0010
0001
,
1000
0100
0001
0010
0010
0001
0010
0010
,
1000
0100
0001
0100
1000
0010
0100
1000
,
0001
0010
0100
1000
0100
0010
1000
0001
,
0010
0100
1000
0001
0010
0100
0010
0001
,
1000
0100
0001
0100
1000
0100
0010
0010
,
0020
0000
0000
0000
1000
0000
0000
0001
0001
0000
0001
0000
0100
0000
0000
0000
,
1000
1000
0000
0000
0100
0000
0000
0001
0001
0000
0001
0000
0100
0000
0000
0000
,
0230
0000
0000
0000
0001
0000
0000
1000
1000
0000
1000
0000
0010
0000
0000
0000
,
0001
0001
0000
0000
0010
0000
0000
1000
1000
0000
1000
0000
0010
0000
0000
0000
,
1300
0100
0000
0010
0001
0010
0100
1000
0100
0010
0000
0001
0100
1000
0010
0000
,
0001
0010
0000
0001
0010
0100
1000
0100
0001
0100
0000
1000
0010
0100
1000
0000
,
1000
0100
0000
0100
0010
0001
0010
0100
1000
0100
0000
0001
1000
0010
0100
0010
,
1000
0001
0100
1000
0100
0001
0100
0002
2000
0000
0000
0000
0000
0000
3003
0010
,
0001
0100
0010
1000
0010
0100
0101
0000
,
1000
0100
0010
0001
0100
0010
1010
0000
,
0010
0100
0010
1000
0001
0100
0110
0000
,
0100
0010
0100
0001
1000
0010
0110
0000
,
1000
0010
0100
0001
0100
0010
0011
0000
,
0001
0010
0100
0010
0001
0010
1010
0000
,
0001
0100
0010
1000
0010
0100
1100
0000
,
1000
0100
0010
0100
1000
0100
0001
0001
,
0001
0100
0010
1000
0100
0001
0101
0000
,
1000
0100
0001
0100
1000
0010
0011
0000
,
0001
0010
0100
0001
0010
0100
1100
0000
,
1000
0100
0010
0001
0100
0010
0011
0000
,
0001
0010
1000
0100
0001
0100
1100
0000
,
1000
0100
0001
0100
0010
0001
1001
0000
,
1000
0001
0100
0010
1000
0001
0110
0000
,
0010
1000
0001
0100
0100
0100
0100
0000
,
1100
0000
0000
0011
0000
0000
1001
0000
,
0000
0110
0000
1000
0001
0001
0001
0000
,
0011
0000
0000
1100
0000
0000
1001
0000
,
0000
0110
0000
0001
1000
1000
1000
0000
,
0110
0000
0000
1001
0000
0000
1100
0000
,
0000
0011
0000
1000
0001
0001
0001
0000
,
1001
0000
0000
0110
0000
0000
0011
0000
,
0000
1100
0000
0001
1000
1000
1000
1000
,
0001
0000
1000
0100
0000
0010
0001
0000
,
1000
0100
0000
0010
0100
0100
0100
0000
,
0010
0000
0001
0100
0000
0010
1000
0000
,
0001
0010
0000
0100
0010
0010
0010
0000
,
1001
0000
1000
1000
0000
0001
0001
0000
,
0100
0100
0000
0020
0100
0100
0130
0000
,
0010
0000
0001
0001
,
0000
0000
0100
0100
0100
0100
1001
0100
,
0010
0001
0100
0100
0010
1000
0100
0100
,
0010
0001
0010
0100
1001
0000
0101
0000
,
0100
1000
0010
0010
0100
0001
0010
0010
,
0100
1000
0100
0010
1001
0000
0011
0000
,
0001
1000
0100
0100
1000
0001
0100
0100
,
0010
0001
0100
1000
0011
0000
0101
0000
,
1000
0001
0100
0100
0001
1000
0100
0100
,
0001
1000
0001
0100
1010
0000
1100
0000
,
1000
1000
0010
0010
0001
0001
0010
0010
,
1000
1000
0100
0100
0001
0001
1100
0000
,
0001
0001
0010
0010
1000
1000
0010
0010
,
0001
0001
0100
0100
1000
1000
0101
0000
,
1000
1000
1000
0100
0001
0001
0001
0100
,
1000
1000
1000
0100
0001
0001
1100
0000
,
0010
1000
1000
1000
1000
1000
1000
1000
,
0100
0001
0001
0001
0200
0001
0000
0001
,
0301
0100
1000
0100
0010
0001
0020
0000
,
1030
0010
0100
0001
0010
0100
2000
0000
,
3001
0010
1000
0100
0001
0100
0020
0000
,
0130
0010
1000
0001
0010
0100
2001
0000
,
3001
0001
0010
0100
1000
1000
1002
0000
,
1003
1000
0100
0010
0001
0001
0210
0000
,
0310
0010
0010
1000
0001
0001
0100
1000
,
0010
1000
0100
0010
0010
1000
1002
0000
,
1003
0100
1000
0010
0001
0010
0002
0000
,
0013
1000
0001
0100
1000
0100
0020
0000
,
1030
0001
0010
1000
0010
0100
0010
0001
,
0010
0001
1000
0001
0010
0010
0012
0000
,
1003
1000
1000
0010
0100
0100
0210
0000
,
0301
0001
0001
0010
0100
0100
0210
0000
,
1300
1000
0010
0010
0100
0100
0001
0001
,
0010
0100
0010
0001
0100
0100
0100
0100
,
0120
0000
0000
0000
1000
0000
0000
0001
0001
0000
0001
0000
1000
0000
0000
0000
,
0001
0001
0000
0000
1000
0000
0000
0001
0001
0000
0001
0000
1030
0000
0000
0000
,
0200
0000
0000
0000
1000
0000
0000
0001
0001
0000
0001
0000
1000
0000
0000
0001
0001
0000
0000
0000
1000
0000
0000
0000
0300
0000
0220
0000
0000
0000
0000
0000
,
0000
0000
0000
0000
,
0000
0000
0000
0000
,
0000
0000
0000
0000
,
0000
0000
0000
0000
,
0000
0000
0000
0000
,
0000
0000
0000
0000
,
0000
0000
0000
0330
0000
0000
0000
0000
;
