#TITLE:Text Me Too Much;
#SUBTITLE:(The Disko Warp Speed-Dial Remix);
#ARTIST:Lucky Princess;
#TITLETRANSLIT:;
#SUBTITLETRANSLIT:;
#ARTISTTRANSLIT:;
#CREDIT:;
#BANNER:../BN.png;
#BACKGROUND:../BG.png;
#LYRICSPATH:;
#CDTITLE:../CDTitleBRAEDEN.png;
#MUSIC:Text Me Too Much.ogg;
#OFFSET:-0.172;
#SAMPLESTART:32.208;
#SAMPLELENGTH:12.000;
#SELECTABLE:YES;
#BPMS:0.000=175.000;
#STOPS:;
#BGCHANGES:;
// cache tags:
#FIRSTBEAT:1.000;
#LASTBEAT:357.000;
#SONGFILENAME:Songs/Index Gradation/Text Me Too Much (The Disko Warp Speed-Dial Mix) - [Braeden]/textmetoomuchremix.sm;
#HASMUSIC:1;
#HASBANNER:1;
#MUSICLENGTH:226.278;
// end cache tags

//---------------dance-single - ----------------
#NOTES:
     dance-single:
     :
     Challenge:
     13:
     0.672,0.651,0.274,0.261,0.749,935.000,62.000,59.000,0.000,0.000:

0000
0000
0000
0000
1001
0000
0001
0000
0100
0000
0010
1000
0000
0010
0100
0001
,
1000
0000
0001
0100
0001
0000
1000
0000
1010
0000
0100
0001
0000
0100
0010
0000
,
1010
0000
0100
0001
0200
0000
0000
0310
0000
0000
1000
0001
0000
0001
1000
0000
,
1001
0000
0001
0000
0400
0000
0000
0340
0000
0000
4030
0000
3004
0000
0000
1003
,
0000
0000
0010
0000
0100
0000
0001
0000
1000
0000
0010
0100
0000
0001
0100
0010
,
0100
0000
0010
1000
0010
0000
0100
0000
0101
0000
0100
0010
0000
0100
0010
0000
,
1010
0000
0100
0001
0100
0000
0010
0000
1010
0000
1000
0001
0000
0001
0100
0000
,
1010
0000
0100
0000
0004
0000
0000
0000
1003
0000
0010
0100
0001
1000
0100
0010
,
0100
1000
0001
0100
0010
1000
0001
0100
0010
1000
0100
0010
0001
0010
0100
1000
,
0001
0100
0010
0100
0001
0010
0001
1000
0100
0010
0100
1000
0001
0100
0010
0100
,
0001
1000
0100
0010
0100
1000
0001
0100
0010
0100
0001
0100
0010
0100
0001
1000
,
0010
0100
0001
0100
0040
0000
0000
1030
0000
0000
0010
0000
0400
0000
0000
0301
,
0000
0000
0100
0000
0010
1000
0010
0000
0100
0001
0100
0010
1000
0100
0010
0000
,
0001
0010
0100
0000
1000
0001
0100
0000
0010
1000
0100
1000
0001
0010
0100
0000
,
1000
0001
0100
0000
0010
1000
0100
1000
0001
0010
0100
1000
1001
0000
0000
0101
,
0000
0110
2010
3002
0203
0320
2030
3200
,
0320
0000
0130
0000
1001
0000
0001
0100
0010
0000
1000
0100
0000
0010
0001
0000
,
0100
0000
0010
0000
2000
0000
3100
0000
0010
0000
0001
0000
1000
0100
0010
0001
,
1000
0000
0010
0000
1000
0010
1000
0010
1000
0000
0000
0000
0001
0000
0100
0000
0010
0000
1000
0000
0000
0000
0020
0000
0000
0000
0000
0000
0130
0000
0001
0000
,
0100
0000
0002
0000
1003
0100
1000
0001
0100
0010
1000
0100
0010
0100
1000
0001
,
0010
0100
1000
0001
0100
0000
0010
1000
0020
0000
0130
0001
0000
0100
0010
0000
,
2000
0000
3200
0000
0320
0000
0031
0000
1000
0000
0001
0100
0010
1000
0001
0100
,
0010
0000
1000
0000
0010
0100
0010
0100
0010
0000
0000
0000
1000
0000
0001
0000
0100
0000
0020
0000
0000
0000
2030
0000
0000
0000
3000
0000
0001
0000
0100
0000
,
0101
0000
0010
0000
1000
0100
0010
0001
0010
0100
1000
0001
0100
0010
0100
0001
,
0100
0010
1000
0100
0010
0000
0001
0100
0010
0000
1000
0000
0100
0000
0010
0000
,
0011
0100
1000
0010
0110
0100
0002
0203
,
0320
0000
2030
0000
3001
0000
1000
0010
0100
0000
0001
0000
0100
0000
0010
0000
,
1100
0000
0010
0000
0002
0000
0000
0103
0000
0000
0010
0000
1000
0000
0100
0000
,
0010
0000
0001
0000
0100
0000
0010
0000
1000
0000
0001
0000
1000
0000
0000
0000
0000
0000
0000
0000
0000
0001
0000
0000
0100
0000
0000
0000
0000
0000
0010
0000
0000
0000
0000
0000
1000
0000
0000
0000
0000
0000
0000
0000
0000
0001
0000
0000
,
0010
0100
1000
0001
0101
0010
2100
3002
,
0203
0000
0301
0000
1000
0000
0000
0001
0100
0000
0010
0000
1000
0000
0000
0100
,
0010
0000
0000
0000
0000
0000
0001
0000
0000
0000
0000
0000
1000
0000
0100
0000
0010
0000
0001
0000
0010
0000
0100
0000
1000
0000
0001
0000
0100
0000
0010
0000
1000
0000
0001
0000
0100
0000
0000
0010
0000
0000
1000
0000
0000
0001
0000
0000
,
0100
0010
1000
0001
0100
0000
0010
0000
1000
0001
0100
0000
0010
1000
0001
0000
,
1000
0100
1000
0000
0001
0010
0001
0000
1000
0001
1000
0000
0010
0100
0010
0000
,
0100
0001
0100
0000
0010
1000
0010
0000
1000
0100
0010
0100
1000
0000
0100
0000
,
0010
0000
0001
0000
0010
0000
0000
0000
0001
0000
0100
0000
0010
1000
0010
0000
0000
0000
0100
0001
0100
0000
0000
0000
0010
1000
0010
0000
0000
0000
0100
0001
,
0100
0000
0000
0000
0010
1000
0010
0000
0100
0000
0001
0000
0100
0000
0000
0000
0010
0000
1000
0000
0010
0000
0000
0000
0100
0000
0001
0000
0010
0000
0000
0000
,
0100
0000
1000
0000
1100
0000
0000
0010
0000
0000
0001
0000
1001
0000
0010
0000
,
0100
0000
1000
0000
1001
0000
0001
0000
0100
0000
0010
0000
1000
0100
0010
0001
,
0010
0100
1000
0001
0100
0000
0000
0001
0000
0000
0100
0000
0000
0000
0000
0000
,
0000
0000
0000
0000
2000
0000
3001
0100
0001
0000
0100
0000
0020
0000
1030
0100
,
1000
0000
0001
0000
0200
0000
0310
1000
0010
0000
0100
0000
0001
0000
1000
0100
,
1000
0000
0001
0000
2000
0000
0000
0010
0000
0000
3010
0000
0200
0000
0000
0001
,
0000
0000
0301
0000
0020
0000
0000
0100
0000
0000
0001
0000
0031
1000
0010
0000
,
0100
0000
0001
0000
0100
0000
0010
0000
1000
0000
0001
0000
0100
0000
0000
0000
0000
0000
0000
0000
0000
0110
0000
0000
0000
0000
0000
0000
0000
0000
0000
0000
0000
0000
0000
0000
1001
0000
0000
0000
0000
0000
0000
0000
0000
1001
0000
0000
,
0000
0000
0000
0000
1000
0000
0000
1010
0000
0000
0000
0000
0011
0000
0000
1010
,
0000
0000
0000
0000
1000
0001
1000
0010
0100
0000
0001
0000
0100
0010
1000
0100
,
0010
0100
1000
0001
0400
0000
0340
0000
4030
0000
3400
0000
0340
0000
0430
0000
,
1300
0000
0010
0000
0100
0000
0001
0100
0020
0000
1030
0100
0000
0010
0001
0000
,
0200
0000
0320
0000
2030
0000
3200
0000
0310
0000
0001
0000
1000
0010
0100
0001
,
0100
0000
0010
0000
1000
0001
1000
0001
1000
0000
0000
0000
0010
0000
0100
0000
0001
0000
0200
0000
0000
0000
0320
0000
0000
0000
0000
0000
1030
0000
0001
0000
,
0200
0000
0310
0000
1000
0100
0010
0001
1000
0010
0100
0001
0010
0100
1000
0001
,
0100
0010
1000
0100
0010
0000
0001
1000
0001
0000
0100
0010
0000
0100
0010
0000
,
2000
0000
3200
0000
0320
0000
0031
0000
1001
0000
1000
0000
0001
0100
0010
1000
,
0100
0000
0010
0000
0100
0010
0100
0010
0100
0000
0000
0000
0010
0000
0001
0000
1000
0000
0010
0000
0000
0000
0200
0000
0000
0000
0000
0000
0301
0000
1000
0000
,
1001
0000
0010
0000
1000
0100
0010
0100
1000
0001
0100
0010
1000
0100
0010
0100
,
1000
0000
0010
0000
0100
0000
0001
0000
1000
0000
0000
0000
0001
0100
0001
0100
0004
0000
0000
0000
0000
0000
0000
0000
1003
0000
0100
0000
0000
0000
0000
0000
,
0010
0000
0000
0000
1001
0000
0001
0000
1000
0100
1000
0000
0001
0000
0100
0000
,
0010
1000
0010
0000
0100
0000
0001
0000
0100
0010
0100
0000
2010
0000
3010
0000
,
0100
0000
0010
0000
1000
0100
0010
0000
0001
0000
0100
0000
0010
1000
0010
0000
,
0100
0000
0001
0000
0100
0010
0100
0000
0010
0000
1000
0000
0001
0100
0001
0000
,
1000
0000
0100
0000
0010
0000
0100
0000
1000
0000
0001
0000
0100
0000
0000
0000
0000
0000
0000
0000
0000
0010
0000
0000
1000
0000
0000
0000
0000
0000
0010
0000
0000
0000
0000
0000
0110
0000
0000
0000
0000
0000
0000
0000
0000
0100
0000
0000
,
0001
0100
0110
0010
0000
0000
2001
3001
,
0100
0000
0010
0000
1000
0000
0001
0100
0001
0000
0100
0000
0010
0000
1000
0100
,
1000
0000
0001
0000
0100
0000
0010
1000
0100
0000
1000
0001
0100
0010
1000
0100
,
0010
0100
1000
0001
0100
0000
0010
0000
1000
0100
1000
0000
0001
1000
0001
0000
,
0100
0001
0100
0000
0010
1000
0010
0000
0100
0001
0100
0000
0010
1000
0010
0000
,
0100
0001
0100
0000
0010
1000
0010
0000
1000
0100
0010
0100
1000
0000
0001
0000
,
0101
0000
0010
0000
1000
0100
1000
0000
0001
0100
0001
0000
1000
0100
0010
0000
,
0001
1000
0001
0000
1001
0000
1000
0000
0010
0100
0010
0000
0100
0000
0001
0000
,
0100
0010
0100
0000
1010
0000
0000
1000
0000
0000
0010
0000
0110
0000
0100
0000
,
0101
0000
0010
0000
1010
0000
0100
0000
0001
0000
0100
0000
0010
1000
0100
1000
,
0001
0010
0100
1000
0010
0000
0000
0000
0000
0000
0000
0000
0000
0000
0000
0000
,
0000
0000
0000
0000
1001
0000
0010
0001
0010
0000
0000
0000
1001
0000
1000
0100
,
1000
0000
0000
0000
1001
0000
0001
0100
0010
0000
0100
0000
0010
0000
1000
0001
,
0100
0000
0010
0000
1000
0000
0100
0010
0100
1000
0001
0000
0100
0000
0010
1000
,
0100
1000
0001
0000
0100
0010
0100
0000
0001
1000
0010
0000
0100
0001
0100
0010
,
1000
0000
0010
0000
0100
0000
0001
0000
0100
0000
0010
0000
0100
0000
0000
0000
0000
0000
0000
0000
0000
1010
0000
0000
0000
0000
0000
0000
0000
0000
0000
0000
0000
0000
0000
0000
0101
0000
0000
0000
0000
0000
0000
0000
0000
0101
0000
0000
,
0000
0000
0000
0000
1000
0000
0000
1010
0000
0000
0000
0000
0101
0000
0000
1010
,
0000
0000
0000
0000
1000
0001
1000
0010
0100
0000
0001
0000
0100
0010
1000
0100
,
0010
0100
1000
0001
0200
0000
0320
0000
2030
0000
3200
0000
0320
0000
0230
0000
,
2300
0000
3000
0000
0110
0000
0100
0001
0100
0000
0010
1000
0000
0010
0100
0000
,
0002
0000
0203
0000
0320
0000
2030
0000
3001
0000
0100
0000
0010
1000
0100
1000
,
0001
0000
0010
0000
0100
0010
0100
0010
0100
0000
0000
0000
0010
0000
0001
0000
0100
0000
0010
0000
0000
0000
2000
0000
0000
0000
0000
0000
3001
0000
0100
0000
,
0020
0000
1030
0000
0100
0010
0100
1000
0001
0100
0010
1000
0010
0100
0001
0100
,
0010
1000
0100
0010
0100
0000
1000
0001
1001
0000
0001
0100
0000
0010
1000
0000
,
1010
0000
0100
0000
0002
0000
0103
0000
1010
0000
0100
0000
0001
0100
0010
1000
,
0100
1000
0040
0000
1030
0000
0100
0010
0100
0010
0000
0100
0000
0000
1000
0001
,
1001
0000
0010
0000
0100
0001
0100
0010
1000
0100
0010
0100
1000
0001
0100
0010
,
1000
0100
0010
0001
1000
0000
0000
0000
0000
0000
0000
0000
0000
0000
0000
0000
;
