#TITLE:I'm Alive;
#SUBTITLE:;
#ARTIST:BECCA;
#TITLETRANSLIT:;
#SUBTITLETRANSLIT:;
#ARTISTTRANSLIT:;
#CREDIT:;
#BANNER:im alive-bn.png;
#BACKGROUND:im alive-bg.jpg;
#LYRICSPATH:;
#CDTITLE:yell0w_f0x.png;
#MUSIC:im alive.mp3;
#OFFSET:0.000;
#SAMPLESTART:36.440;
#SAMPLELENGTH:20.500;
#SELECTABLE:YES;
#BPMS:0.000=175.000;
#STOPS:;
#BGCHANGES:0.000=im alive.avi=1.000=1=1=0,
252.500=im alive-bg.jpg=1.000=1=0=1,
99999=-nosongbg-=1.000=0=0=0 // don't automatically add -songbackground-
;
// cache tags:
#FIRSTBEAT:3.000;
#LASTBEAT:252.000;
#SONGFILENAME:Songs/new cedric/[yell0w_f0x]i'm_alive(becca)/im alive.sm;
#HASMUSIC:1;
#HASBANNER:1;
#MUSICLENGTH:89.234;
// end cache tags

//---------------dance-single - ----------------
#NOTES:
     dance-single:
     :
     Medium:
     5:
     0.490,0.457,0.269,0.415,0.000,245.000,24.000,37.000,0.000,0.000:
0000
0000
0000
0000
0000
0000
0100
0100
,
0000
0000
0000
0000
0010
0010
0000
0000
,
0000
0000
0000
0000
0000
0000
0001
0001
,
0000
0000
0000
0000
1000
1000
0000
0000
,
0000
0000
1001
1000
,
0010
0100
0010
0000
0001
0000
0010
0100
,
0010
0110
0110
0010
,
1000
0001
1000
0000
0100
0000
0001
1000
,
0001
1001
1001
0001
,
0100
0010
1000
0100
,
0010
0001
0100
0101
,
1010
0000
1000
0010
0000
0010
0000
0100
,
0000
0001
0000
0010
0000
0200
0000
0000
,
0301
0000
0100
0001
0000
0010
0000
1000
,
0000
0100
0000
1000
0000
0020
0000
0000
,
0031
0000
0001
0010
0000
0100
0000
0010
,
0000
1000
0000
0100
0000
2000
0000
0000
,
3100
0000
0100
1000
0000
0010
0000
0001
,
0000
0100
0000
0010
0000
0200
0000
0000
,
0310
0000
0100
0010
0000
1000
0000
0100
,
0000
0001
0000
0010
0000
2000
0000
0000
,
3001
0000
1000
0001
0000
0100
0000
0001
,
0000
0010
0000
1000
0000
0020
0000
0000
,
0130
0000
0010
0100
0000
1000
0000
0100
,
0000
0010
0000
1000
0000
0002
0000
0000
,
1003
0000
0001
1000
0000
0100
0000
0001
,
0000
0010
0000
0100
0000
0000
2000
0000
,
0000
3000
0010
0000
0200
0000
0000
0000
0001
0000
0000
0000
0010
0000
0000
0000
,
1000
0010
0301
0002
,
0000
0003
0100
0000
0020
0000
0000
0000
0000
0000
2000
0000
0000
0000
0000
0000
,
0000
0000
3030
0010
0000
0100
0000
0000
,
0000
0001
0100
0010
0000
1000
0000
0100
,
0000
0010
0000
0001
0000
0100
2000
0000
,
0010
0000
3001
0000
0000
1000
0000
0010
,
0000
0100
0001
0010
0000
0000
0200
0000
,
0000
0300
1000
0000
0002
0000
0000
0000
0100
0000
0000
0000
1000
0000
0000
0000
,
0010
1000
0103
0020
,
0000
0030
0001
0000
2000
0000
0000
0000
0000
0000
0020
0000
3030
0000
1000
0000
,
0002
0000
0013
0000
0020
0030
0200
0000
,
0000
0000
0300
0002
0003
2000
0000
3000
,
0000
0020
0030
0100
1000
0000
0021
0000
,
0000
0030
1000
0000
0200
0000
0000
0000
0001
0000
0000
0000
0010
0000
0000
0000
,
1000
0010
0301
2010
,
0000
3000
0100
0000
0002
0000
0000
0000
0000
0000
2000
0000
0000
0000
0000
0000
,
0000
0000
3003
0010
0000
0100
0000
0000
,
0000
1000
0100
0010
0000
0011
0000
0110
,
0000
1100
0000
1001
0000
0001
0020
0000
,
0001
0000
1030
0000
0000
1001
0000
1001
,
0000
0100
0010
0100
0000
0000
1200
0000
,
0000
0300
0001
0000
0020
0000
0000
0000
0100
0000
0000
0000
1000
0000
0000
0000
,
0001
0100
1030
0102
,
0000
0003
0010
0000
2000
0000
0000
0000
0000
0000
0002
0000
3003
0000
0020
0000
,
0200
0000
0330
0110
0000
1001
0000
0000
,
0000
1000
0001
0000
0000
0001
0000
0010
,
0000
1000
0010
0000
0001
0000
0100
0000
,
0000
0100
1000
0000
0000
0010
0000
0100
,
0000
0010
0001
0000
0011
0000
0011
0000
,
0000
0000
1100
1100
,
0000
0000
0001
0010
0000
0100
1000
1000
,
0000
0001
0001
0000
0010
0010
0000
0100
,
0100
0000
1000
0001
1000
0001
1000
1000
,
0000
0001
0001
0000
0100
0100
0000
0010
,
0010
0000
0010
0100
0010
0100
0110
0000
;

//---------------dance-single - ----------------
#NOTES:
     dance-single:
     :
     Hard:
     8:
     0.847,1.000,0.605,0.191,0.056,458.000,54.000,17.000,0.000,0.000:
0000
0000
0000
0000
0000
0000
1000
1000
,
0010
0001
0010
0000
0001
0001
1000
0100
,
1000
0100
1000
0100
1000
0000
0010
0010
,
0001
0100
0001
0000
0100
0100
0010
1000
,
0010
1000
0010
1000
1010
0000
0101
0000
,
0010
1000
0100
0000
1010
0000
1000
0010
,
0100
0010
1000
0010
0100
0000
1100
0000
,
0010
0001
0100
0000
0011
0000
0110
0000
,
1100
0000
0000
0000
1001
0000
1000
0001
1000
0000
1001
0000
1000
0000
0100
0000
,
0010
0001
0010
0100
1000
0100
0010
0001
,
0010
0100
1000
0100
0010
0001
1001
0000
,
0010
0100
0010
0001
0010
0100
1001
0000
,
0100
0010
0100
1000
0100
0010
1001
0000
,
0001
0100
1000
0100
0001
0100
1100
0000
,
1000
0010
0001
0010
1000
0010
0011
0000
,
0010
0100
1000
0001
0010
0100
0110
0000
,
0100
0010
0001
1000
0100
0010
0110
0000
,
1000
0010
0100
0001
0100
0010
1001
0000
,
0001
0100
0010
1000
0010
0100
1001
0000
,
1000
0100
0010
0001
0010
0100
0010
0001
,
0010
0100
1000
0100
0001
0100
1000
0010
,
0001
0010
1000
0100
1000
0100
1000
0100
,
0010
0100
0010
0001
1000
0010
0100
0001
,
0010
0100
1000
0100
0010
0100
1000
0100
,
0010
0000
0001
0000
1000
0000
0100
1000
0100
0000
2000
3000
0200
0300
0020
0030
,
0200
0300
0002
0003
0020
0030
0200
0300
0002
0003
2000
3000
0200
0300
0020
0030
,
2000
3000
0002
0003
0200
0300
0020
0000
0000
0030
0000
0000
1000
0000
0100
0000
,
0001
0100
1000
0100
0001
0000
0001
0010
,
1000
0010
0001
0010
1000
0000
0100
0010
,
0001
0010
0100
0010
0001
0000
0010
0100
,
1000
0100
0010
0100
1000
0000
1000
0010
,
0100
1000
0010
0100
0001
0010
0100
0010
,
1000
0010
0100
0010
0001
0010
1000
0010
,
0100
0001
0010
1000
0100
0001
0010
1000
,
0100
0000
0010
0000
1000
0000
0010
1000
0010
0000
1000
0010
1000
0000
0100
0000
,
0010
1000
0100
0010
0001
0000
0010
0100
,
1000
0001
0010
0100
1000
0000
1000
0100
,
1000
0010
0001
0001
0010
0000
0001
0010
,
0001
0100
1000
1000
0100
0000
1000
0100
,
0001
1000
0010
0100
0010
0001
1000
0100
,
1000
0000
0001
0000
0100
0000
0001
0100
0001
0100
0001
0100
0001
0000
0100
0000
,
0010
1000
0100
0010
0011
0001
0010
0100
,
0010
1000
0100
0010
0110
0100
1000
0100
,
0001
0010
0100
1000
1100
0100
0010
0001
,
0100
0010
0001
1000
1001
0000
0010
0100
,
1000
0001
0010
0001
0100
1000
0100
0010
,
1000
0001
0100
0010
0001
1000
0100
1000
,
0001
0100
0010
1000
0100
0001
1000
0100
,
0001
0000
0010
0000
1000
0000
0010
1000
0010
0000
1000
0010
1000
0000
0100
0000
,
0010
0100
1000
0001
1001
0000
0001
0010
,
0100
0010
0001
1000
1001
0000
1000
0010
,
0100
0001
0100
0010
0110
0000
0001
0100
,
0010
1000
1001
0000
0101
0000
1010
0000
,
0100
0010
0001
0000
1100
0000
0010
0001
,
0100
0010
0011
0000
1001
0000
0101
0000
,
0010
0100
1000
0000
0011
0000
0100
1000
,
0010
0100
1100
0000
0110
0000
0010
0001
,
0010
0001
1000
0100
1000
0100
0010
0100
,
0010
0100
0001
1000
0001
1000
1001
1001
,
0001
0011
0011
0010
0110
0110
0100
1100
,
1100
0000
1000
0000
0001
0000
0100
0000
0001
0000
0100
0001
0100
0000
0101
0000
,
0101
0001
0011
0011
0010
1010
1010
1000
,
1100
1100
1000
1001
1001
2002
0000
0000
,
3003
0000
0000
0000
;

//---------------dance-single - Copied from----------------
#NOTES:
     dance-single:
     Copied from:
     Easy:
     3:
     0.303,0.352,0.235,0.112,0.000,158.000,21.000,10.000,0.000,0.000:
0000
0000
0000
1000
,
0000
0000
1001
0000
,
0000
0000
0000
0001
,
0000
0000
1001
0000
,
0000
0000
1001
1000
,
1000
0001
0001
0100
,
0100
0010
0110
0100
,
0100
0010
0010
0001
,
0001
1000
1001
0001
,
0100
0010
1000
0100
,
0010
0001
0100
0110
,
0110
0010
0000
0100
,
0001
0010
0000
1000
,
0000
0100
0000
0001
,
0000
0010
1000
0100
,
0000
0010
0000
0100
,
0000
1000
0100
0001
,
0000
0100
0000
0010
,
0000
0001
0010
1000
,
0000
0001
0000
1000
,
0000
0001
1000
0100
,
0000
1000
0000
0010
,
0000
1000
0001
0010
,
0000
0010
0000
0100
,
0000
0001
1000
0100
,
0000
0001
1000
0001
,
1000
0001
1000
0001
,
0000
0210
0000
0000
,
0000
0000
0300
0001
,
0000
0120
0000
0000
,
0000
0030
0100
1000
,
0001
0100
1000
0010
,
0001
1000
0010
1000
,
0010
0001
0100
0010
,
1000
0001
0010
0100
,
0000
1002
0000
0000
,
0000
0000
0003
0010
,
0000
2001
0000
0000
,
0000
3000
0010
0100
,
0000
0000
0000
0001
0000
1000
0000
0000
,
0000
1001
1001
1001
,
0000
0220
0000
0000
,
0000
0000
0330
0110
,
0000
2002
0000
0000
,
0000
0000
0000
3003
,
0100
0100
0010
0010
,
1000
0100
0001
0010
,
0001
1000
0010
0100
,
0010
0001
1000
1100
,
0000
1020
0000
0000
,
0000
0000
0030
0011
,
0000
0201
0000
0000
,
0000
0300
0010
0100
,
1000
0001
0000
0010
,
0001
1000
0000
0100
,
0010
0001
0000
0010
,
0100
1000
0001
1000
,
0000
0000
1000
0001
,
0000
0001
0100
1000
,
0000
0001
0000
0000
0010
0000
0000
0100
,
0000
1000
0001
1000
,
0000
0001
0000
0000
0100
0000
0000
0010
,
0000
0100
0010
0100
;

//---------------dance-single - Copied from----------------
#NOTES:
     dance-single:
     Copied from:
     Challenge:
     9:
     1.000,1.000,1.000,0.493,0.162,501.000,110.000,44.000,0.000,0.000:
0000
0000
0000
0000
0000
0000
1100
1100
,
0010
0001
0010
0000
0011
0011
1000
0100
,
1000
0100
1000
0100
1000
0000
1010
1010
,
0001
0100
0001
0000
0101
0101
0010
1000
,
0010
1000
0010
1000
1100
0000
0011
0000
,
0110
1000
0110
0000
1001
0000
0110
0001
,
0110
1000
0110
0001
0110
0000
1001
0000
,
1001
0010
1001
0000
0110
0000
1001
0100
,
1001
0000
0010
0000
1001
0000
0100
0010
0001
0000
1001
0000
1000
0000
1000
0000
,
1000
1000
0010
0010
0010
0010
0100
0100
,
0100
0100
0001
0001
0001
0001
1001
1001
,
1000
0100
0010
0001
0010
0100
1001
1000
,
0001
0010
0100
1000
0100
0010
1001
1000
,
0001
0100
1000
0100
0001
0100
1100
0100
,
1000
0010
0001
0010
1000
0010
0011
0001
,
0010
0100
1000
0001
0010
0100
0110
0010
,
0100
0010
0001
1000
0100
0010
0110
0100
,
1000
0010
0100
0001
0100
0010
1001
1000
,
0001
0100
0010
1000
0010
0100
1001
0001
,
1000
0100
0010
0001
0010
0100
0110
0001
,
0010
0100
1000
0100
0001
0100
0101
0100
,
0001
0010
1000
0100
1000
0100
1100
1000
,
0010
0100
0010
0001
1000
0010
1010
1000
,
0010
0100
1000
0100
0010
0100
0110
0010
,
1000
0000
0001
0000
1000
0000
0100
0010
0001
0000
1200
0300
0210
0300
0201
0300
,
0210
0300
1200
0300
0210
0300
0201
0300
0210
0300
1200
0300
0210
0300
0201
0300
,
0210
0300
1200
0300
0210
0300
0201
0300
0210
0300
0000
0000
1000
0000
0100
0000
,
0001
0000
0100
1000
0100
0000
1000
0000
1100
0000
0000
0000
0001
0000
0010
0000
,
1000
0000
0010
0001
0010
0000
0001
0000
0011
0000
0000
0000
0100
0000
0010
0000
,
0001
0000
0010
0100
0010
0000
0100
0000
0110
0000
0000
0000
0010
0000
0100
0000
,
1000
0000
0100
0010
0100
0000
0010
0000
0110
0000
0000
0000
1000
0000
0010
0000
,
0100
0000
1000
0010
1000
0000
0100
0000
0001
0000
0010
0000
0100
0000
0010
0000
,
1000
0000
0010
0100
0010
0000
1000
0000
0001
0000
0010
0000
1000
0000
0010
0000
,
0100
0000
0001
0010
0001
0000
1000
0000
0100
0000
0001
0000
0010
0000
1000
0000
,
0100
0000
0010
0000
1000
0000
0010
0100
1000
0000
1000
0100
0010
0000
0100
0000
,
0010
0000
1000
0100
1000
0000
0010
0000
0001
0000
0000
0000
0010
0000
0100
0000
,
1000
0000
0001
0010
0001
0000
0100
0000
1000
0000
0000
0000
1000
0000
0100
0000
,
1000
0000
0010
0001
0010
0000
0010
0000
0001
0000
0000
0000
0001
0000
0010
0000
,
0001
0000
0100
1000
0100
0000
0100
0000
1000
0000
0000
0000
1000
0000
0100
0000
,
0001
0000
1000
0010
1000
0000
0100
0000
0010
0000
0001
0000
1000
0000
0100
0000
,
1000
0000
0001
0000
0100
0000
0001
0100
1000
0100
0001
0100
1000
0000
0100
0000
,
0010
0000
1000
0100
1000
0000
0010
0000
0011
0000
0001
0000
0010
0000
0100
0000
,
0010
0000
1000
0100
1000
0000
0010
0000
0110
0000
0100
0000
1000
0000
0100
0000
,
0001
0000
0010
0100
0010
0000
1000
0000
1100
0000
0100
0000
0010
0000
0001
0000
,
0100
0000
0010
0001
0010
0000
1000
0000
1001
0000
0001
0000
0010
0000
0100
0000
,
1000
0000
0001
0010
0001
0000
0010
0000
0100
0000
1000
0000
0100
0000
0010
0000
,
1000
0000
0001
0100
0001
0000
0010
0000
0001
0000
1000
0000
0100
0000
1000
0000
,
0001
0000
0100
0010
0100
0000
1000
0000
0100
0000
0001
0000
1000
0000
0100
0000
,
0001
0000
0010
0000
1000
0000
0010
0001
0100
0000
0100
1000
0010
0000
0100
0000
,
1100
0100
1000
1000
1001
0000
0011
0010
,
0110
0100
1000
1000
1001
0000
1010
0010
,
0110
0100
0001
0001
0101
0000
0101
0100
,
0110
0010
1000
1000
1010
0000
1010
1000
,
0100
0010
1000
0100
1100
1000
0010
0001
,
0100
0010
0011
0001
1001
0001
0101
0100
,
0010
0100
1000
0010
1010
1000
0100
1000
,
0010
0100
1100
1000
1001
0001
0010
0100
,
0010
0001
0010
1000
0100
0001
0010
1000
,
0010
0000
0100
0000
0001
0000
1000
0000
0001
0000
1000
0000
2010
3000
2001
3000
,
2100
3000
2001
3000
2010
3000
2001
3000
2100
3000
2001
3000
2010
3000
2001
3000
,
2100
3000
2001
3000
1000
0000
0100
0000
0001
0000
0010
0100
1000
0000
0102
0003
,
1002
0003
0012
0003
1002
0003
0102
0003
1002
0003
0012
0003
1002
0003
0102
0003
,
1002
0003
0012
0003
1002
0003
0102
0003
1002
0003
0022
0000
0000
0000
0000
0033
;

//---------------dance-single - Copied from Copied f----------------
#NOTES:
     dance-single:
     Copied from Copied f:
     Edit:
     12:
     1.000,1.000,1.000,0.549,0.185,525.000,212.000,49.000,0.000,0.000:
0000
0000
0000
0000
0000
0000
1100
1100
,
0011
0110
1100
0000
0011
0011
1100
1001
,
0011
0110
1100
1001
0011
0000
1010
1010
,
0101
1001
1010
0000
0101
0101
1010
0110
,
0101
1001
1010
0110
0102
1003
1001
0010
,
0110
1000
0110
0010
0011
0001
1010
0100
,
0011
0100
1010
0001
0101
1000
0011
1000
,
0101
0010
1100
0001
0110
1000
0011
0100
,
1001
0000
0010
0000
1001
0000
0100
0010
1000
0000
0011
0000
2000
0000
0100
0000
,
0010
3001
0020
1000
0100
0031
0200
1000
,
0010
0301
0002
1000
0100
0013
1001
1001
,
1100
0100
0010
0001
0011
0100
1000
1000
,
0011
0010
0100
1000
1100
0010
0001
1000
,
0011
0100
1000
0100
0011
0100
1000
0100
,
1010
0010
0001
0010
1100
0010
0001
1000
,
0110
0100
1000
0001
0011
0010
0100
0010
,
1100
0010
0001
1000
1001
0010
0001
0100
,
1010
0010
0100
0001
0101
0010
0001
1000
,
0101
0100
0010
1000
0011
0100
1000
0001
,
1010
0100
0010
0001
1010
0100
0010
0001
,
0011
0100
1000
0100
0011
0100
0001
0100
,
0110
0010
1000
0100
1100
0100
0010
1000
,
0011
0100
0010
0001
1100
0010
1000
0001
,
0011
0100
1000
0100
0110
0010
1000
0001
,
1010
0000
0001
0000
1000
0000
0100
0010
0001
0000
2001
3000
1020
0030
0102
0003
,
0120
0030
2010
3000
0102
0003
1200
0300
0102
0003
1020
0030
0102
0003
2010
3000
,
1002
0003
0120
0030
2010
3000
0201
0300
2010
3000
0000
0000
1100
0000
0100
0000
,
0101
0000
0100
0001
0010
0000
1000
0000
1100
0000
0100
0000
0101
0000
0010
0000
,
1010
0000
0010
0100
1000
0000
0001
0000
0011
0000
0010
0000
1100
0000
0010
0000
,
0101
0000
0010
1000
0001
0000
0100
0000
0110
0000
0010
0000
0011
0000
0100
0000
,
1001
0000
0100
0010
0001
0000
0010
0000
0110
0000
0100
0000
1001
0000
0010
0000
,
0110
0000
1000
0100
0010
0000
0100
0000
0101
0000
0001
0000
0110
0000
0100
0000
,
1100
0000
0001
0010
0100
0000
1000
0000
0011
0000
0010
0000
1100
0000
0010
0000
,
0101
0000
0001
0010
1000
0000
1000
0000
1100
0000
0001
0000
0110
0000
1000
0000
,
0101
0000
0010
0000
1010
0000
0001
0100
0010
0000
1000
0001
0010
0000
0100
0000
,
0011
0000
1000
0100
0001
0000
0010
0000
0101
0000
0100
0000
0011
0000
0100
0000
,
1010
0000
0001
0100
0010
0000
0100
0000
1010
0000
1000
0000
0101
0000
0100
0000
,
1010
0000
0010
0100
0001
0000
0010
0000
0101
0000
0100
0000
0011
0000
1000
0000
,
1001
0000
0100
1000
0001
0000
0100
0000
1010
0000
1000
0000
1100
0000
0100
0000
,
0011
0000
1000
0100
0001
0000
0100
0000
1010
0000
0001
0000
0011
0000
0100
0000
,
1010
0000
0001
0000
0110
0000
0001
0100
0010
1000
0001
0010
0100
0000
0100
0000
,
0110
0000
1000
0100
0001
0000
0010
0000
0101
0000
0001
0000
1010
0000
0100
0000
,
0011
0000
0100
0010
1000
0000
0010
0000
0110
0000
0100
0000
1010
0000
0100
0000
,
1001
0000
0010
1000
0001
0000
1000
0000
1100
0000
0100
0000
0110
0000
0010
0000
,
0011
0000
0010
0100
1000
0000
0001
0000
1001
0000
1000
0000
1010
0000
0100
0000
,
0011
0000
0001
0010
0100
0000
0010
0000
0101
0000
1000
0000
1100
0000
0010
0000
,
1010
0000
0001
0100
0010
0000
0010
0000
0101
0000
1000
0000
0110
0000
1000
0000
,
1001
0000
0010
0100
1000
0000
1000
0000
0110
0000
0001
0000
1100
0000
0100
0000
,
0011
0000
0010
0000
1100
0000
0010
0001
1000
0000
0001
1000
0100
0000
0100
0000
,
1100
0000
0100
0001
1000
0000
1000
0000
1001
0000
0010
0000
0011
0000
0010
0000
,
0110
0000
0100
0010
1000
0000
1000
0000
1001
0000
0100
0000
1010
0000
0010
0000
,
0110
0000
0100
1000
0001
0000
0001
0000
0101
0000
0010
0000
0101
0000
0100
0000
,
0110
0000
0010
0001
1000
0000
1000
0000
1010
0000
0001
0000
1010
0000
1000
0000
,
0100
0010
1010
0100
0010
0001
1100
1100
,
0100
0010
0011
0001
1001
0001
0101
0100
,
0010
0100
1010
0010
1000
0001
0101
0101
,
0010
0100
1100
1000
1001
0001
0110
0100
,
1010
0001
0110
1000
0101
0001
0110
1000
,
1010
0000
0100
0000
0101
0000
1000
0000
0011
0000
1000
0000
0210
0300
1002
0003
,
0021
0030
2000
3000
0210
0300
2010
3000
0021
0030
0201
0300
0012
0003
1020
0030
,
0201
0300
2010
3000
1010
0000
0100
0000
0011
0000
0010
0100
1000
0000
2001
3000
,
0102
0003
2010
3000
0210
0300
1020
0030
0102
0003
2001
3000
0210
0300
0021
0030
,
2001
3000
0012
0003
0201
0300
2001
3000
0120
0030
2020
0000
0000
0000
0000
3030
;
