#TITLE:Light Snow;
#SUBTITLE:;
#ARTIST:Treow;
#TITLETRANSLIT:;
#SUBTITLETRANSLIT:;
#ARTISTTRANSLIT:;
#CREDIT:M.L-INS;
#BANNER:../Tachyon DIVA.png;
#BACKGROUND:../Tachyon DIVA-bg.png;
#LYRICSPATH:;
#CDTITLE:;
#MUSIC:Light Snow.ogg;
#OFFSET:-0.060;
#SAMPLESTART:100.000;
#SAMPLELENGTH:12.000;
#SELECTABLE:YES;
#DISPLAYBPM:110.000:220.000;
#BPMS:0.000=110.004,104.000=219.996,484.000=440.000,488.000=220.016,552.000=109.997;
#STOPS:487.500=0.541
;
#BGCHANGES:;
// cache tags:
#FIRSTBEAT:36.000;
#LASTBEAT:570.000;
#SONGFILENAME:Songs/Tachyon DIVA/Light Snow[M.L-INS]/Light Snow.sm;
#HASMUSIC:1;
#HASBANNER:1;
#MUSICLENGTH:188.882;
// end cache tags

//---------------dance-single - ----------------
#NOTES:
     dance-single:
     :
     Challenge:
     17:
     1.000,1.000,0.455,0.222,1.000,1549.000,86.000,42.000,37.000,3.000:
0000
0000
0000
0000
,
0000
0000
0000
0000
,
0000
0000
0000
0000
,
0000
0000
0000
0000
,
0000
0000
0000
0000
,
0000
0000
0000
0000
,
0000
0000
0000
0000
,
0000
0000
0000
0000
,
0000
0000
0000
0000
,
1000
0100
1000
0010
0100
0010
1000
0001
,
1000
0100
0010
0001
0100
0010
1000
0001
,
0010
0100
1000
0010
0100
1000
0100
0010
,
1000
0001
0100
0001
1000
0100
0010
0001
,
1000
0001
0010
0100
1000
0100
0001
0100
,
1000
0010
0100
0001
0010
0001
1000
0010
,
1000
0001
0100
0010
1000
0100
0010
0001
,
0100
0010
0001
0010
0100
0001
0010
0100
,
1000
0100
1000
1000
0001
0100
0010
0010
1000
0010
0100
0100
0001
0010
0100
0100
,
1000
0010
0001
0001
0010
0100
1000
1000
0100
0001
0010
0010
1000
0010
0001
0001
,
0100
0010
1000
1000
0001
0100
0010
0010
1000
0001
1000
1000
0100
0010
0001
0001
,
0100
0010
1000
1000
0100
0001
0100
0100
1000
0010
0100
0100
0001
0010
1000
1000
,
0001
0100
1000
1000
0010
1000
0100
0100
0010
0001
0010
0010
0100
1000
0100
0100
,
1000
0001
0010
0010
0100
1000
0010
0010
0100
0001
0100
0100
1000
0001
1000
1000
,
0001
1000
0001
0001
0100
0001
0010
0010
1000
0100
0010
0010
0100
1000
0001
0001
,
2002
3003
0000
0000
2200
3300
0000
0000
0220
0330
0000
0000
0022
0033
0000
0000
,
222M
0000
3330
0000
0000
0000
0000
0000
22M2
0000
3303
0000
0000
0000
0000
0000
2M22
0000
3033
0000
0000
0000
0000
0000
M011
0100
0001
0100
0001
0100
0001
0100
,
0001
0010
0001
0000
1000
0000
0001
0010
0001
0000
0100
0000
0010
0000
1000
0100
,
0010
0000
0001
0010
0100
0000
1000
0000
0001
0100
0010
0100
0001
0010
0100
0010
,
0001
1000
0001
0000
0100
0000
0010
1000
0010
0000
0100
0000
0001
0100
0010
0000
,
1000
0010
0100
0000
0001
0000
1000
0100
0010
0001
1000
0100
1000
0001
0010
0001
,
0100
0001
0010
0000
0100
0000
1000
0010
0100
0000
0001
0000
0010
0000
0100
0000
,
1000
0010
0100
0000
0001
0000
0100
0010
1000
0000
0001
0100
0010
1000
0100
0010
,
0100
1000
0001
0000
0010
0000
0100
1000
0001
0000
0100
0000
0001
0000
0010
0000
,
0001
0010
0100
0000
1000
0000
0100
0010
0001
0000
1000
0001
0010
0100
0010
0001
,
1000
0001
0100
0000
0010
0000
0100
0001
0010
0000
0100
0000
1000
0000
0100
0000
,
0010
0001
1000
0000
0010
0000
0100
0000
0001
0000
0010
0100
1000
0001
0100
0010
,
1000
0010
0100
0000
0001
0000
0010
0100
1000
0000
0001
0000
0100
0000
0010
0000
,
1000
0010
0100
0000
0001
0000
0100
0000
0010
0000
1000
0001
0100
0010
0100
0001
,
0010
0100
1000
0000
0001
0000
1000
0001
0010
0000
0100
0000
1000
0100
0010
0000
,
0001
0100
0001
0000
0010
0000
0100
0000
1000
0001
0100
0001
0010
0100
1000
0100
,
0010
0001
1000
0100
0010
0100
1000
0001
0100
0010
0100
0001
1000
0100
0010
0100
,
1000
0001
0100
0001
0010
0100
1000
0100
0010
0001
1000
0010
1000
0100
0010
0100
,
1000
0001
0100
0010
1000
0100
0010
0100
,
1000
0001
0010
0100
0010
0001
1000
0001
,
0100
0010
1000
0010
0100
0001
0010
0100
,
1000
0100
0010
0001
1000
0010
0100
0001
,
0010
0001
1000
0100
1000
0001
0100
0010
,
1000
0100
0010
0001
0100
0010
1000
0010
,
0100
0001
1000
0010
0100
0001
0010
0001
,
0100
0010
0100
0001
1000
0001
0100
0010
,
2000
0000
3100
0000
0010
0001
0102
0000
,
0013
0010
0100
2100
0000
3001
1001
0000
,
0002
0000
0103
0000
0010
1000
1020
0000
,
0130
0001
0010
0012
0000
1003
1010
0000
,
0200
0000
0301
0000
1000
0100
0210
0000
,
1300
0010
0100
1002
0000
0103
0101
0000
,
1010
1000
0110
0010
0101
0001
0110
0100
,
0001
0000
0000
0010
0000
0000
0001
0000
0000
1000
0000
0000
0010
0000
0000
1000
0000
0000
0100
0000
0000
0010
0000
0000
0100
0000
0000
1000
0000
0000
0001
0000
1000
0000
0001
0000
1000
0000
0001
0000
1000
0000
0001
0000
1000
0000
0001
0000
,
1000
0100
0010
0000
0001
0000
1000
0100
0010
0000
0001
0000
0010
0100
1000
0000
,
0001
0010
0001
0000
1000
0010
1000
0000
0001
0100
0010
1000
0010
0100
0001
0010
,
0100
1000
0100
0010
0001
0000
1000
0000
0001
0010
0100
0000
1000
0100
0010
0000
,
0001
1000
0010
0100
0001
0010
0100
1000
0100
0010
0001
0000
1000
0001
0010
0000
,
0100
0000
0100
0000
1000
0010
1000
0000
0100
0000
0010
0001
0010
0000
0001
0010
,
0100
1000
0100
0000
1000
0100
0010
0001
0100
0000
0010
1000
0001
0100
0010
1000
,
0010
0000
1000
0100
0010
0000
0101
0000
1000
0100
0010
0000
0101
0000
0001
0010
,
0100
0000
1000
0010
0100
0000
0001
1000
0010
0100
0001
1000
0100
0010
0001
0100
,
0110
0000
0010
0000
0011
0000
1000
0010
0100
0000
0011
0000
0010
0100
1000
0000
,
0110
0000
0001
1000
0100
0000
0010
1000
0010
0100
0001
0000
0100
0010
0100
0001
,
1000
0000
0100
0000
0100
0000
0010
0001
0100
0000
0010
0000
1000
0000
0010
0000
,
0100
0001
0010
0000
0100
1000
0010
0000
1000
0001
0100
0010
1000
0001
0010
0100
,
1000
0000
0101
0000
0001
0000
1000
0100
0010
0000
0101
0000
0010
0100
1000
0000
,
0110
0000
0001
1000
0010
0000
0100
0001
1000
0010
0100
0001
1000
0100
0010
0001
,
0100
0000
0010
0000
1100
0000
0100
1000
0010
0000
1010
0000
0100
0001
0010
0000
,
0110
0000
0000
0000
0100
0000
1000
0000
0010
0000
0000
0000
0100
0000
0001
0000
0010
0000
0000
0000
0000
0MM0
0MM0
0MM0
0MM0
0MM0
0MM0
0MM0
0MM0
0000
0000
0000
,
0001
1000
0010
0100
0001
0100
0001
0010
0100
0010
0001
1000
0010
1000
0100
0010
,
0100
1000
0001
0100
0010
1000
0010
0100
0001
0010
0100
1000
0100
0010
0001
1000
,
0010
0100
0010
1000
0001
1000
0100
0010
0100
1000
0001
0100
0001
0010
0100
0010
,
0001
1000
0010
1000
0100
1000
0001
0100
0001
0010
0001
0100
0010
1000
0010
0100
,
0010
1000
0100
0010
0001
0100
0010
1000
0010
0100
0001
0010
0100
1000
0010
0100
,
0001
1000
0100
1000
0001
0100
0010
1000
0010
0100
0001
0010
0100
1000
0001
0100
,
0001
0100
0010
1000
0001
0100
0010
1000
0010
0100
0001
0010
0100
1000
0001
1000
,
0100
0010
0100
1000
0001
0100
0001
0010
0100
0010
0001
0100
0001
1000
0010
1000
,
0100
0010
0100
1000
0001
0100
0001
0010
0001
1000
0010
0100
0001
0010
0100
0010
,
0001
1000
0100
0010
0100
1000
0001
0100
0001
0010
0100
0010
0001
1000
0010
1000
,
0100
1000
0001
0100
0010
0100
0001
0010
0100
1000
0100
0010
0001
1000
0010
0100
,
0001
1000
0100
0010
0100
1000
0001
0100
0001
0010
0100
0010
0001
1000
0100
0010
,
0100
1000
0001
0100
0010
1000
0010
0100
0001
0010
0100
1000
0100
0010
0001
1000
,
0010
0100
0001
0010
0100
1000
0100
0010
0001
0100
0010
1000
0001
0010
0100
0010
,
0001
1000
0010
0100
0001
0010
0100
1000
0001
0100
0010
1000
0100
0010
0001
0010
,
0100
0010
0001
1000
0010
0100
0010
1000
0010
0000
0200
0000
0300
0000
0000
0000
,
0001
0000
0001
0000
0010
0000
0100
1000
0010
0000
0100
0000
0001
0010
0100
0000
,
1000
0010
0100
0000
0001
0010
0100
0000
1000
0010
0100
0001
0010
0001
1000
0100
,
0010
0000
0001
0000
0001
0100
0010
1000
0100
0000
0100
0000
0010
0001
0010
0100
,
1000
0000
0001
0100
0001
0000
0010
0100
0010
0001
1000
0010
0100
0001
0010
0100
,
1000
0000
1000
0000
0010
0000
0100
0001
0010
0000
0100
0000
1000
0100
0010
0000
,
0001
0000
0100
0000
0010
1000
0100
0000
0010
0001
0100
0010
1000
0000
0001
0010
,
0100
0000
1000
0000
1100
0000
0001
0100
0010
0000
1000
0000
0100
0010
0001
0000
,
1000
0010
0100
0000
0001
0100
0010
0000
1000
0100
1000
0001
0100
0001
0010
0100
,
0010
0000
0001
0000
0101
0000
0010
0100
1000
0000
0110
0000
0001
1000
0010
0000
,
0100
0001
0010
0000
0100
1000
0010
0000
0100
0001
0100
0010
1000
0100
0010
0001
,
0100
0000
0010
0000
0010
0000
1000
0100
0010
0000
0011
0000
0001
1000
0100
0000
,
1000
0001
0100
0000
0010
1000
0100
0000
0010
0001
0100
0010
1000
0001
0100
0010
,
1000
0100
0010
0001
0100
0000
0101
0000
0001
0010
0100
0000
1000
0001
0100
0000
,
0010
1000
0001
0000
0101
0000
0100
0000
0010
1000
0100
0000
0101
0000
0001
0000
,
0010
0100
1000
0001
0000
1000
0100
0010
0001
0100
0000
0010
1000
0001
0100
0000
,
0101
0101
0110
0110
1010
1010
0110
0110
,
0001
1000
0010
0000
0100
0000
0001
0010
0100
0000
1000
0000
0100
0010
0100
0000
,
1000
0100
1000
0000
0001
0100
0010
0000
1000
0100
0010
0100
1000
0001
0010
0100
,
1000
0000
1100
0000
0110
0000
0001
0100
0010
0000
1000
0100
0010
0000
0001
0100
,
0010
1000
0010
0100
0001
0000
1000
0100
0010
0000
0011
0000
0110
0000
0100
0010
,
1000
0000
0001
0100
0010
0000
0100
0000
0001
0010
0100
0000
1000
0100
0010
0000
,
0001
0000
0001
0000
0100
0010
1000
0000
0010
0100
0001
0100
0010
1000
0100
0000
,
0011
0000
0001
0000
0100
0000
0010
1000
0100
0000
1000
0001
0100
0000
0010
1000
,
0001
0000
0010
0100
1000
0000
0001
0100
0001
0010
0100
1000
0100
0010
0001
0100
,
0010
0000
0101
0000
0001
0000
1000
0100
0010
0000
0011
0000
0001
0100
0010
0000
,
1010
0000
0100
0001
0010
0000
0100
1000
0001
0100
0010
1000
0010
0100
0001
0010
,
0100
1000
0100
0010
0001
0000
1000
0010
0100
0001
0010
0000
0100
1000
0001
0100
,
0010
1010
1000
0110
0011
0001
1010
1000
,
0001
0100
0001
0100
0001
0000
1000
0100
0010
0000
0001
0100
0010
0000
1010
0000
,
0100
0010
1000
0000
0110
0000
0001
0000
0110
0000
1000
0000
1100
0000
0001
0000
,
1000
0001
0100
0010
1000
0100
0010
0100
2000
3002
0203
0320
2030
3002
0203
0302
,
2003
0M0M
0M0M
0M0M
0M0M
0M0M
3M0M
0M0M
,
1000
0100
1000
0000
0101
0000
1000
0100
1000
0000
0010
0000
0110
0000
0001
0010
,
0100
0000
1000
0100
0010
0000
0001
0000
1000
0010
0100
0010
1000
0100
0010
0100
,
1000
0001
1000
0000
0110
0000
0100
0001
0100
0000
1010
0000
1000
0010
0100
0000
,
0001
0100
0010
0000
1100
0000
0001
0010
0100
1000
0001
0010
0001
1000
0100
1000
,
0010
1000
0100
0000
0011
0000
0001
0100
0010
0000
1100
0000
0110
0000
0010
0000
,
0001
0100
0010
0000
1010
0000
0010
0100
0001
0000
1000
0010
0100
0001
0010
0100
,
0010
0001
1000
0000
0110
0000
0010
0001
1000
0000
1010
0000
0100
0000
0101
0000
,
1000
0100
0010
0000
0001
0000
0010
0100
1000
0000
0001
1000
0100
0010
0100
1000
,
0001
1000
0010
0000
1010
0000
0010
1000
0100
0000
0010
0000
0001
0000
0010
0000
,
0100
1000
0001
0000
0101
0000
0010
0000
1010
0000
0100
0010
0001
1000
0010
0100
,
0001
0100
0010
0000
1100
0000
0100
0010
0001
0000
0110
0000
0010
0000
0100
0000
,
0001
0100
0010
0000
1001
0000
0010
0000
1100
0000
0001
1000
0010
0100
0010
1000
,
0100
0010
0001
0000
1010
0000
0001
1000
0100
0000
0110
0000
0001
0010
0100
0000
,
1000
0010
1000
0000
0100
0000
1010
0000
0001
1000
0010
1000
0100
0010
0001
0010
,
0100
1000
0001
0010
0100
0010
0001
1000
0010
0100
0010
1000
0001
0010
0100
0010
,
0001
1000
0010
1000
0100
0010
0001
0010
0100
1000
0001
0100
0001
0010
0100
0010
,
0002
0100
0100
0010
1000
1000
0100
0010
0010
0100
1000
1000
,
0203
0010
0010
0001
1000
1000
0010
0001
0001
1000
1000
0001
,
0320
1000
1000
0001
0100
0100
1000
0100
0001
1000
0100
0100
,
M032
0000
02M3
0000
,
M320
0000
0030
0000
;
