#TITLE:Rhythm & Police;
#SUBTITLE:(K.O.G G3 Mix);
#ARTIST:CJ Crew feat. Christian D;
#TITLETRANSLIT:;
#SUBTITLETRANSLIT:;
#ARTISTTRANSLIT:;
#CREDIT:;
#BANNER:R&P-Banner.png;
#BACKGROUND:R&P-BG.png;
#LYRICSPATH:;
#CDTITLE:V.png;
#MUSIC:RHYTHM AND POLICE (K.O.G G3 Mix).mp3;
#OFFSET:-0.666;
#SAMPLESTART:40.150;
#SAMPLELENGTH:12.000;
#SELECTABLE:YES;
#DISPLAYBPM:170.000;
#BPMS:0.000=170.000;
#STOPS:;
#BGCHANGES:;
// cache tags:
#FIRSTBEAT:0.000;
#LASTBEAT:252.000;
#SONGFILENAME:Songs/Fresh Flock of Fantastic Files F4/(vince) Rhythm&Police/RHYTHM AND POLICE (K.O.G G3 Mix).sm;
#HASMUSIC:1;
#HASBANNER:1;
#MUSICLENGTH:90.551;
// end cache tags

//---------------dance-single - ----------------
#NOTES:
     dance-single:
     :
     Hard:
     10:
     1.000,1.000,1.000,0.000,1.000,666.000,234.000,0.000,0.000,0.000:
1001
0000
0000
1001
0000
1001
0000
1001
,
0011
0000
0000
0000
0100
0000
0000
1000
0000
0010
0000
0000
0100
0000
0001
0000
,
1100
0000
0000
1100
0000
1100
0000
1100
,
0101
0010
1000
0010
1000
0010
1000
0010
1000
0010
1000
0010
1000
0010
1000
0010
,
1100
0011
0100
0011
1000
0011
0100
0011
,
1100
0101
0010
0101
1000
0101
0010
0101
,
0011
1100
0010
1100
0001
1100
0010
1100
,
0110
0101
0010
0101
1000
0101
0010
0101
,
1100
0011
0001
1100
1000
0011
0001
0101
,
1100
0110
0001
0011
0010
1010
1000
1001
,
0011
0101
0010
1010
0100
0101
0010
0101
,
0110
1000
0001
1000
0001
1000
0001
1000
0001
1000
0001
1000
0001
1000
0001
1000
,
0001
0100
0010
1000
0001
0010
0001
0010
0001
1000
0100
1000
0001
0010
0100
1000
,
0001
0010
0001
1000
0100
0010
0001
0010
0001
1000
0100
1000
0001
0010
0100
0010
,
0001
1000
0001
0100
0010
1000
0100
1000
0001
0010
0001
1000
0100
0010
0001
0100
,
0010
1000
0100
0010
0001
1000
0100
0010
0100
0010
0001
0010
0100
1000
0100
0010
,
0001
1000
0001
0010
0100
1000
0001
1000
0010
0100
0001
1000
0010
1000
0001
1000
,
0001
0010
0001
1000
0100
0010
0100
0010
0001
0010
0001
1000
0100
0010
0100
1000
,
0010
0100
0001
1000
0010
1000
0100
0010
0100
0010
0001
0100
0001
0010
0100
1000
,
1001
0000
1001
0000
1001
0000
0110
0110
0000
1001
1001
0000
0000
0000
0000
0000
,
1100
0000
0110
0000
0001
0000
0110
0000
1000
0000
1100
0010
0001
0010
1100
0000
,
0001
0000
1100
0000
0010
0000
1100
0000
0010
0000
0011
0100
1000
0100
0011
0000
,
1000
0000
0110
0000
0001
0000
0110
0000
1000
0000
0011
1000
0100
1000
0011
0000
,
0100
0000
1001
0000
0010
0000
1001
0000
0010
0000
1100
0001
0010
0001
1100
0000
,
0101
0000
1001
0000
0010
0000
1001
0000
0100
0000
0101
1000
0010
1000
0101
0000
,
0010
0000
0101
0000
1000
0000
0101
0000
1000
0000
0011
0100
1000
0100
0011
0000
,
0100
0000
1001
0000
0010
0000
1001
0000
0100
0000
1001
0010
0100
0010
1001
0000
,
0011
0000
0011
0000
0011
0000
1100
1100
0000
0011
0011
0000
1001
0000
0000
0000
,
1000
0011
0100
0011
1000
0011
0100
0011
,
1000
0101
0010
0101
1000
0101
0010
0101
,
1000
0011
0100
0011
1000
0011
0100
0011
,
0101
0000
0000
0000
1001
1001
1001
0000
,
0001
1100
0010
1100
0001
1100
0010
1100
,
0001
1010
0100
1010
0001
1010
0100
1010
,
0001
1100
0010
1100
0001
1100
0010
1100
,
0011
1000
0001
1000
0001
1000
0001
1000
0100
1000
0100
1000
0100
1000
0100
1000
,
0011
0101
1100
1001
0110
1100
0011
0110
,
1001
1100
0011
0110
0101
0110
1100
1010
,
0110
1001
0011
0110
0101
1010
0110
0101
,
1100
0000
0000
0000
1001
1001
1001
0000
,
1010
0011
0101
0110
1001
0101
1010
1001
,
0110
0101
1010
1001
0011
1001
0101
1100
,
1001
0110
1010
1001
0011
1100
1001
0101
,
0011
1000
0100
1000
0100
1000
0100
1000
0100
1000
0100
1000
0100
1000
0100
1000
,
0011
1000
0100
1000
0100
1000
0100
1000
0001
1000
0001
1000
0001
1000
0001
1000
,
0011
0000
0101
0000
1000
0000
0110
0000
0001
0000
1100
0010
0001
0010
1100
0000
,
0001
0000
1010
0000
0100
0000
1001
0000
0100
0000
0011
0100
1000
0100
0011
0000
,
1000
0000
0011
0000
0100
0000
1010
0000
0001
0000
1100
0001
0010
0001
1100
0000
,
0010
0000
1100
0000
0001
0000
1010
0000
0100
0000
0011
1000
0100
1000
0011
0000
,
0100
0000
0011
0000
1000
0000
0011
0000
0100
0000
1100
0010
0001
0010
1100
0000
,
0010
0000
0101
0000
1000
0000
0101
0000
0010
0000
0011
0100
1000
0100
0011
0000
,
1000
0000
0110
0000
0001
0000
0110
0000
1000
0000
1001
0010
0100
0010
1001
0000
,
1010
0000
1010
0000
1010
0000
0101
0101
0000
1010
1010
0000
1001
0000
0000
0000
,
1000
0010
1000
0100
0010
0001
0100
0010
1000
0001
0100
0001
1000
0010
0100
0001
,
1000
0100
0010
0100
0010
0001
1000
0100
1000
0001
1000
0001
1000
0010
0100
0001
,
1000
0001
0100
0010
1000
0100
1000
0001
0010
0001
1000
0010
1000
0001
0100
0001
,
1000
0010
0100
0001
1000
0100
0010
0001
0100
0001
1000
0010
0100
0001
1000
0100
,
1000
0001
1000
0001
1000
0010
0100
0010
1000
0010
0100
0001
1000
0100
0010
0001
,
0100
0010
0100
0010
1000
0001
0100
0010
1000
0100
1000
0001
0010
0001
1000
0100
,
1000
0001
1000
0001
0100
0010
1000
0100
1000
0001
0100
0001
1000
0100
0010
0100
,
1001
0000
1001
0000
1001
0000
0110
0110
0000
1001
1001
0000
0000
0000
0000
0000
,
1100
0000
1100
0000
1100
0000
0011
0011
0000
1100
1100
0000
0000
0000
0000
0000
,
1001
0000
1001
0000
1001
0000
0011
0011
0000
1100
1100
0000
0001
0010
1100
0000
,
1001
0000
0000
0000
;

//---------------dance-couple - ----------------
#NOTES:
     dance-couple:
     :
     Medium:
     8:
     0.822,1.000,1.000,0.000,0.193,300.000,187.000,0.000,0.000,21.000:
00000000
00000000
00000000
00000000
,
00000000
00000000
00000000
00000000
,
00000000
00000000
00000000
00000000
,
00000000
00000000
00000000
00000000
,
10001000
00100000
00100000
00100000
,
00010001
01000000
01000000
01000000
,
10001000
00000010
00000010
00000010
,
00010001
00000100
00000100
00000100
,
00100000
10000001
00100000
10000001
,
00010000
00000000
01010001
00000000
10000000
00000000
11000000
00000001
,
00000010
10001000
00000010
10001000
,
00000001
10000101
00001000
10001100
,
00110000
00110001
00110000
00110001
,
01000000
01000001
01000000
01000001
,
00001010
10001010
00001010
10001010
,
00000100
10000100
00000100
10000100
,
10001000
11001100
00010001
01010101
,
10001000
11001100
00010001
01010101
,
10001000
00010001
10001000
00010001
,
01000100
00000000
00000000
00000000
,
10000001
00000000
01000100
00000000
00101000
00010000
01000100
00000000
,
10000001
00000000
01000100
00000000
00101000
00010000
01000100
00000000
,
00100001
00000000
10000100
00000000
00011000
10000000
01000100
00000000
,
00011000
00000000
01000100
00000000
10000010
00000001
01000100
00000000
,
00011000
00000000
01000100
00000000
10000010
00000001
01000100
00000000
,
00010010
00000000
01001000
00000000
10000001
00001000
01000100
00000000
,
00100010
00000000
01000100
00000000
00100010
10001000
01000100
00000000
,
00100010
10001000
00100010
00000000
00010001
00000000
01010101
00000000
,
00100010
00100010
00100010
01100110
,
10000001
10000001
10000001
00000000
00011000
00000000
01011100
00000000
,
00011000
00000000
00000000
00000000
10000001
01000100
10000001
00000000
,
00011000
00000000
00000000
00000000
,
00000000
00100000
00000000
10000000
00000000
00010000
00000000
10000000
,
00000000
00000010
00000000
00001000
00000000
00000001
00000000
00001000
,
00000000
00100010
00000000
10001000
00000000
00010001
00000000
01000100
,
00000000
00000000
00000000
00000000
,
00110000
00110000
00110000
00110000
,
00001010
00001010
00001010
00001010
,
01011100
01011100
01011100
01011100
,
10011001
00000000
00000000
00000000
,
10000001
01000100
00011000
01000100
,
10000001
01000100
10000001
00000000
00011000
01000100
00011000
00000000
,
00100010
00000000
00100010
00000000
00100010
10000001
00100010
10000001
,
01000100
00000000
00000000
00000000
,
10001001
00000000
00100010
10011001
,
01000000
00010000
00100001
01000000
00100000
00010000
00100001
10000000
,
00100000
00010000
01000001
10000000
01000000
00010000
00100001
01000000
,
10000000
00100000
00010001
00100000
10000000
01000000
00100001
10000000
,
00100100
00010001
01000010
10000100
01000010
00010001
00100010
00001000
,
00000010
00000001
10000100
00001000
00000100
00000001
10000010
00000100
,
00001000
00000010
10000001
00000010
00001000
00000100
10000010
00001000
,
00000010
00000001
10000100
00001000
00000100
00000001
10000010
00000000
,
01000100
00000000
01000100
00000000
01000100
00000000
00100010
00000000
00000000
00010001
00000000
00000000
00000000
00000000
00000000
00000000
,
00010001
01000000
00000000
00000000
01000001
00100000
00000000
00000000
00100001
00010000
00000000
00000000
00010001
00100000
00000000
00000000
,
00100001
10000000
00000000
00000000
10000001
01000000
00000000
00000000
01000001
00100000
00000000
00000000
00100001
01000000
00000000
00000000
,
01000001
10000000
00000000
00000000
10000001
01000000
00000000
00000000
01000001
00010000
00000000
00000000
00010001
01000000
00000000
00000000
,
01000001
10000100
00000000
00000000
10000100
00100010
00000000
00000000
00100010
00010001
00000000
00000000
00010001
01000010
00000000
00000000
,
10000010
00001000
00000000
00000000
10001000
00000100
00000000
00000000
10000100
00000010
00000000
00000000
10000010
00000100
00000000
00000000
,
10000100
00001000
00000000
00000000
10001000
00000100
00000000
00000000
10000100
00000001
00000000
00000000
10000001
00000100
00000000
00000000
,
10000100
00001000
00000000
00000000
10001000
00000010
00000000
00000000
10000010
00000001
00000000
00000000
10000001
00000100
00000000
00000000
,
10000000
00000000
00010000
00000000
01000000
00000000
00010000
10000000
00000000
00010000
10000000
00000000
00000000
00000000
00000000
00000000
,
00001000
00000000
00000001
00000000
00000100
00000000
00000001
00001000
00000000
00000001
00001000
00000000
00000000
00000000
00000000
00000000
,
00010001
00000000
10001000
00000000
01000100
00000000
00100010
01000100
00000000
00100010
01000100
00000000
00000000
00000000
00010001
00000000
,
10001000
00000000
00000000
00000000
;
