#TITLE:Astral Blast;
#SUBTITLE:;
#ARTIST:nanobii;
#TITLETRANSLIT:;
#SUBTITLETRANSLIT:;
#ARTISTTRANSLIT:;
#CREDIT:Owen71;
#BANNER:../Banner.png;
#BACKGROUND:../BG.png;
#LYRICSPATH:;
#CDTITLE:../CDTitleOV1.png;
#MUSIC:nanobii - Astral Blast.ogg;
#OFFSET:-0.104;
#SAMPLESTART:45.281;
#SAMPLELENGTH:29.999;
#SELECTABLE:YES;
#BPMS:0.000=170.001;
#STOPS:;
#BGCHANGES:;
// cache tags:
#FIRSTBEAT:0.000;
#LASTBEAT:506.000;
#SONGFILENAME:Songs/Index Tesseract/Astral Blast - [Owen71]/Astral Blast.sm;
#HASMUSIC:1;
#HASBANNER:1;
#MUSICLENGTH:183.614;
// end cache tags

//---------------dance-single - ----------------
#NOTES:
     dance-single:
     :
     Challenge:
     14:
     1.000,1.000,0.294,1.000,1.000,1354.000,54.000,195.000,28.000,5.000:
1MM1
1000
1000
0100
0100
0100
0010
0010
,
0001
0001
0001
1000
1000
1000
0010
0010
,
0100
0100
0100
0001
0001
0001
1000
1000
,
0100
0100
0100
0010
0010
0010
0001
0001
,
0200
0000
0320
0000
2030
0000
3002
0203
,
0000
0000
0000
0300
M020
0000
0000
0000
2030
0000
0000
0000
3M02
0000
0023
0000
,
0000
0000
0000
0030
0100
0000
0000
0000
1000
0000
0000
0000
0001
0000
0100
0000
,
0010
0010
0010
1000
1000
1000
0100
0100
,
2MM1
0000
3020
0000
0230
0000
0302
2003
,
0000
0000
0000
3000
02M0
0000
0000
0000
0320
0000
0000
0000
0032
0000
0000
0000
,
2003
0000
3020
0230
0000
0000
0302
0000
,
2003
0000
0000
0000
3020
0000
0230
0000
0000
0000
0302
0003
2000
3000
0002
0003
,
0040
0030
0100
1000
0002
0003
0100
0000
0020
1030
0020
0030
0200
0300
0002
1003
,
0004
0003
0020
0130
1000
0000
0002
0003
0100
0010
0200
0300
0001
0000
2000
3010
,
0400
0300
0001
1000
0001
0000
0010
0000
0400
1300
0100
0000
0010
0000
0001
1000
,
0004
0000
0000
0003
0000
0000
0000
0000
0000
0100
0000
0000
0010
0000
0000
0000
0000
0000
1000
0000
0000
0000
0000
0000
0000
0000
0000
0001
0000
0000
0100
0000
0000
0000
0000
0000
0010
0000
1000
0000
0010
0000
0100
0000
0001
0000
1000
0000
,
0MM2
0000
0203
0000
0320
0000
2030
3002
,
0000
0000
0000
0003
0020
0000
0000
0000
0230
0000
0000
0000
2300
0000
0000
0000
,
3002
0000
0203
0320
0000
0000
2030
0000
,
3002
0000
0023
0230
0000
0000
0000
0300
,
2000
0000
3002
0000
0023
0000
0230
2300
,
0000
0000
0000
3000
0002
0000
0000
0000
0203
0000
0000
0000
0320
0000
2030
0000
,
0000
0000
3200
0000
0320
0000
0032
2003
,
0000
3020
0230
0301
1000
0010
0100
0001
,
1000
0100
0010
0001
1000
0001
0100
0010
1000
0010
0100
0001
1000
0100
1000
0010
,
0100
0001
1000
0001
0100
0010
1000
0010
0100
0001
1000
0001
0010
0001
0100
0010
,
1000
0010
0100
0001
1000
0100
1000
0001
0010
0001
0100
0010
1000
0010
0100
0001
,
1000
0001
0100
0010
1000
0010
0100
0010
1000
0001
0100
0001
0010
0100
1000
0001
,
0010
0001
0100
0010
1000
0010
0100
0001
1000
0001
0100
0010
0100
0001
1000
0100
,
0010
0001
1000
0001
0100
0010
0100
0001
1000
0010
1000
0100
0010
0001
1000
0010
,
1000
0001
0100
0000
0010
0000
0100
0001
1000
0000
0100
0000
0010
0001
2000
0000
,
0010
0000
0000
3000
0002
0000
0000
0000
0203
0000
0000
0000
03M0
0000
0000
0000
,
M001
0100
0010
1000
0010
0100
0001
1000
0010
1000
0100
0010
0001
1000
0010
1000
,
0001
0100
0010
0100
0001
1000
0010
0100
0001
1000
0001
0100
0010
0100
0001
1000
,
0010
1000
0100
0010
0001
1000
0100
0010
0100
1000
0001
0100
0001
1000
0001
0100
,
0010
1000
0010
0100
0001
1000
0010
1000
0001
0100
0010
0100
0001
1000
0100
1000
,
0001
0010
0001
0100
0010
1000
0010
0100
0001
1000
0001
0010
0100
1000
0100
0010
,
0001
1000
0100
1000
0001
0100
0010
1000
0010
0100
0001
1000
0100
1000
0001
0010
,
0001
0100
0010
1000
0010
0100
0001
1000
0001
0100
0010
0100
0001
1000
0001
0100
,
0010
1000
0010
0100
0001
1000
0100
0010
0001
1000
0010
0100
0001
0000
1000
0000
,
0001
0100
0010
1000
0100
1000
0001
0010
0001
0100
0010
1000
0010
0100
0001
1000
,
0001
0010
0100
1000
0001
0010
0001
0100
0010
1000
0010
0100
0001
1000
0001
0100
,
0010
0100
0001
1000
0010
1000
0100
0010
0001
1000
0100
1000
0001
0010
0001
0100
,
0010
1000
0010
0100
0001
1000
0100
1000
0001
0010
0001
0100
0010
0100
0001
1000
,
0100
0010
0001
1000
0001
0100
0010
0100
0001
1000
0010
1000
0001
0100
0001
0010
,
0100
1000
0100
0010
0001
1000
0100
1000
0001
0010
0001
0100
0010
1000
0010
0100
,
0001
1000
0001
0010
0100
1000
0001
1000
0100
0010
0001
1000
0010
1000
0001
0100
,
0001
1000
0100
1000
0010
0100
0001
0100
0010
0000
1000
0000
0010
0100
0001
0000
,
10M0
0100
1000
0001
0010
0001
0100
0010
1000
0010
0100
0001
1000
0001
0010
0100
,
1000
0100
0010
0001
1000
0100
1000
0001
0100
0001
1000
0001
0100
0010
0100
0001
,
1000
0010
1000
0100
0010
0001
1000
0100
1000
0001
0100
0001
1000
0010
1000
0001
,
1000
0100
0010
0001
1000
0100
1000
0001
0010
0001
0100
0010
1000
0010
0100
0001
,
1000
0100
1000
0001
0010
0001
0100
0010
1000
0010
0100
0001
1000
0100
1000
0001
,
0100
0001
0010
0100
1000
0100
0010
0001
1000
0100
1000
0001
0010
0001
0100
0010
,
1000
0010
0100
0001
1000
0001
0100
0010
0100
0001
1000
0010
1000
0100
0010
0001
,
1000
0100
1000
0001
0010
0001
0100
0010
1000
0010
0100
0001
0100
0000
0010
0000
,
1000
0001
0100
0001
0010
0100
1000
0001
0010
0001
1000
0001
0100
0010
1000
0010
,
0100
0001
1000
0100
1000
0010
0100
0010
1000
0001
0100
0001
0010
0100
1000
0100
,
0010
0001
1000
0010
1000
0001
0100
0001
1000
0100
0010
0001
1000
0100
1000
0001
,
0010
0001
0100
0010
1000
0010
0100
0001
1000
0001
0100
0010
0100
0001
1000
0010
,
1000
0100
0010
0001
1000
0100
1000
0001
0010
0001
0100
0010
1000
0010
0100
0001
,
1000
0001
0100
0010
0100
0001
1000
0100
0010
0001
2000
0000
3010
0000
0200
0000
,
0300
0001
0000
0000
,
0000
M000
0000
0000
0000
0M00
00M0
000M
00M0
0M00
M000
0M00
00M0
000M
00M0
0M00
,
1MM0
0001
0100
0001
0010
0000
0100
1000
0000
0001
0010
0100
1000
0001
0000
1000
,
0010
0000
0100
0001
1000
0001
0010
0000
0100
1000
0000
0001
0100
0001
1000
0010
,
0000
0100
0001
1000
0001
0010
0100
1000
0010
0000
0100
0001
1000
0001
0020
0030
,
0100
1000
0000
0000
0010
0100
0010
1000
0001
0010
0200
0300
0000
1000
0100
0010
,
0002
0000
0203
0000
0320
0000
2030
3002
,
0000
0000
0000
0003
0020
0000
0000
0000
0230
0000
0000
0000
2300
0000
3002
0000
,
0000
0000
0000
0000
1003
0010
1000
0100
0000
0000
0010
0001
1000
0001
0100
0010
,
2000
3000
0000
0001
0010
0100
1000
0001
2000
0000
0000
0000
0000
0000
0000
0000
,
0000
3200
0000
0000
0000
0000
0000
0000
,
0000
0000
0320
0000
0000
0000
0000
0000
0000
0032
0000
0000
0000
0000
0000
0000
,
2003
0000
0000
0000
,
3000
0020
0000
0000
0000
0000
0000
0000
,
0230
0000
0000
0000
,
0302
0000
0000
0000
,
2003
0000
0000
0000
,
0000
0000
0000
0000
0000
0000
0020
0030
,
3202
0000
0000
0303
2020
0000
3030
2002
0000
3003
2200
0000
0000
3300
0220
0330
,
0220
0000
0000
0330
0022
0000
0033
2002
0000
3003
2020
0000
0000
3030
0202
0303
,
0202
0000
0000
0303
0220
0000
0330
2020
0000
3030
2200
0000
0000
3300
0022
0033
,
0022
0000
0000
0033
2200
0000
3300
0220
0000
0330
0202
0000
0303
0000
2002
3003
,
2002
0000
0000
3003
0202
0000
0303
2020
0000
3030
2200
0000
3300
0000
0220
0330
,
0220
0000
0000
0330
0022
0000
0033
2002
0000
3003
2020
0000
3030
0000
0202
0303
,
0202
0000
0000
0303
2002
0000
3003
2200
0000
3300
0022
0000
0033
0000
2020
3030
,
2020
0000
0000
3030
0202
0000
0303
2200
0000
3300
0022
0000
0033
0000
0202
0303
,
1000
0000
0000
0100
0000
0000
0010
0000
0001
0000
0000
1000
0000
0000
0010
0000
,
0100
0000
0010
0000
1000
0000
0001
0000
0100
0000
0000
0010
0000
0000
1000
0001
,
1000
0000
0000
0100
0000
0000
0010
0000
0001
0000
0000
1000
0000
0000
0010
0000
,
0100
0000
0001
0000
1000
0000
0010
0000
1000
0000
0001
0100
0000
0000
0010
0000
,
1000
0100
0010
0001
1000
0001
0100
0010
1000
0010
0100
0001
0100
0010
1000
0001
,
1000
0100
0010
0001
1000
0100
1000
0001
0010
0001
0100
0010
2000
0000
0000
0000
,
3022
0000
0033
0000
0202
0303
0202
0000
0303
0000
2020
0000
3030
0000
2002
0000
,
0000
0000
0000
0000
0000
0000
0000
0000
0000
0000
0000
0000
3003
0000
0000
0000
0000
0000
0000
0000
0000
0000
0000
0000
0001
0000
0010
0000
0100
0000
1000
0000
0000
0001
0000
0000
0100
0000
0000
0010
0000
0000
0100
0000
0000
0000
0000
0000
,
M001
0010
0100
1000
0001
0100
0001
1000
0010
1000
0100
0010
0001
1000
0010
1000
,
0001
0100
0010
0100
0001
1000
0010
0100
0001
1000
0001
0100
0010
0100
0001
1000
,
0010
1000
0100
0010
0001
1000
0100
0010
0100
1000
0001
0100
0001
1000
0001
0100
,
0010
1000
0010
0100
0001
1000
0010
1000
0001
0100
0010
0100
0001
1000
0100
1000
,
0001
0010
0001
0100
0010
1000
0010
0100
0001
1000
0001
0010
0100
1000
0100
0010
,
0001
1000
0100
1000
0001
0100
0010
1000
0010
0100
0001
1000
0100
1000
0001
0010
,
0001
0100
0010
1000
0010
0100
0001
1000
0001
0100
0010
0100
0001
1000
0001
0100
,
0010
1000
0010
0100
0001
1000
0100
0010
0001
1000
0010
0100
0001
0000
1000
0000
,
0001
0100
0010
1000
0100
1000
0001
0010
0001
0100
0010
1000
0010
0100
0001
1000
,
0001
0010
0100
1000
0001
0010
0001
0100
0010
1000
0010
0100
0001
1000
0001
0100
,
0010
0100
0001
1000
0010
1000
0100
0010
0001
1000
0100
1000
0001
0010
0001
0100
,
0010
1000
0010
0100
0001
1000
0100
1000
0001
0010
0001
0100
0010
0100
0001
1000
,
0100
0010
0001
1000
0001
0100
0010
0100
0001
1000
0010
1000
0001
0100
0001
0010
,
0100
1000
0100
0010
0001
1000
0100
1000
0001
0010
0001
0100
0010
1000
0010
0100
,
0001
0000
0000
1010
0000
0000
0110
0000
,
0000
0000
0101
0000
0000
0000
0000
0000
1000
0000
0100
0010
0001
0100
0001
0000
,
10M0
0100
1000
0001
0010
0001
0100
0010
1000
0010
0100
0001
1000
0001
0010
0100
,
1000
0100
0010
0001
1000
0100
1000
0001
0100
0001
1000
0001
0100
0010
0100
0001
,
1000
0010
1000
0100
0010
0001
1000
0100
1000
0001
0100
0001
1000
0010
1000
0001
,
1000
0100
0010
0001
1000
0100
1000
0001
0010
0001
0100
0010
1000
0010
0100
0001
,
1000
0100
1000
0001
0010
0001
0100
0010
1000
0010
0100
0001
1000
0100
1000
0001
,
0100
0001
0010
0100
1000
0100
0010
0001
1000
0100
1000
0001
0010
0001
0100
0010
,
1000
0010
0100
0001
1000
0001
0100
0010
0100
0001
1000
0010
1000
0100
0010
0001
,
1000
0100
1000
0001
0010
0001
0100
0010
1000
0010
0100
0001
0100
0000
0010
0000
,
1000
0001
0100
0001
0010
0100
1000
0001
0010
0001
1000
0001
0100
0010
1000
0010
,
0100
0001
1000
0100
1000
0010
0100
0010
1000
0001
0100
0001
0010
0100
1000
0100
,
0010
0001
1000
0010
1000
0001
0100
0001
1000
0100
0010
0001
1000
0100
1000
0001
,
0010
0001
0100
0010
1000
0010
0100
0001
1000
0000
0000
0000
0020
0000
0230
0000
,
0302
0000
2003
0101
3002
0110
0203
1320
,
0000
0000
0000
0030
0200
0000
0000
0000
0302
0000
0000
0000
2003
0000
3200
0000
,
0000
0000
0000
0000
0000
0000
0000
0000
0300
0000
0000
0000
0000
0000
1000
0001
1000
0000
0000
0000
0000
0000
0000
0000
0000
0000
0000
0000
0000
0000
0000
0000
,
0000
0000
0000
0000
,
0000
0000
0000
0000
,
0000
0000
0000
0000
;
