#TITLE:Second Heaven;
#SUBTITLE:;
#ARTIST:Ryu☆;
#TITLETRANSLIT:;
#SUBTITLETRANSLIT:;
#ARTISTTRANSLIT:;
#CREDIT:owenviau1;
#BANNER:../owenviau1 Simfiles 5-bn.png;
#BACKGROUND:../owenviau1 Simfiles 5-bg.png;
#LYRICSPATH:;
#CDTITLE:../ov1_title.png;
#MUSIC:Ryu_ - Second Heaven.mp3;
#OFFSET:-1.806;
#SAMPLESTART:96.840;
#SAMPLELENGTH:29.999;
#SELECTABLE:YES;
#DISPLAYBPM:149.000;
#BPMS:0.000=149.003,11.000=148.995,12.000=149.003,13.000=148.995,14.000=149.003,16.000=148.995,17.000=149.003,19.000=148.995,20.000=149.003,21.000=148.995,22.000=149.003,24.000=148.995,25.000=149.003,27.000=148.995,28.000=149.003,29.000=148.995,30.000=149.003,32.000=148.995,33.000=149.003,35.000=148.995,36.000=149.003,37.000=148.995,38.000=149.003,40.000=148.995,41.000=149.003,43.000=148.995,44.000=149.003,45.000=148.995,46.000=149.003,48.000=148.995,49.000=149.003,51.000=148.995,52.000=149.003,53.000=148.995,54.000=149.003,56.000=148.995,57.000=149.003,59.000=148.995,60.000=149.003,61.000=148.995,62.000=149.003,64.000=148.995,65.000=149.003,67.000=148.995,68.000=149.003,69.000=148.995,70.000=149.003,72.000=148.995,73.000=149.003,75.000=148.995,76.000=149.003,77.000=148.995,78.000=149.003,80.000=148.995,81.000=149.003,83.000=148.995,84.000=149.003,85.000=148.995,86.000=149.003,88.000=148.995,89.000=149.003,91.000=148.995,92.000=149.003,93.000=148.995,94.000=149.003,96.000=148.995,97.000=149.003,99.000=148.995,100.000=149.003,101.000=148.995,102.000=149.003,104.000=148.995,105.000=149.003,107.000=148.995,108.000=149.003,109.000=148.995,110.000=149.003,112.000=148.995,113.000=149.003,114.000=148.995,115.000=149.003,116.000=148.995,117.000=149.003,118.000=148.995,119.000=149.003,120.000=148.995,121.000=149.003,122.000=148.995,123.000=149.003,124.000=148.995,125.000=149.003,126.000=148.995,127.000=149.003,128.000=148.995,129.000=149.003,130.000=148.995,131.000=149.003,132.000=148.995,133.000=149.003,134.000=148.995,135.000=149.003,136.000=148.995,137.000=149.003,138.000=148.995,139.000=149.003,140.000=148.995,141.000=149.003,142.000=148.995,143.000=149.003,144.000=148.995,145.000=149.003,146.000=148.995,147.000=149.003,148.000=148.995,149.000=149.003,150.000=148.995,151.000=149.003,152.000=148.995,153.000=149.003,154.000=148.995,155.000=149.003,156.000=148.995,157.000=149.003,158.000=148.995,159.000=149.003,160.000=148.995,161.000=149.003,162.000=148.995,163.000=149.003,164.000=148.995,165.000=149.003,166.000=148.995,167.000=149.003,168.000=148.995,169.000=149.003,170.000=148.995,171.000=149.003,172.000=148.995,173.000=149.003,174.000=148.995,175.000=149.003,176.000=148.995,177.000=149.003,178.000=148.995,179.000=149.003,180.000=148.995,181.000=149.003,182.000=148.995,183.000=149.003,184.000=148.995,185.000=149.003,186.000=148.995,187.000=149.003,188.000=148.995,189.000=149.003,190.000=148.995,191.000=149.003,192.000=148.995,193.000=149.003,194.000=148.995,195.000=149.003,196.000=148.995,197.000=149.003,198.000=148.995,199.000=149.003,200.000=148.995,201.000=149.003,202.000=148.995,203.000=149.003,204.000=148.995,205.000=149.003,206.000=148.995,207.000=149.003,208.000=148.995,209.000=149.003,210.000=148.995,211.000=149.003,212.000=148.995,213.000=149.003,214.000=148.995,215.000=149.003,216.000=148.995,217.000=149.003,218.000=148.995,219.000=149.003,220.000=148.995,221.000=149.003,222.000=148.995,223.000=149.003,224.000=148.995,225.000=149.003,226.000=148.995,227.000=149.003,228.000=148.995,229.000=149.003,230.000=148.995,231.000=149.003,232.000=148.995,233.000=149.003,234.000=148.995,235.000=149.003,236.000=148.995,237.000=149.003,238.000=148.995,239.000=149.003,240.000=148.995,241.000=149.003,242.000=148.995,243.000=149.003,244.000=148.995,245.000=149.003,246.000=148.995,247.000=149.003,248.000=148.995,249.000=149.003,250.000=148.995,251.000=149.003,252.000=148.995,253.000=149.003,254.000=148.995,255.000=149.003,256.000=148.995,257.000=149.003,258.000=148.995,259.000=149.003,260.000=148.995,261.000=149.003,262.000=148.995,263.000=149.003,264.000=148.995,265.000=149.003,266.000=148.995,267.000=149.003,268.000=148.995,269.000=149.003,270.000=148.995,271.000=149.003,272.000=148.995,273.000=149.003,274.000=148.995,275.000=149.003,276.000=148.995,277.000=149.003,278.000=148.995,279.000=149.003,280.000=148.995,281.000=149.003,282.000=148.995,283.000=149.003,284.000=148.995,285.000=149.003,286.000=148.995,287.000=149.003,288.000=148.995,289.000=149.003,290.000=148.995,291.000=149.003,292.000=148.995,293.000=149.003,294.000=148.995,295.000=149.003,296.000=148.995,297.000=149.003,298.000=148.995,299.000=149.003,300.000=148.995,301.000=149.003,302.000=148.995,303.000=149.003,304.000=148.995,305.000=149.003,306.000=148.995,307.000=149.003,308.000=148.995,309.000=149.003,310.000=148.995,311.000=149.003,312.000=148.995,313.000=149.003,314.000=148.995,315.000=149.003,316.000=148.995,317.000=149.003,318.000=148.995,319.000=149.003,320.000=148.995,321.000=149.003,322.000=148.995,323.000=149.003,324.000=148.995,325.000=149.003,326.000=148.995,327.000=149.003,328.000=148.995,329.000=149.003,330.000=148.995,331.000=149.003,332.000=148.995,333.000=149.003,334.000=148.995,335.000=149.003,336.000=148.995,337.000=149.003,338.000=148.995,339.000=149.003,340.000=148.995,341.000=149.003,342.000=148.995,343.000=149.003,344.000=148.995,345.000=149.003,346.000=148.995,347.000=149.003,348.000=148.995,349.000=149.003,350.000=148.995,351.000=149.003,352.000=148.995,353.000=149.003,354.000=148.995,355.000=149.003,356.000=148.995,357.000=149.003,358.000=148.995,359.000=149.003,360.000=148.995,361.000=149.003,362.000=148.995,363.000=149.003,364.000=148.995,365.000=149.003,366.000=148.995,367.000=149.003,368.000=148.995,369.000=149.003,370.000=148.995,371.000=149.003,372.000=148.995,373.000=149.003,374.000=148.995,375.000=149.003,376.000=148.995,377.000=149.003,378.000=148.995,379.000=149.003,380.000=148.995,381.000=149.003,382.000=148.995,383.000=149.003,384.000=148.995,385.000=149.003,386.000=148.995,387.000=149.003,388.000=148.995,389.000=149.003,390.000=148.995,391.000=149.003,392.000=148.995,393.000=149.003,394.000=148.995,395.000=149.003,396.000=148.995,397.000=149.003,398.000=148.995,399.000=149.003,400.000=148.995,401.000=149.003,402.000=148.995,403.000=149.003,404.000=148.995,405.000=149.003,406.000=148.995,407.000=149.003,408.000=148.995,409.000=149.003,410.000=148.995,411.000=149.003,412.000=148.995,413.000=149.003,414.000=148.995,415.000=149.003,416.000=148.995,417.000=149.003,418.000=148.995,419.000=149.003,420.000=148.995,421.000=149.003,422.000=148.995,423.000=149.003,424.000=148.995,425.000=149.003,426.000=148.995,427.000=149.003,428.000=148.995,429.000=149.003,430.000=148.995,431.000=149.003,432.000=148.995,433.000=149.003,434.000=148.995,435.000=149.003,436.000=148.995,437.000=149.003,438.000=148.995,439.000=149.003,440.000=148.995,441.000=149.003,442.000=148.995,443.000=149.003,444.000=148.995,445.000=149.003,446.000=148.995,447.000=149.003,448.000=148.995,449.000=149.003,450.000=148.995,451.000=149.003,452.000=148.995,453.000=149.003,454.000=148.995,455.000=149.003,456.000=148.995,457.000=149.003,458.000=148.995,459.000=149.003,460.000=148.995,461.000=149.003,462.000=148.995,463.000=149.003,464.000=148.995,465.000=149.003,466.000=148.995,467.000=149.003,483.000=148.995,484.000=149.003,499.000=148.995,500.000=149.003,512.000=148.995,513.000=149.003,528.000=148.995,529.000=149.003,547.000=148.995,548.000=149.003,549.000=148.995,550.000=149.003,551.000=148.995,552.000=149.003,554.000=148.995,555.000=149.003,557.000=148.995,558.000=149.003,559.000=148.995,560.000=149.003,562.000=148.995,563.000=149.003;
#STOPS:;
#BGCHANGES:;
// cache tags:
#FIRSTBEAT:0.000;
#LASTBEAT:563.854;
#SONGFILENAME:Songs/owenviau1 Simfiles 5/Second Heaven - [owenviau1] v1.4/Second Heaven.sm;
#HASMUSIC:1;
#HASBANNER:1;
#MUSICLENGTH:229.172;
// end cache tags

//---------------dance-single - ----------------
#NOTES:
     dance-single:
     :
     Hard:
     9:
     0.668,0.646,0.157,0.026,0.024,1030.000,36.000,6.000,0.000,2.000:
0001
1000
0100
1000
0010
0100
0001
0010
,
0001
1000
0010
0100
0001
0010
0100
1000
,
0010
0100
0001
0010
0001
1000
0001
0100
,
0010
1000
0100
1000
0010
0100
0001
1000
,
0001
0010
0001
0100
0010
1000
0100
1000
,
0001
0100
0010
1000
0100
0010
0001
0100
,
0001
1000
0100
1000
0010
0100
0001
0010
,
0100
1000
0010
0100
0001
1000
0001
0010
,
0001
1000
0010
0100
0001
0010
0100
1000
,
0001
0100
0010
1000
0100
0010
0001
0100
,
0010
1000
0100
1000
0001
0100
0010
1000
,
0001
0010
0001
1000
0010
0100
0001
0010
,
0100
1000
0000
1000
0000
1000
0000
1000
,
0001
0010
0000
0010
0000
0010
0000
0010
,
0100
1000
0000
1000
0001
0100
0000
0100
,
0010
2000
0000
3000
0000
0002
0000
0000
,
0113
1000
0010
0100
0001
1000
0001
0100
,
0001
0010
0100
1000
0010
1000
0001
0100
,
0010
1000
0100
0010
0001
1000
0001
0010
,
0100
1000
0010
0100
0001
1000
0100
0010
,
1100
0001
0100
0001
0010
0001
0100
0010
,
1000
0001
1000
0100
1000
0010
0100
0001
,
0010
0100
1000
0010
0100
0001
1000
0010
,
0100
0010
1000
0001
0000
0001
0000
0001
,
1001
0000
0000
0000
,
0000
0000
0000
0000
,
0000
0000
0000
0000
,
0000
0000
0000
0000
,
0100
0001
0000
0001
0000
0001
0000
0001
,
1000
0010
0000
0010
0000
0010
0000
0010
,
1000
0100
0000
0100
0010
0001
0000
0001
,
1000
0010
0000
0010
0000
0010
0000
0010
,
0200
0000
0000
0000
,
0000
0302
0000
0000
,
1003
0010
0100
0001
0010
0100
1000
0001
,
0100
0010
1000
0100
0010
0001
0100
0001
,
1000
0001
0010
0001
0100
0010
1000
0100
,
0010
0001
1000
0001
0010
0100
1000
0010
,
0100
0001
0010
0001
1000
0010
0100
0001
,
0010
0100
1000
0001
0100
0010
1000
0100
,
0010
0001
0100
0010
1000
0010
0100
0001
,
0010
0100
1000
0010
0100
0001
0010
0001
,
1001
0100
0010
1000
0100
1000
0001
0010
,
0100
1000
0010
0100
0001
0010
0100
1000
,
0010
0100
0001
0010
0001
0100
0010
1000
,
0001
0100
0001
0010
0100
1000
0100
0010
,
1100
0100
0001
1000
0001
0100
0010
1000
,
0101
0100
0010
0001
0100
0010
1000
0100
,
0110
0001
0100
0010
1100
1000
0100
0010
,
0101
0100
0110
0010
1010
1000
1001
0000
,
0000
0000
0000
0000
,
1001
0100
0001
0010
0100
1000
0010
0100
,
0001
1000
0001
0010
0001
1000
0010
0100
,
0001
0010
0100
1000
0010
0100
0001
1000
,
0001
0010
0001
0100
0010
1000
0100
1000
,
0101
0001
0010
0100
1000
0010
0100
0001
,
1000
0010
0100
0010
1000
0001
0100
0010
,
1000
0100
0010
0001
0100
0001
0010
0100
,
1000
0010
0100
0001
1000
0010
0100
0001
,
1010
0010
1000
0001
1000
0100
0010
0001
,
0010
0100
1000
0001
0100
0010
1000
0100
,
1000
0010
1000
0001
0100
0001
0010
0001
,
1000
0010
0100
0001
0010
0100
1000
0010
,
0101
0100
1000
0010
1000
0100
1000
0001
,
0010
0001
1000
0100
0010
0001
0100
0010
,
1000
0010
0100
0001
1000
0001
0010
0100
,
1000
0001
0100
0010
1000
0100
0010
0001
,
1100
0100
1000
0010
0100
0001
1000
0001
,
0010
0001
1000
0010
0100
0001
0010
0100
,
1000
0010
0100
0001
1000
0001
0010
0100
,
1000
0010
0100
0001
0010
0001
1000
0010
,
0110
1000
0010
0100
0001
1000
0001
0010
,
0001
0100
0010
1000
0100
1000
0001
0100
,
0010
1000
0100
0010
0001
0100
0010
1000
,
0100
1000
0010
0100
0001
1000
0100
0010
,
0001
1001
0000
0001
0000
0010
0100
1000
,
0000
0100
0010
1000
0000
0001
0010
0100
,
1000
0001
0000
0100
0000
0010
1000
0001
,
0000
0100
1000
0001
0000
0100
0010
1000
,
1001
0010
0100
0001
0010
0001
1000
0001
,
0100
0010
1000
0100
0010
0001
0100
0010
,
1000
0001
0100
0010
1000
0100
1000
0001
,
0100
0010
1000
0001
0000
0001
0000
0001
,
0101
0100
0010
1000
0001
0100
0010
1000
,
0100
1000
0100
0010
0001
0100
0001
0010
,
0100
1000
0010
0100
0001
1000
0100
1000
,
0010
0100
0001
0010
0001
1000
0100
1000
,
1001
0001
0000
0001
0000
0001
0000
0001
,
1000
0010
0000
0010
0000
0010
0000
0010
,
0100
0001
0000
0001
0010
0100
0000
0100
,
1000
0001
0100
0010
1000
0001
0010
0001
,
1001
0100
0010
0001
0100
0010
1000
0100
,
1000
0010
0100
0001
1000
0001
0010
0001
,
1000
0010
0100
0001
0010
0100
1000
0001
,
0100
0010
1000
0001
0100
0001
0010
0100
,
1000
0000
0010
0000
1000
0000
0001
0000
0100
0000
0010
0000
1000
0000
0001
0100
,
0001
0000
0100
0000
0001
0000
1000
0000
0001
0000
0100
0000
0010
0000
1000
0001
,
1000
0000
0010
0000
0100
0000
1000
0000
0001
0000
0100
0000
0010
0000
1000
0100
,
1000
0000
0001
0000
0100
0000
0010
0000
1000
0001
1000
0001
1000
0001
1000
0001
,
1000
0000
0000
0000
,
1000
0001
1000
0001
1000
0001
1000
0001
1000
0000
0000
0000
0000
0000
0000
0000
,
1001
1000
0001
0010
0100
1000
0010
0100
,
0001
1000
0001
0010
0001
1000
0010
0100
,
0001
0010
0100
1000
0010
0100
0001
1000
,
0001
0010
0001
0100
0010
1000
0100
1000
,
0101
0001
0010
0100
1000
0010
0100
0001
,
1000
0010
0100
0010
1000
0001
0100
0010
,
1000
0100
0010
0001
0100
0001
0010
0100
,
1000
0010
0100
0001
1000
0010
0100
0001
,
1010
0010
1000
0001
1000
0100
0010
0001
,
0010
0100
1000
0001
0100
0010
1000
0100
,
1000
0010
1000
0001
0100
0001
0010
0001
,
1000
0010
0100
0001
0010
0100
1000
0010
,
0101
0100
1000
0010
1000
0100
1000
0001
,
0010
0001
1000
0100
0010
0001
0100
0010
,
1000
0010
0100
0001
1000
0001
0010
0100
,
1000
0001
0100
0010
1000
0100
0020
0000
,
1031
0100
1000
0010
0100
0001
1000
0001
,
0010
0001
1000
0010
0100
0001
0010
0100
,
1000
0010
0100
0001
1000
0001
0010
0100
,
1000
0010
0100
0001
0010
0001
1000
0001
,
0101
1000
0010
0100
0001
1000
0001
0010
,
0001
0100
0010
1000
0100
1000
0001
0100
,
0010
1000
0100
0010
0001
0100
0010
1000
,
0100
1000
0010
0100
0001
1000
0100
0010
,
0011
0100
0001
0010
0100
1000
0010
0100
,
0001
1000
0001
0010
0001
1000
0010
0100
,
0001
0010
0100
1000
0010
0100
0001
1000
,
0001
0010
0001
0100
0010
1000
0100
1000
,
0101
0001
0010
0100
1000
0010
0100
0001
,
1000
0010
0100
0010
1000
0001
0100
0010
,
1000
0100
0010
0001
0100
0001
0010
0100
,
1000
0010
0100
0001
1000
0010
0100
0001
,
1010
0010
1000
0001
1000
0100
0010
0001
,
0010
0100
1000
0001
0100
0010
1000
0100
,
1000
0010
1000
0001
0100
0001
0010
0001
,
1000
0010
0100
0001
0010
0100
1000
0010
,
0101
0100
1000
0010
1000
0100
1000
0001
,
0101
0010
1000
0100
0010
0001
0100
0010
,
1010
0001
0100
0001
1001
1000
0001
1000
,
0100
0000
0000
0000
0000
0000
0000
0000
0000
0000
0000
0000
0000
0000
0000
0000
0000
0000
0000
0000
0000
0000
0000
0000
0010
0000
0000
0000
0000
0000
0000
0000
0000
0000
0000
0000
0000
0000
0000
0000
0000
0000
0000
0000
0000
0000
0000
0000
0001
0000
0000
0000
0000
0000
0000
0000
0000
0000
0000
0000
0000
0000
0000
0000
0000
0000
0000
0000
0000
0000
0000
0000
1000
0000
0000
0000
0000
0000
0000
0000
0000
0000
0000
0000
0000
0000
0000
0000
0000
0000
0000
0000
0000
0000
0000
0000
0001
0000
0000
0000
0000
0000
0000
0000
0000
0000
0000
0000
0000
0000
0000
0000
0000
0000
0000
0000
0000
0000
0000
0000
1000
0000
0000
0000
0000
0000
0000
0000
0000
0000
0000
0000
0000
0000
0000
0000
0000
0000
0000
0000
0000
0000
0000
0000
0001
0000
0000
0000
0000
0000
0000
0000
0000
0000
0000
0000
0000
0000
0000
0000
0000
0000
0000
0000
0000
0000
0000
0000
0200
0000
0000
0000
0000
0000
0000
0000
0000
0000
0000
0000
0000
0000
0000
0000
0000
0300
0000
0000
0000
0000
0000
0000
,
0000
0000
0000
0000
;

//---------------dance-single - ----------------
#NOTES:
     dance-single:
     :
     Challenge:
     12:
     0.999,0.984,1.000,0.039,0.353,1189.000,404.000,9.000,21.000,6.000:
1001
0001
0110
0100
1010
0001
1100
0100
,
0011
1000
0101
0010
1001
0100
1010
0001
,
0110
0010
1001
0100
0011
1000
0110
0001
,
1100
0100
1001
0010
0101
1000
0110
0001
,
1010
0100
0011
0100
1010
0001
1100
0100
,
0011
1000
0101
0100
1001
0001
0110
0100
,
0011
1000
0110
0010
1001
0100
1010
0001
,
0110
1000
0011
0001
0110
0100
1001
0010
,
0101
1000
1010
0001
0110
0100
0011
1000
,
0110
0100
1010
0001
0101
0100
1010
0010
,
1100
0001
0110
1000
0011
0100
1001
1000
,
0110
0001
1100
0010
0101
0010
0110
1000
,
1010
0101
0000
0001
0000
0001
0000
0001
,
1001
1100
0000
1000
0000
1000
0000
1000
,
1010
0110
0000
0010
0110
0101
0000
0100
,
0110
2000
0000
3000
0000
0002
0000
0000
,
1103
0010
0101
0100
1010
0001
0110
0100
,
1001
0010
1100
0001
0011
0100
1001
0010
,
1100
0001
0110
0100
1001
0010
0101
1000
,
1001
0010
0101
1000
0110
0001
1010
0001
,
1100
1000
0011
1000
0101
0010
1001
0100
,
0110
0001
1100
0001
0011
0100
1001
0100
,
1010
0001
0110
1000
0101
0010
1001
0001
,
0110
0100
1010
0100
0000
0100
0000
0100
,
1001
0001
0110
0100
1010
0001
0101
1000
,
1010
0001
1100
0001
0011
0100
1010
0100
,
1001
0001
0110
1000
0011
0001
1100
0001
,
0110
1000
0101
0010
1001
0010
1100
0001
,
1010
0101
0000
0100
0000
0100
0000
0100
,
0101
1001
0000
1000
0000
1000
0000
1000
,
1010
0101
0000
0001
1010
1001
0000
1000
,
1010
0110
0000
0010
0000
0010
0000
0010
,
0102
0000
0000
0000
,
0000
2000
0000
0000
,
3113
1000
0001
0100
1010
0100
0001
1000
,
0101
0010
1000
0001
1010
0010
0101
0010
,
1001
0100
0001
1000
0011
1000
0010
0100
,
1010
0001
0010
0100
1001
0010
0101
0100
,
1010
0001
1100
0010
1001
0010
1100
0001
,
0110
1000
0101
1000
0011
0100
1001
0001
,
0110
0001
1010
0001
1100
1000
0011
1000
,
0101
0010
1001
0100
0110
0001
1100
0010
,
1001
0100
0010
0001
1100
0010
1000
0001
,
0011
0100
1000
0010
0101
1000
0110
0001
,
1010
0100
0010
1000
0011
0001
0100
0010
,
1100
0001
1010
0010
0101
0010
1001
1000
,
0110
0001
1000
0100
1010
0001
1000
0010
,
0101
1000
0001
0100
0011
1000
0110
0001
,
1010
0100
0010
1000
0101
0010
0100
0001
,
1010
0001
0110
1000
0011
0100
1001
0000
,
0000
M000
0000
0000
0000
0000
0M00
0000
0000
00M0
0000
0000
0000
0000
0000
0000
000M
0000
000M
0000
000M
0000
000M
0000
000M
0000
000M
0000
000M
0000
0000
0000
,
1001
0000
1000
0100
0010
0001
1000
0010
0100
0000
0001
0000
1100
0000
0010
0100
,
0001
0000
1000
0100
0010
0001
0010
0100
1000
0000
0010
0000
0101
0000
1000
0000
,
0110
0000
1000
0001
0100
0001
0010
0100
1000
0000
0010
0000
0101
0000
1000
0001
,
0010
0100
1010
0100
1001
0100
0011
1000
,
1100
0000
0001
0010
0100
0010
0001
1000
0010
0000
0100
0000
1001
0000
0010
0100
,
1000
0000
0001
1000
0010
0100
0001
0010
0001
0000
1000
0000
0110
0000
0001
0000
,
1100
0000
1000
0100
0010
0001
0100
0001
1000
0000
0100
0000
1010
0000
0001
1000
,
0100
0001
0110
1000
0102
0100
0000
0100
,
0113
0000
1000
0100
0010
0001
1000
0010
0100
0000
0001
0000
1100
0000
0010
0100
,
0001
0000
1000
0010
1000
0001
0100
0001
1000
0000
0010
0000
0101
0000
1000
0000
,
0110
0000
1000
0001
0100
0001
0010
0100
1000
0000
0010
0000
0101
0000
1000
0001
,
0010
1000
0101
1000
1001
0100
0011
1000
,
1100
0000
0001
0010
0100
0010
0001
1000
0010
0000
0100
0000
1001
0000
0010
0100
,
1000
0000
0001
1000
0010
0100
0001
0010
0001
0000
1000
0000
0110
0000
0001
0000
,
1100
0000
1000
0100
0010
0001
0100
0001
1000
0000
0100
0000
1010
0000
0001
1000
,
0100
0001
0110
1000
0102
0100
0000
0100
,
0113
0001
1100
0010
1001
0010
0101
1000
,
0110
0100
1001
0100
0011
1000
0110
0001
,
1100
0010
1001
0100
1010
0001
0110
0100
,
1001
0100
0011
1000
0110
0001
1100
0001
,
1010
0001
0110
0100
1001
0010
0011
1000
,
0110
0001
1100
0010
1001
0010
0101
1000
,
1010
0001
0101
0100
1010
0001
1001
0010
,
1000
0100
0010
0001
0100
0001
1000
0100
0010
0001
0100
0010
0100
0001
1000
0010
,
1001
0000
0110
0000
0000
0000
1010
0000
0000
0000
0001
1000
0010
0000
0001
0100
,
0010
0000
1100
0000
0100
0000
0011
0000
0000
0000
1000
0100
0010
0000
0100
0000
,
1001
0000
1100
0000
0000
0000
1001
0000
0000
0000
1000
0100
0010
0000
0001
1000
,
0010
0000
0110
0000
1000
0000
0101
0000
0000
0000
1000
0001
0010
0000
1000
0001
,
1001
1000
0110
0001
1010
0100
1001
0010
,
0110
1000
0011
0100
1010
0001
1100
0010
,
0101
0010
1001
0100
1010
0001
0110
1000
,
0101
0010
1001
0100
0000
0100
0000
0100
,
1001
0100
0011
0100
1010
0001
1001
0010
,
0101
1000
0011
0100
1100
0001
1001
0010
,
0101
0100
1010
0100
1001
0001
0110
1000
,
0101
1000
0011
0001
1100
0010
0100
1000
,
1001
1010
0000
1000
0000
1000
0000
1000
,
1010
0101
0000
0001
0000
0001
0000
0001
,
1001
1010
0000
1000
1010
0110
0000
0100
,
0001
0010
0100
1000
0001
0100
0010
1000
0010
0100
0001
0010
0100
1000
0001
0100
,
1001
0000
0100
0010
0001
1000
0010
0100
1001
0000
0100
0000
1010
0000
0001
0100
,
0010
0000
1000
0001
1000
0100
0010
0001
1001
0000
0100
0000
1010
0000
0100
0000
,
0101
0000
1000
0010
0100
0010
1000
0001
1001
0000
0010
0000
0101
0000
0001
0010
,
0100
1000
0110
0001
1010
0100
0011
0100
,
1001
0000
1000
0100
0010
0001
0100
0010
1000
0000
0001
0000
1010
0000
0001
1000
,
0001
0000
1000
0100
0010
0001
0100
0010
1000
0000
0100
0000
0011
0000
1000
0001
,
0100
0000
0010
1000
0001
0000
1000
0100
0010
0000
0001
1000
0010
0000
1000
0100
,
0010
0000
0001
0000
0010
0000
0100
0000
1000
0010
1000
0001
0100
0001
0010
0100
,
1000
0000
0000
0000
0000
0000
0000
000M
0000
0000
0000
0000
0000
0000
0000
0000
0000
0000
0000
0000
0000
0000
0000
0000
0000
0000
0000
0000
0000
0000
0000
0000
0000
0000
0000
0000
00M0
0000
0000
0000
0000
0000
0000
0000
0000
0000
0000
0000
0000
0000
0000
0000
0000
0000
0000
0000
0000
0M00
0000
0000
0000
0000
0000
0000
0000
0000
0000
0000
0000
0000
0000
0000
0000
0000
0000
0000
0000
0000
0000
0000
0000
0000
0000
0000
0000
0000
0000
0000
0000
0000
0000
0000
0000
0000
0000
0000
0000
0000
M000
0000
0000
0000
0000
0000
0000
0000
0000
0000
0000
0000
0000
M000
0000
0000
0000
0000
0000
0000
0000
0000
0000
0000
0000
0000
0000
0000
M000
0000
0000
0000
0000
0000
0000
0000
0000
0000
0000
0000
M000
0000
0000
0000
0000
0000
0000
0000
0000
0000
0000
0000
M000
0000
0000
0000
0000
0000
0000
0000
0000
0000
0000
0000
M000
0000
0000
0000
0000
0000
0000
0000
0000
0000
0000
0000
M000
0000
0000
0000
0000
0000
0000
0000
0000
0000
0000
0000
M000
0000
0000
0000
0000
0000
,
0001
1000
0001
1000
0001
1000
0001
1000
0001
0000
0000
0000
0000
0000
0000
0000
,
1001
0000
1000
0100
0010
0001
1000
0010
0100
0000
0001
0000
1100
0000
0010
0100
,
0001
0000
1000
0100
0010
0001
0010
0100
1000
0000
0010
0000
0101
0000
1000
0000
,
0110
0000
1000
0001
0100
0001
0010
0100
1000
0000
0010
0000
0101
0000
1000
0001
,
0010
0100
1010
0100
1001
0100
0011
1000
,
1100
0000
0001
0010
0100
0010
0001
1000
0010
0000
0100
0000
1001
0000
0010
0100
,
1000
0000
0001
1000
0010
0100
0001
0010
0001
0000
1000
0000
0110
0000
0001
0000
,
1100
0000
1000
0100
0010
0001
0100
0001
1000
0000
0100
0000
1010
0000
0001
1000
,
0100
0001
0110
1000
0012
0010
0000
0010
,
0113
0000
1000
0100
0010
0001
1000
0010
0100
0000
0001
0000
1100
0000
0010
0100
,
0001
0000
1000
0010
1000
0001
0100
0001
1000
0000
0010
0000
0101
0000
1000
0000
,
0110
0000
1000
0001
0100
0001
0010
0100
1000
0000
0010
0000
0101
0000
1000
0001
,
0010
1000
0101
1000
1001
0100
0011
1000
,
0110
0000
0000
1000
0000
0000
0000
0000
0000
0001
1000
0001
1000
0000
0000
0010
0000
0000
1100
0000
0000
0010
0000
0000
,
0101
0000
0000
0100
0000
0000
1000
0100
0010
0001
0010
0100
1000
0000
0000
0100
0000
0000
1001
0000
0000
0100
0000
0000
,
1010
0000
0000
0001
0000
0000
1000
0001
1000
0001
1000
0001
1000
0000
0000
0010
0000
0000
0100
0010
0100
0010
0100
0010
,
0100
1000
0011
0100
1020
1000
1000
0000
,
1031
0100
0110
0001
1010
0001
0110
1000
,
0011
0100
1001
0010
0110
0001
1010
0100
,
0011
1000
0110
0010
1001
0100
1010
0001
,
1100
0001
0110
1000
0011
0100
1001
0010
,
0101
0010
1001
0001
0110
0001
1010
1000
,
0110
0100
0011
1000
0110
0010
1001
0010
,
1000
0100
0000
0100
0101
0001
0000
1000
,
1001
0010
0101
1000
0011
0100
1010
0100
,
1001
0010
1100
0001
0110
1000
0101
1000
,
0110
0100
1001
0100
0011
1000
1100
0001
,
1010
0100
0011
1000
0101
1000
0110
0010
,
1001
0010
1100
0001
0110
1000
0011
1000
,
0101
0001
0110
0010
1001
0010
1100
0001
,
0110
1000
0011
0100
1001
0010
0110
0001
,
0101
0100
1010
0001
1100
0001
0110
0100
,
1001
1000
0110
1000
0101
1000
0011
1000
,
1001
0100
1010
0001
0110
0010
1001
0010
,
0101
1000
0011
0001
1100
0001
1010
0100
,
0011
1000
0101
0100
1010
0001
0101
0010
,
1001
0010
0101
0100
1001
0001
0110
0001
,
1010
0001
1100
0100
0011
1000
0110
1000
,
0101
0010
1001
0100
0110
0001
1010
0100
,
1001
0101
0000
0001
1001
1010
0000
1000
,
1010
0000
0000
0000
0000
0000
0000
0000
0000
0000
0000
0000
0000
0000
0000
0000
0000
0000
0000
0000
0000
0000
0000
0000
0100
0000
0000
0000
0000
0000
0000
0000
0000
0000
0000
0000
0000
0000
0000
0000
0000
0000
0000
0000
0000
0000
0000
0000
0101
0000
0000
0000
0000
0000
0000
0000
0000
0000
0000
0000
0000
0000
0000
0000
0000
0000
0000
0000
0000
0000
0000
0000
0010
0000
0000
0000
0000
0000
0000
0000
0000
0000
0000
0000
0000
0000
0000
0000
0000
0000
0000
0000
0000
0000
0000
0000
1100
0000
0000
0000
0000
0000
0000
0000
0000
0000
0000
0000
0000
0000
0000
0000
0000
0000
0000
0000
0000
0000
0000
0000
0010
0000
0000
0000
0000
0000
0000
0000
0000
0000
0000
0000
0000
0000
0000
0000
0000
0000
0000
0000
0000
0000
0000
0000
0101
0000
0000
0000
0000
0000
0000
0000
0000
0000
0000
0000
0000
0000
0000
0000
0000
0000
0000
0000
0000
0000
0000
0000
2000
0000
0000
0000
0000
0000
0000
0000
0000
0000
0000
0000
0000
0000
0000
0000
0000
3000
0000
0000
0000
0000
0000
0000
,
0000
0000
0000
0000
;
