#TITLE:5 Years of True Dedication;
#SUBTITLE:;
#ARTIST:Gabba Front Berlin;
#TITLETRANSLIT:;
#SUBTITLETRANSLIT:;
#ARTISTTRANSLIT:;
#CREDIT:Rynker;
#BANNER:../fallback-bn.png;
#BACKGROUND:../fallback-bg.png;
#LYRICSPATH:;
#CDTITLE:;
#MUSIC:(10) [Gabba Front Berlin] 5 Years Of True Dedication.ogg;
#OFFSET:-0.188;
#SAMPLESTART:22.340;
#SAMPLELENGTH:13.400;
#SELECTABLE:YES;
#BPMS:0.000=220.000,169.000=110.000,173.000=220.000,341.000=110.000,373.000=220.000,437.000=110.000,441.000=220.000;
#STOPS:505.000=12.068
;
#BGCHANGES:;
// cache tags:
#FIRSTBEAT:33.000;
#LASTBEAT:505.750;
#SONGFILENAME:Songs/SSSC PACK/[Rynker] - 5 Years Of True Dedication/5years oftrue dedication.sm;
#HASMUSIC:1;
#HASBANNER:1;
#MUSICLENGTH:105.000;
// end cache tags

//---------------dance-single - Rynker----------------
#NOTES:
     dance-single:
     Rynker:
     Challenge:
     16:
     1.000,1.000,0.648,0.133,1.000,1337.000,68.000,14.000,11.000,0.000:

0000
0000
0000
0000
,
0000
0000
0000
0000
,
0000
0000
0000
0000
,
0000
0000
0000
0000
,
0000
0000
0000
0000
,
0000
0000
0000
0000
,
0000
0000
0000
0000
,
0000
0000
0000
0000
,
0000
0000
1000
0100
1000
0100
1000
0100
,
1000
0000
0100
0010
0100
0000
0010
0000
0001
0000
0010
0000
0001
0000
1000
0000
,
0001
0000
1000
0001
0100
0000
0010
0000
0100
0000
0010
0000
0100
0000
0010
0000
,
1000
0000
0010
1000
0010
0000
0100
0000
0001
0000
0100
0000
0001
0000
0000
0000
,
0000
0000
1001
0001
0010
0100
0110
0010
,
0100
1000
1000
0001
0100
0010
1010
1000
,
0001
0000
0010
0001
1000
0000
0010
0000
0100
0000
0000
0000
1010
0000
1000
0000
,
0001
0000
0010
0001
1000
0000
0010
0000
0100
0000
0010
0000
1010
0000
1000
0001
,
1000
0010
0100
0010
1000
0000
0001
0000
0100
0000
0001
0000
1000
0000
0100
0000
,
0010
0000
0100
0010
0001
0000
1000
0000
0001
0000
0100
0000
0010
0000
1000
0000
,
0010
0000
0100
0001
1000
0000
0100
0000
0010
0000
0001
0000
1000
0000
0001
0000
,
0100
0000
0010
1000
0010
0100
0010
1000
0001
0000
0010
0000
0100
0010
0001
1000
,
0001
0100
0010
0100
0010
0000
1000
0000
0100
0000
0010
0000
0001
0000
1000
0000
,
0001
0000
0100
0010
0100
0000
0010
0000
1000
0000
0010
0000
0100
0000
0001
0000
,
1000
0000
0001
0010
0001
0000
0010
0000
0100
0000
0010
0000
0001
0000
1000
0000
,
0010
0000
0100
0010
0100
0000
0001
0000
0010
0000
0100
0000
0010
0001
1000
0001
,
0100
0010
0100
0010
1000
0000
0100
0000
0010
0000
0001
0000
1000
0000
0100
0000
,
0010
0000
0001
0010
0100
0000
1000
0000
0001
0000
0100
0000
0010
0000
1000
0000
,
0010
0000
0100
0001
1000
0000
0001
0000
0010
0000
0100
0000
1000
0000
0001
0000
,
0100
0000
0010
1000
0200
0000
0000
0000
0000
0000
0000
0000
0010
0000
0000
0000
,
0310
0012
0003
0000
,
0000
0000
0000
0000
,
0000
0000
0000
0000
,
0000
0000
0000
0000
,
0000
0000
0000
0000
,
0000
0000
0000
0000
,
0000
0000
0000
0000
1000
0010
0100
0010
1000
0010
1000
0001
1000
0001
0010
0001
,
0010
0100
0010
0100
0010
0001
1000
0001
1000
0010
0100
0010
1000
0001
0010
0001
,
1000
0001
0100
0010
0100
0010
1000
0001
1000
0001
0010
0001
0010
0100
0010
0001
,
1000
0001
0100
0010
1000
0010
0100
0010
1000
0100
0010
0001
0100
0010
1000
0100
,
1000
0010
0100
0001
0010
0100
1000
0100
1000
0100
0010
0100
0010
0001
0010
0001
,
0010
0100
0010
0100
1000
0100
1000
0001
1000
0001
0100
0001
0100
0010
0100
0010
,
1000
0010
1000
0001
1000
0001
0010
0001
0010
0100
0010
0100
0010
0001
1000
0001
,
1000
0001
0100
0001
0100
0010
0100
0010
1000
0001
0010
0001
0100
0010
1000
0100
,
0010
0001
1000
0001
1MM0
0000
1001
0000
0001
0010
0100
0010
0001
0000
1001
0000
,
1000
0010
0200
0000
M301
0000
0100
0000
0010
0000
1000
0000
0100
0000
0010
0000
,
0001
0000
1000
0001
0010
0000
0100
0000
0010
0000
0001
0000
1001
0000
1000
0000
,
0010
0000
0100
0010
1000
0000
0100
0000
0010
0000
0001
0000
0011
0000
0010
0000
,
0100
0000
1000
0001
0100
0000
0010
0000
0100
0000
0010
0000
1000
0000
0001
0010
,
0100
0010
0001
1000
0001
0000
0100
0000
0010
0000
0100
0000
0110
0000
0010
0000
,
1000
0000
0001
0010
0100
0000
0010
0000
0001
0000
1000
0000
1010
0000
0010
0000
,
0100
0000
0001
0010
0100
0000
0010
0000
0001
0000
1000
0000
1010
0000
0010
0000
,
0100
0000
0001
1000
0100
0000
0010
0000
0001
0000
1000
0000
1001
0000
0001
0000
,
0100
0010
2020
0000
0000
0000
0000
0000
,
0000
0000
0000
3030
,
0000
0000
0000
0000
0001
0010
0001
0010
0100
0010
0100
0010
0001
1000
0001
1000
,
0001
0100
0010
0100
0010
1000
0010
1000
0010
1000
0001
1000
0001
1000
0001
0010
,
0001
0010
0100
1000
0001
0010
0001
1000
0001
1000
0001
0100
0001
0100
0010
1000
,
0001
1000
0001
0010
0100
0010
0001
1000
0001
0100
0001
1000
0100
0010
0001
1000
,
0001
1000
0010
1000
0001
0010
0001
0010
0100
0010
0001
1000
0001
0100
0010
0100
,
0010
1000
0010
0100
0010
1000
0001
1000
0001
0010
0100
0010
0001
1000
0001
0100
,
0010
0100
0010
1000
0010
1000
0001
1000
0001
0010
0100
0010
0001
1000
0001
0100
,
0010
0100
0010
1000
0001
1000
0001
0010
0100
0010
0001
1000
0001
0100
0010
1000
,
0001
1000
0001
0010
0100
0010
0001
1000
0100
0010
0001
1000
0100
0010
0001
1000
,
0001
0100
0001
0100
0010
0100
0010
1000
0001
1000
0001
0010
0100
0010
0001
1000
,
0001
0100
0010
0100
0010
1000
0010
1000
0001
1000
0001
0010
0100
0010
0001
1000
,
0001
0100
0010
0100
0010
1000
0001
1000
0001
0010
0100
0010
0001
1000
0001
0010
,
0001
1000
0100
1000
0001
1000
0100
0010
0001
0010
0100
1000
0001
1000
0001
0100
,
0010
0100
0010
1000
0010
1000
0010
0100
0010
1000
0001
1000
0001
0100
0010
0100
,
0010
1000
0010
1000
0001
1000
0001
0010
0100
0010
0001
1000
0001
1000
0010
0100
,
0010
1000
0001
1000
0010
0100
0010
1000
0001
1000
0001
0010
0100
0010
0001
1000
,
0001
0010
0100
1000
0001
0000
0000
0000
1001
0000
0000
0000
1001
0000
0000
0000
,
1001
0000
1001
0000
1001
1000
1010
0010
,
0110
0100
0102
0003
0101
0000
0101
0000
,
0101
0000
0101
0100
0010
1000
0001
0100
,
0100
0000
0010
0000
1000
0010
1000
0010
1000
0000
0000
0000
0001
0000
0000
0000
,
0010
0001
0010
0001
0010
0000
0000
0000
0011
0000
0001
0000
1001
0000
1000
0000
,
1010
0000
0010
0000
0120
0000
0000
0030
0110
0000
0000
0000
0110
0000
0100
0000
,
0010
0000
0010
0000
0100
0000
0000
0000
0020
0000
0000
0030
1010
0000
0000
0000
,
0100
0001
1010
0000
1010
0000
1010
0000
,
1010
0000
1010
0000
1010
1000
1001
0001
,
0011
0000
0010
0000
0210
0000
0000
0300
0110
0000
0000
0000
0110
0000
0000
0000
,
0110
0000
0110
0100
1000
0001
0100
0000
,
0110
0000
0000
0000
1000
0001
1000
0001
1000
0000
0000
0000
1001
0000
0000
0000
,
0001
0010
0001
0010
0100
0000
0000
0000
1100
0000
1000
0000
0101
0000
0010
0000
,
1010
1000
0021
0000
0001
0030
0001
0100
,
0001
0100
0001
0000
0100
0000
1010
0000
,
1100
0000
0000
0000
1MM1
0000
0001
0000
0010
0100
1000
0100
0010
0000
0001
0000
,
1001
0001
0100
0000
0110
0000
1010
0000
1000
0100
0010
0100
1000
0000
0011
0000
,
0101
0000
0010
0000
1010
0000
1000
0000
0001
0010
0100
0010
0001
0000
1000
0000
,
1001
0001
0100
0000
0120
0000
0130
0000
0010
1000
0010
0100
0001
0000
0100
0000
,
0100
0100
0120
1030
1000
1000
1000
1000
,
1000
0000
1000
0001
0010
0000
0010
0000
0010
0000
0001
0000
0001
0000
0001
0000
,
0100
0010
2010
3010
0010
0010
0010
0010
,
0010
0000
0010
0100
0002
0000
0003
0000
0000
0000
0000
0000
0000
0000
0000
0000
,
0000
0000
0000
0000
0001
1000
0001
1000
0001
1000
0001
0100
0010
0100
0010
1000
,
0010
1000
0001
1000
0001
0010
0001
0010
0001
1000
0001
0100
0010
1000
0010
1000
,
0001
1000
0001
0010
0001
0010
0001
1000
0001
0100
0010
0100
0010
0100
0001
1000
,
0010
0100
0010
1000
0001
1000
0001
0010
0001
0010
0001
1000
0100
1000
0100
1000
,
0100
0010
0001
1000
0010
1000
0010
1000
0001
1000
0001
0010
0001
0010
0001
1000
,
0001
0100
0010
0100
0010
1000
0001
1000
0001
0010
0100
0010
0001
0010
0100
1000
,
0100
0010
0001
1000
0001
0100
0010
0100
0010
1000
0010
0100
0001
0100
0010
1000
,
0001
1000
0001
0010
0100
0010
0100
0010
0001
1000
0001
0100
0010
0100
0010
0100
,
0001
0100
0010
0100
0010
1000
0010
1000
0001
1000
0001
0010
0100
0010
0001
1000
,
0001
0100
0010
0100
0010
1000
0010
1000
0001
1000
0001
0010
0100
0010
0100
0010
,
0001
1000
0001
0100
0001
0100
0010
0100
0010
1000
0010
1000
0001
1000
0001
1000
,
0001
0010
0100
0010
0100
0010
0001
1000
0001
1000
0001
0010
0100
0010
0100
0010
,
0001
1000
0001
1000
0001
0100
0001
0100
0010
0100
0010
1000
0010
1000
0010
1000
,
0010
0100
0010
0100
0010
0100
0001
1000
0001
1000
0001
1000
0100
1000
0100
0010
,
0100
0010
0100
0010
0001
0010
0100
0010
0100
0010
0100
1000
0100
0010
0100
1000
,
0001
1000
0001
0100
0010
0100
0010
1000
0001
1000
0001
0010
0100
0010
0001
1000
,
0001
0100
0010
1000
0M1M
0000
1010
0000
1000
0000
0001
0000
0010
0000
1001
0000
,
0001
0000
0100
0000
0100
0010
1000
0010
1000
0001
1000
0001
0010
0100
0010
0001
,
1000
0001
0100
0010
1000
0010
0100
0010
1000
0010
1000
0001
1000
0001
0010
0100
,
0010
0001
0010
0100
1000
0100
0010
0100
0010
0001
1000
0001
1000
0001
0100
0010
,
0100
0010
1000
0010
1000
0001
1000
0001
0010
0100
0010
0100
0010
0100
1000
0100
,
1000
0001
1000
0001
0100
0001
0100
0010
0100
0010
1000
0001
1000
0001
0010
0001
,
0010
0100
1000
0100
0010
0001
1000
0100
0010
0100
1000
0001
1000
0001
0100
0010
,
0100
0010
1000
0010
1000
0001
1000
0001
0010
0100
0010
0001
1000
0001
0100
0010
,
0100
0010
1000
0001
1000
0001
0010
0100
0010
0100
0010
0001
1000
0001
0100
0010
,
0100
0010
1000
0001
1000
0010
0100
0010
1000
0001
1000
0001
0010
0100
0010
0001
,
0100
0010
1000
0010
1000
0100
0010
0001
0010
0001
1000
0010
0100
0001
0100
0001
,
0010
0100
0010
0001
1000
0010
0100
0010
1000
0001
0010
0100
0010
0001
0100
0010
,
1000
0010
0100
0001
0010
0100
0010
0100
0010
0001
0100
0010
1000
0010
0100
0001
,
1000
0100
0010
0001
1000
0010
0100
0001
0010
0100
0010
0001
1000
0001
0100
0001
,
0100
0010
1000
0010
1000
0010
0100
0001
0010
0100
0010
0001
1000
0100
0010
0001
,
1000
0010
0100
0001
0010
0100
0010
0001
0100
0010
1000
0001
0100
0010
1000
0010
,
1000
0010
0100
0001
0010
0100
1000
0010
0100
0001
0010
0100
0010
0001
0100
0010
,
1000
0100
0010
0001
0010
0000
0000
MMMM
0000
0000
0000
0000
0000
0000
0000
0000
;
