#TITLE:100 Sec. Kitchen Battle!!;
#SUBTITLE:;
#ARTIST:Pop'n Music 8;
#TITLETRANSLIT:;
#SUBTITLETRANSLIT:;
#ARTISTTRANSLIT:;
#CREDIT:HappyFoppy;
#BANNER:127-100sec._kitchen_battle!!-ban.png;
#BACKGROUND:127-100sec._kitchen_battle!!-bg.png;
#LYRICSPATH:;
#CDTITLE:HF.png;
#MUSIC:127-100sec._kitchen_battle!!.mp3;
#OFFSET:-1.120;
#SAMPLESTART:15.905;
#SAMPLELENGTH:12.000;
#SELECTABLE:YES;
#BPMS:0.000=178.500,272.813=175.000,272.875=175.000,272.938=175.000,273.125=175.000,273.313=175.000;
#STOPS:;
#BGCHANGES:;
// cache tags:
#FIRSTBEAT:0.000;
#LASTBEAT:273.000;
#SONGFILENAME:Songs/toune/Kitchen Battle!/127-100sec._kitchen_battle!!.sm;
#HASMUSIC:1;
#HASBANNER:1;
#MUSICLENGTH:104.224;
// end cache tags

//---------------dance-single - ----------------
#NOTES:
     dance-single:
     :
     Medium:
     6:
     0.439,0.491,0.221,0.182,0.739,275.000,23.000,19.000,0.000,4.000:
2000
0000
3002
0000
,
2000
0000
0000
0000
,
3223
0330
0220
0330
,
1000
0000
0000
0001
0010
0001
0000
1000
,
0000
1000
0000
1000
0100
0000
0100
0000
,
0001
0000
0000
1000
0010
1000
0000
0001
,
0000
0001
0000
0001
0100
0000
0100
0000
,
1000
0000
0000
0001
0010
0001
0000
1000
,
0000
1000
0000
1000
0100
0000
0100
0000
,
0001
0000
0000
1000
0010
1000
0000
0000
,
0002
0000
2003
3000
,
0000
0000
0000
0000
0000
0000
0000
0000
0000
0000
0011
0000
0000
0000
0000
0000
0000
0000
0000
0000
0000
0000
0000
0000
0000
0000
0000
0000
0000
0000
0000
0000
0000
0000
0000
0000
0000
0000
0000
0000
0000
0000
0000
0000
0000
0000
0000
0000
0000
0000
0000
0000
0000
0000
0000
0000
0000
0000
0000
0000
0000
0000
0000
0000
0000
0000
0000
0000
0000
0000
0000
0000
0000
0000
0000
0000
0000
0000
0000
0000
0000
0000
0001
0000
0000
0000
0000
0000
0000
0000
0000
0000
0000
0000
0000
0000
0000
0000
0000
0000
0000
0000
0000
0000
0000
0000
0010
0000
0000
0000
0000
0000
0000
0000
0000
0000
0000
0000
0000
0000
0000
0000
0000
0000
0000
0000
0000
0000
0000
0000
0001
0000
0000
0000
0000
0000
0000
0000
0000
0000
0000
0000
0000
0000
0000
0000
0000
0000
0000
0000
0000
0000
0000
0000
0000
0000
0000
0000
0000
0000
0000
0000
0000
0000
0000
0000
0000
0000
0000
0000
0000
0000
0000
0000
0000
0000
0000
0000
0100
0000
0000
0000
0000
0000
0000
0000
0000
0000
0000
0000
0000
0000
,
0000
0000
0000
0000
0000
0000
0000
0000
0000
0000
0000
0000
0000
0000
0000
0000
0000
0000
0000
0000
0000
0000
0000
0000
0000
0000
0000
0000
0000
0000
0000
0000
0000
0000
1000
0000
0000
0000
0000
0000
0000
0000
0000
0000
0000
0000
0000
0000
0000
0000
0000
0000
0000
0000
0000
0000
0000
0000
0000
0000
0000
0000
0000
0000
0000
0000
0000
0000
0000
0000
0000
0000
0000
0000
0000
0000
0000
0000
0000
0000
0000
0000
0100
0000
0000
0000
0000
0000
0000
0000
0000
0000
0000
0000
0000
0000
0000
0000
0000
0000
0000
0000
0000
0000
0000
0000
1000
0000
0000
0000
0000
0000
0000
0000
0000
0000
0000
0000
0000
0000
0000
0000
0000
0000
0000
0000
0000
0000
0000
0000
0100
0000
0000
0000
0000
0000
0000
0000
0000
0000
0000
0000
0000
0000
0000
0000
0000
0000
0000
0000
0000
0000
0000
0000
1000
0000
0000
0000
0000
0000
0000
0000
0000
0000
0000
0000
0000
0000
0000
0000
0000
0000
0000
0000
0000
0000
0000
0000
0000
0000
0000
0000
0000
0000
0000
0000
0000
0000
0000
0000
0000
0000
,
0000
0000
0000
0000
0000
0000
0000
0000
0000
0000
0011
0000
0000
0000
0000
0000
0000
0000
0000
0000
0000
0000
0000
0000
0000
0000
0000
0000
0000
0000
0000
0000
0000
0000
0000
0000
0000
0000
0000
0000
0000
0000
0000
0000
0000
0000
0000
0000
0000
0000
0000
0000
0000
0000
0000
0000
0000
0000
0000
0000
0000
0000
0000
0000
0000
0000
0000
0000
0000
0000
0000
0000
0000
0000
0000
0000
0000
0000
0000
0000
0000
0000
0001
0000
0000
0000
0000
0000
0000
0000
0000
0000
0000
0000
0000
0000
0000
0000
0000
0000
0000
0000
0000
0000
0000
0000
0010
0000
0000
0000
0000
0000
0000
0000
0000
0000
0000
0000
0000
0000
0000
0000
0000
0000
0000
0000
0000
0000
0000
0000
0001
0000
0000
0000
0000
0000
0000
0000
0000
0000
0000
0000
0000
0000
0000
0000
0000
0000
0000
0000
0000
0000
0000
0000
0000
0000
0000
0000
0000
0000
0000
0000
0000
0000
0000
0000
0000
0000
0000
0000
0000
0000
0000
0000
0000
0000
0000
0000
0010
0000
0000
0000
0000
0000
0000
0000
0000
0000
0000
0000
0000
0000
,
0000
0000
0000
0000
0000
0000
0000
0000
0000
0000
0000
0000
0000
0000
0000
0000
0000
0000
0000
0000
0000
0000
0000
0000
0000
0000
0000
0000
0000
0000
0000
0000
0000
0000
0020
0000
0000
0000
0000
0000
0000
0000
0000
0000
0000
0000
0000
0000
0000
0000
0000
0000
0000
0000
0000
0000
0000
0000
0000
0000
0000
0000
0000
0000
0000
0000
0000
0000
0000
0000
0000
0000
0000
0000
0000
0000
0000
0000
0000
0000
0000
0000
0230
0000
0000
0000
0000
0000
0000
0000
0000
0000
0000
0000
0000
0000
0000
0000
0000
0000
0000
0000
0000
0000
0000
0000
0000
0000
0000
0000
0000
0000
0000
0000
0000
0000
0000
0000
0000
0000
0000
0000
0000
0000
0000
0000
0000
0000
0000
0000
2300
0000
0000
0000
0000
0000
0000
0000
0000
0000
0000
0000
0000
0000
0000
0000
0000
0000
0000
0000
0000
0000
0000
0000
0000
0000
0000
0000
0000
0000
0000
0000
0000
0000
0000
0000
0000
0000
0000
0000
0000
0000
0000
0000
0000
0000
0000
0000
3000
0000
0000
0000
0000
0000
0000
0000
0000
0000
0000
0000
0000
0000
,
0000
0000
0000
0000
0000
0000
0000
0000
0000
0000
1100
0000
0000
0000
0000
0000
0000
0000
0000
0000
0000
0000
0000
0000
0000
0000
0000
0000
0000
0000
0000
0000
0000
0000
0000
0000
0000
0000
0000
0000
0000
0000
0000
0000
0000
0000
0000
0000
0000
0000
0000
0000
0000
0000
0000
0000
0000
0000
0000
0000
0000
0000
0000
0000
0000
0000
0000
0000
0000
0000
0000
0000
0000
0000
0000
0000
0000
0000
0000
0000
0000
0000
1000
0000
0000
0000
0000
0000
0000
0000
0000
0000
0000
0000
0000
0000
0000
0000
0000
0000
0000
0000
0000
0000
0000
0000
0100
0000
0000
0000
0000
0000
0000
0000
0000
0000
0000
0000
0000
0000
0000
0000
0000
0000
0000
0000
0000
0000
0000
0000
1000
0000
0000
0000
0000
0000
0000
0000
0000
0000
0000
0000
0000
0000
0000
0000
0000
0000
0000
0000
0000
0000
0000
0000
0000
0000
0000
0000
0000
0000
0000
0000
0000
0000
0000
0000
0000
0000
0000
0000
0000
0000
0000
0000
0000
0000
0000
0000
0001
0000
0000
0000
0000
0000
0000
0000
0000
0000
0000
0000
0000
0000
,
0000
0000
0000
0000
0000
0000
0000
0000
0000
0000
0000
0000
0000
0000
0000
0000
0000
0000
0000
0000
0000
0000
0000
0000
0000
0000
0000
0000
0000
0000
0000
0000
0000
0000
0010
0000
0000
0000
0000
0000
0000
0000
0000
0000
0000
0000
0000
0000
0000
0000
0000
0000
0000
0000
0000
0000
0000
0000
0000
0000
0000
0000
0000
0000
0000
0000
0000
0000
0000
0000
0000
0000
0000
0000
0000
0000
0000
0000
0000
0000
0000
0000
0001
0000
0000
0000
0000
0000
0000
0000
0000
0000
0000
0000
0000
0000
0000
0000
0000
0000
0000
0000
0000
0000
0000
0000
0010
0000
0000
0000
0000
0000
0000
0000
0000
0000
0000
0000
0000
0000
0000
0000
0000
0000
0000
0000
0000
0000
0000
0000
0001
0000
0000
0000
0000
0000
0000
0000
0000
0000
0000
0000
0000
0000
0000
0000
0000
0000
0000
0000
0000
0000
0000
0000
0010
0000
0000
0000
0000
0000
0000
0000
0000
0000
0000
0000
0000
0000
0000
0000
0000
0000
0000
0000
0000
0000
0000
0000
0000
0000
0000
0000
0000
0000
0000
0000
0000
0000
0000
0000
0000
0000
,
0000
0000
0000
0000
0000
0000
0000
0000
0000
0000
1100
0000
0000
0000
0000
0000
0000
0000
0000
0000
0000
0000
0000
0000
0000
0000
0000
0000
0000
0000
0000
0000
0000
0000
0000
0000
0000
0000
0000
0000
0000
0000
0000
0000
0000
0000
0000
0000
0000
0000
0000
0000
0000
0000
0000
0000
0000
0000
0000
0000
0000
0000
0000
0000
0000
0000
0000
0000
0000
0000
0000
0000
0000
0000
0000
0000
0000
0000
0000
0000
0000
0000
1000
0000
0000
0000
0000
0000
0000
0000
0000
0000
0000
0000
0000
0000
0000
0000
0000
0000
0000
0000
0000
0000
0000
0000
0100
0000
0000
0000
0000
0000
0000
0000
0000
0000
0000
0000
0000
0000
0000
0000
0000
0000
0000
0000
0000
0000
0000
0000
1000
0000
0000
0000
0000
0000
0000
0000
0000
0000
0000
0000
0000
0000
0000
0000
0000
0000
0000
0000
0000
0000
0000
0000
0000
0000
0000
0000
0000
0000
0000
0000
0000
0000
0000
0000
0000
0000
0000
0000
0000
0000
0000
0000
0000
0000
0000
0000
0100
0000
0000
0000
0000
0000
0000
0000
0000
0000
0000
0000
0000
0000
,
0000
0000
0000
0000
0000
0000
0000
0000
0000
0000
0000
0000
0000
0000
0000
0000
0000
0000
0000
0000
0000
0000
0000
0000
0000
0000
0000
0000
0000
0000
0000
0000
0000
0000
0200
0000
0000
0000
0000
0000
0000
0000
0000
0000
0000
0000
0000
0000
0000
0000
0000
0000
0000
0000
0000
0000
0000
0000
0000
0000
0000
0000
0000
0000
0000
0000
0000
0000
0000
0000
0000
0000
0000
0000
0000
0000
0000
0000
0000
0000
0000
0000
0320
0000
0000
0000
0000
0000
0000
0000
0000
0000
0000
0000
0000
0000
0000
0000
0000
0000
0000
0000
0000
0000
0000
0000
0000
0000
0000
0000
0000
0000
0000
0000
0000
0000
0000
0000
0000
0000
0000
0000
0000
0000
0000
0000
0000
0000
0000
0000
0030
0000
0002
0000
0000
0000
0000
0000
0000
0000
0000
0000
0000
0000
0000
0000
0000
0000
0000
0000
0000
0000
0000
0000
0000
0000
0000
0000
0000
0000
0000
0000
0000
0000
0000
0000
0000
0000
0000
0000
0000
0000
0000
0000
0000
0000
0000
0000
0000
0000
0000
0000
0000
0000
0000
0000
0000
0000
0000
0000
0003
0000
,
0010
0000
0000
0000
0000
0000
0000
0010
0000
0000
0000
0000
0000
0000
0000
0010
0000
0000
0000
0000
0000
0000
0000
0000
,
0000
0000
0000
0000
0000
0000
0000
0010
0000
0000
0000
0000
0000
0000
0000
0010
0000
0000
0000
0000
0000
0000
0000
0000
,
1000
0000
0000
0000
0000
0000
0000
0100
0000
0000
0000
0000
0000
0000
0000
0100
0000
0000
0000
0000
0000
0000
0000
0000
,
0000
0000
0000
0000
0000
0100
0000
0000
0000
0000
0000
0000
0000
0000
0000
0100
0000
0000
0000
0000
0000
0000
0000
0000
,
0001
0000
0000
0000
0000
0000
0000
0010
0000
0000
0000
0000
0000
0000
0000
0010
0000
0000
0000
0000
0000
0000
0000
0000
,
0000
0000
0000
0000
0000
0000
0000
0010
0000
0000
0000
0000
0000
0000
0000
0010
0000
0000
0000
0000
0000
0000
0000
0000
,
1000
0000
0000
0000
0000
0000
0000
0100
0000
0000
0000
0000
0000
0000
0000
0100
0000
0000
0000
0000
0000
0000
0000
0000
,
0000
0000
0000
0000
0000
0110
0000
0000
0000
0110
0000
0000
0000
0000
0000
1000
,
0000
0101
0000
0000
0000
0000
0000
0001
0000
1010
0000
0000
0000
0000
0000
0000
,
0000
1000
0000
0000
0000
0100
0000
0000
0000
0010
0000
0000
0000
0001
0000
0000
,
0000
0001
0000
0000
0000
1000
0000
1000
0000
1000
0000
0000
0000
0001
0000
0000
,
0000
0001
0000
0000
0000
0000
0000
0000
0000
0000
0000
0000
0000
0000
0000
0000
,
0000
1000
0000
0000
0000
0000
0000
0000
0000
0000
0000
0000
0000
0000
0000
1000
,
0000
1000
0000
0000
0000
0001
0000
0000
0000
1000
0000
0000
0000
0001
0000
0000
,
0000
1000
0000
0000
0000
0000
0000
0000
0000
0000
0000
0000
1000
0000
1000
0000
,
0000
1000
0000
1000
0000
1000
0000
1000
,
0000
2000
0000
0000
0000
0000
0000
0000
,
0000
3002
0000
0000
0000
0000
0000
0000
,
0000
0003
0000
1000
1000
1000
0000
0000
,
0000
0010
0000
0100
0000
0000
0000
0000
,
0000
0100
0000
0010
0000
0100
0000
0010
,
0000
0100
0010
0100
0000
0000
0000
0000
,
0000
1000
0000
0001
0000
1000
0000
0001
,
0000
0000
0000
1000
0000
0000
0000
0100
0000
0000
0000
0001
0000
0000
0000
1000
0000
0000
0000
0100
0000
0000
0000
0001
,
0000
1000
0100
0010
0100
1000
0000
0001
,
0000
0100
0010
0001
0010
0100
0000
0000
,
0000
1000
1000
0100
0100
0010
0010
0001
,
0001
0001
0000
0010
0000
0100
0000
1000
,
0000
1000
0100
0010
0100
1000
0000
0001
,
0000
0100
0010
0001
0010
0100
0000
0000
,
0000
1000
0100
0100
0010
0010
0001
0001
,
0001
0001
0000
0100
0000
1101
0000
0000
,
0000
0000
0000
1000
0000
0100
0000
0010
0000
0100
0000
1000
0000
0010
0000
0001
,
0000
0010
0000
0100
0000
1000
0000
0100
0000
0010
0000
0001
0000
0000
0000
0000
,
0000
0000
0000
0001
0000
0010
0000
0010
0000
0100
0000
0100
0000
1000
0000
1000
,
0000
1000
0000
1100
0000
0000
0000
1100
0000
0000
0000
0011
0000
0000
0000
0011
,
0000
0000
0000
1000
0000
0100
0000
0010
0000
0100
0000
1000
0000
0000
0000
0001
,
0000
0000
0000
0100
0000
0010
0000
0001
0000
0010
0000
0100
0000
0000
0000
0000
,
0000
0000
0000
1000
0000
1000
0000
0100
0000
0100
0000
0010
0000
0010
0000
0001
,
0000
0000
0000
0001
0000
0000
0000
0000
0000
0001
0000
0000
0000
0000
0000
0000
0000
0000
0220
0000
0000
0000
0000
0000
0000
0000
0000
0000
0000
0000
0000
0330
0000
0110
0000
0000
0000
0000
0000
1000
0000
0000
0000
0000
0000
0100
0000
0000
,
0000
0010
0000
0001
0000
0000
0000
0000
0000
0001
0000
0001
0000
0001
0000
0000
,
0000
0001
0000
0001
0000
0001
0000
0000
0000
1000
0000
0000
0000
1000
0000
1000
,
0000
1000
0000
0100
0000
0000
0000
0000
0000
0000
0000
0000
0000
0000
0000
0000
,
0000
0000
0000
1000
0000
0000
0000
0100
0000
0000
0000
0010
0000
0000
0000
0001
,
0000
0000
0000
0001
0000
0000
0000
0000
0000
0001
0000
0001
0000
0001
0000
0000
,
0000
0001
0000
0001
0000
0001
0000
0000
0000
1000
0000
0000
0000
1000
0000
1000
,
0000
1000
0000
0100
0000
0000
0000
0000
0000
0000
0000
0110
0000
0000
0000
1001
,
0000
0000
0000
1101
0000
0000
0000
0000
0000
0000
0000
0000
0000
0000
0000
0000
,
0000
0000
0000
0100
0000
0000
0000
0000
0000
0000
0000
0110
0000
0000
0000
1001
,
0000
0000
0000
1101
0000
0000
0000
0000
0000
0000
0000
0000
0000
0000
0000
0000
;

//---------------dance-single - ----------------
#NOTES:
     dance-single:
     :
     Hard:
     8:
     0.532,0.589,0.269,0.259,0.600,329.000,28.000,27.000,0.000,10.000:
1000
0000
0100
0000
0001
0000
1000
0000
0100
0000
0001
0000
,
2202
0000
0000
0000
0000
0000
0000
0000
0000
0000
0000
0000
0000
0000
0000
0000
0000
0000
0000
0000
0000
0000
0000
0000
0000
0000
0000
0000
0000
0000
0000
0300
,
3103
0000
0100
0000
0100
0000
0010
0000
0010
0000
0010
0000
,
1000
0000
0000
0001
0100
0010
0000
0100
,
0000
0001
0000
1000
0001
0000
0010
0000
,
0001
0000
0000
1000
0010
1000
0000
0001
,
0000
1000
0000
0001
0100
0000
0010
0000
,
1000
0000
0000
0001
1000
0001
0000
0001
,
0000
0010
0000
0100
0001
0000
0010
0000
,
0001
0000
0000
1000
0100
0001
0000
0000
,
0002
0000
0000
0000
0000
0000
0000
0000
0003
0000
0100
0000
0000
0100
0000
0000
,
0011
0000
0000
0001
0010
0001
0000
0100
,
0000
1000
0000
0100
1000
0100
1000
0000
,
0011
0000
0000
0001
0010
0001
0000
0010
,
0000
2020
0000
3232
0000
2323
0000
3030
,
1001
0000
0000
0001
0100
1000
0000
0010
,
0000
0010
0000
0100
0010
0100
0010
0000
,
0101
0000
0000
1000
0001
1000
0000
0010
,
0000
0202
0000
2323
0000
3232
0000
0303
,
0010
0000
0000
0000
0000
0000
0000
0000
0000
0000
0000
0000
0000
0000
0020
0000
0000
0000
0000
0000
0000
0000
0000
0000
0000
0000
0000
0000
0000
0030
0010
0000
0000
0000
0000
0000
0000
0000
0000
0000
0000
0000
0000
0000
0000
0000
0000
0000
,
0000
0000
0000
0000
0000
0000
0000
0000
0000
0000
0000
0000
0000
0000
0020
0000
0000
0000
0000
0000
0000
0000
0000
0000
0000
0000
0000
0000
0000
0030
0010
0000
0000
0000
0000
0000
0000
0000
0000
0000
0000
0000
0000
0000
0000
0000
0000
0000
,
1000
0000
0000
0000
0000
0000
0000
0000
0000
0000
0000
0000
0000
0000
0000
0000
0000
0000
0000
0000
0000
0000
0000
0000
0000
0000
0000
0000
0000
0000
0000
0000
0000
0000
0000
0000
0000
0000
0000
0000
0000
0000
0000
0000
0000
0000
0000
0000
0000
0000
0000
0000
0000
0000
0000
0000
0200
0000
0000
0000
0000
0000
0000
0000
0000
0000
0000
0000
0000
0000
0000
0000
0000
0000
0000
0000
0000
0000
0000
0000
0000
0000
0000
0000
0000
0000
0000
0000
0000
0000
0000
0000
0000
0000
0000
0000
0000
0000
0000
0000
0000
0000
0000
0000
0000
0000
0000
0000
0000
0000
0000
0000
0000
0000
0000
0000
0000
0300
0000
0000
0100
0000
0000
0000
0000
0000
0000
0000
0000
0000
0000
0000
0000
0000
0000
0000
0000
0000
0000
0000
0000
0000
0000
0000
0000
0000
0000
0000
0000
0000
0000
0000
0000
0000
0000
0000
0000
0000
0000
0000
0000
0000
0000
0000
0000
0000
0000
0000
0000
0000
0000
0000
0000
0000
0000
0000
0000
0000
0000
0000
0000
0000
0000
0000
0000
0000
0000
0000
0000
0000
0000
0000
,
0000
0000
0000
0000
0000
0000
0000
0000
0000
0000
0000
0000
0000
0000
0200
0000
0000
0000
0000
0000
0000
0000
0000
0000
0000
0000
0000
0000
0000
0300
0100
0000
0000
0000
0000
0000
0000
0000
0000
0000
0000
0000
0000
0000
0000
0000
0000
0000
,
0001
0000
0000
0000
0000
0000
0000
0000
0000
0000
0000
0000
0000
0000
0020
0000
0000
0000
0000
0000
0000
0000
0000
0000
0000
0000
0000
0000
0000
0030
0010
0000
0000
0000
0000
0000
0000
0000
0000
0000
0000
0000
0000
0000
0000
0000
0000
0000
,
0000
0000
0000
0000
0000
0000
0000
0000
0000
0000
0000
0000
0000
0000
0020
0000
0000
0000
0000
0000
0000
0000
0000
0000
0000
0000
0000
0000
0000
0030
0010
0000
0000
0000
0000
0000
0000
0000
0000
0000
0000
0000
0000
0000
0000
0000
0000
0000
,
1000
0000
0000
0000
0000
0000
0000
0000
0000
0000
0000
0000
0000
0000
0200
0000
0000
0000
0000
0000
0000
0000
0000
0000
0000
0000
0000
0000
0000
0300
0100
0000
0000
0000
0000
0000
0000
0000
0000
0000
0000
0000
0000
0000
0000
0000
0000
0000
,
0000
0000
0000
0110
0000
0110
0000
0000
,
1000
0100
0001
0000
0001
0010
1000
0000
,
0000
1000
0001
0100
0000
0010
1000
0001
,
0000
0001
0000
1000
1000
1000
0000
0001
,
0100
0001
0000
0010
0000
0100
0000
0010
,
0000
1000
0000
0100
0000
0001
0000
0010
,
1000
1000
0000
0001
0000
1000
0000
0001
,
0000
1000
0000
0000
0000
0000
0000
0000
,
0000
1000
0001
1000
0001
1000
0001
1000
,
0000
2000
0000
0100
0000
0001
0000
0010
,
0000
3002
0000
0100
0000
1000
0000
0010
,
0000
0003
0100
1000
1000
1000
0000
0001
,
0000
0010
0000
0100
0000
0010
0100
0010
,
0000
0100
0000
0010
0000
0100
0000
0010
,
0000
0100
0010
0100
0000
0000
0000
0001
,
0000
1000
0000
0001
0000
1000
0000
0001
,
0000
0000
0000
1000
0000
0000
0000
0100
0000
0000
0000
0001
0000
0000
0000
1000
0000
0000
0000
0100
0000
0000
0000
0001
,
0000
1000
0100
1000
0100
1000
0000
0011
,
0000
0100
0010
0100
0010
0100
0000
1001
,
0000
1000
0001
0100
0010
0001
1000
0010
,
0100
0010
0000
0010
0000
0100
0000
1000
,
0000
1000
0100
0001
0010
1000
0000
1001
,
0000
0100
1000
0010
0001
0100
0000
0000
,
0000
1000
0001
0100
0010
1000
0001
0010
,
0001
0110
0000
1001
0000
1101
0000
0000
,
0000
0000
0000
1000
0000
0100
0000
1000
0000
0100
0000
1000
0000
0001
0000
0001
,
0000
0010
0000
0100
0000
0010
0000
0100
0000
0010
0000
0100
0000
0000
0000
1001
,
0000
0000
0000
1000
0000
0001
0000
0100
0000
0010
0000
0001
0000
1000
0000
0010
,
0000
0100
0000
0010
0000
0001
0000
0010
0000
0001
0000
0100
0000
0001
0000
1000
,
0000
0001
0000
1000
0000
0100
0000
0001
0000
0010
0000
1000
0000
0000
0000
1001
,
0000
0000
0000
0100
0000
1000
0000
0010
0000
0001
0000
0100
0000
0000
0000
0000
,
0000
0000
0000
1000
0000
0001
0000
0100
0000
0010
0000
1000
0000
0001
0000
0010
,
0000
0001
0000
0011
0000
0000
0000
0220
0000
0000
0000
0331
0000
1000
0000
0100
,
0000
1000
0000
0001
0000
0000
0000
0000
0000
0001
0000
0100
0000
0001
0000
0000
,
0000
0001
0000
0010
0000
0001
0000
0000
0000
0011
0000
0000
0000
1000
0000
0001
,
0000
1000
0000
0100
0000
0000
0000
0010
0000
0001
0000
0010
0000
0100
0000
1000
,
0000
0100
0000
1000
0000
0001
0000
0100
0000
1000
0000
0010
0000
0001
0000
0010
,
0000
0001
0000
0010
0000
0001
0000
0000
0000
0001
0000
1000
0000
0001
0000
0000
,
0000
1000
0000
0001
0000
1000
0000
0000
0000
0001
0000
0000
0000
0100
0000
0000
,
0000
1000
0000
0100
0000
0000
0000
0000
0000
0010
0000
0100
0000
0000
0000
1001
,
0000
0000
0000
1101
0000
0000
0000
0000
0000
1000
0000
0000
0000
0100
0000
0000
,
0000
0001
0000
0100
0000
0000
0000
0000
0000
0100
0000
0010
0000
0000
0000
1001
,
0000
0000
0000
1101
0000
0000
0000
0000
0000
0000
0000
0000
0000
0000
0000
0000
;

//---------------dance-solo - Copied from----------------
#NOTES:
     dance-solo:
     Copied from:
     Medium:
     1:
     0.437,0.523,0.221,0.182,0.053,274.000,23.000,19.000,0.000,4.000:
200000
000000
300200
000000
,
200000
000000
000000
000000
,
322300
033000
022000
033000
,
100000
000000
000000
000100
001000
000100
000000
100000
,
000000
100000
000000
100000
010000
000000
010000
000000
,
000100
000000
000000
100000
001000
100000
000000
000100
,
000000
000100
000000
000100
010000
000000
010000
000000
,
100000
000000
000000
000100
001000
000100
000000
100000
,
000000
100000
000000
100000
010000
000000
010000
000000
,
000100
000000
000000
100000
001000
100000
000000
000000
,
000200
000000
200300
300000
,
001100
000000
000000
000100
001000
000100
000000
010000
,
000000
100000
000000
010000
100000
010000
100000
000000
,
001100
000000
000000
000100
001000
000100
000000
001000
,
000000
002000
000000
023000
000000
230000
000000
300000
,
110000
000000
000000
100000
010000
100000
000000
000100
,
000000
001000
000000
000100
001000
000100
001000
000000
,
110000
000000
000000
100000
010000
100000
000000
010000
,
000000
020000
000000
032000
000000
003200
000000
000300
,
001000
000000
000000
000000
000000
000000
000000
001000
000000
000000
000000
000000
000000
000000
000000
001000
000000
000000
000000
000000
000000
000000
000000
000000
,
000000
000000
000000
000000
000000
000000
000000
001000
000000
000000
000000
000000
000000
000000
000000
001000
000000
000000
000000
000000
000000
000000
000000
000000
,
100000
000000
000000
000000
000000
000000
000000
010000
000000
000000
000000
000000
000000
000000
000000
010000
000000
000000
000000
000000
000000
000000
000000
000000
,
000000
000000
000000
000000
000000
010000
000000
000000
000000
000000
000000
000000
000000
000000
000000
010000
000000
000000
000000
000000
000000
000000
000000
000000
,
000100
000000
000000
000000
000000
000000
000000
001000
000000
000000
000000
000000
000000
000000
000000
001000
000000
000000
000000
000000
000000
000000
000000
000000
,
000000
000000
000000
000000
000000
000000
000000
001000
000000
000000
000000
000000
000000
000000
000000
001000
000000
000000
000000
000000
000000
000000
000000
000000
,
100000
000000
000000
000000
000000
000000
000000
010000
000000
000000
000000
000000
000000
000000
000000
010000
000000
000000
000000
000000
000000
000000
000000
000000
,
000000
000000
011000
000000
011000
000000
000000
100000
,
010100
000000
000000
000100
101000
000000
000000
000000
,
100000
010000
001000
000100
,
000100
000000
100000
100000
100000
000000
000100
000000
,
000100
000000
000000
000000
,
100000
000000
000000
000000
,
100000
100000
000000
000100
000000
100000
000000
000100
,
000000
100000
000000
000000
000000
000000
100000
000000
,
100000
100000
100000
100000
,
200000
000000
000000
000000
,
300200
000000
000000
000000
,
000300
000000
000000
100000
100000
100000
000000
000000
,
000000
001000
000000
010000
000000
000000
000000
000000
,
000000
010000
000000
001000
000000
010000
000000
001000
,
000000
010000
001000
010000
000000
000000
000000
000000
,
100000
000100
100000
000100
,
100000
000000
010000
000000
000100
000000
100000
000000
010000
000000
000100
000000
,
000000
100000
010000
001000
010000
100000
000000
000100
,
000000
010000
001000
000100
001000
010000
000000
000000
,
000000
100000
100000
010000
010000
001000
001000
000100
,
000100
000100
000000
001000
000000
010000
000000
100000
,
000000
100000
010000
001000
010000
100000
000000
000100
,
000000
010000
001000
000100
001000
010000
000000
000000
,
000000
100000
010000
010000
001000
001000
000100
000100
,
000100
000100
000000
010000
000000
110100
000000
000000
,
000000
100000
010000
001000
010000
100000
001000
000100
,
001000
010000
100000
010000
001000
000100
000000
000000
,
000000
000100
001000
001000
010000
010000
100000
100000
,
100000
110000
000000
110000
000000
001100
000000
001100
,
000000
100000
010000
001000
010000
100000
000000
000100
,
000000
010000
001000
000100
001000
010000
000000
000000
,
000000
100000
100000
010000
010000
001000
001000
000100
,
000100
000000
000000
000100
000000
000000
000000
000000
000000
022000
000000
000000
000000
000000
033000
011000
000000
000000
100000
000000
000000
010000
000000
000000
,
001000
000100
000000
000000
000100
000100
000100
000000
,
000100
000100
000100
000000
100000
000000
100000
100000
,
100000
010000
000000
000000
000000
000000
000000
000000
,
000000
100000
000000
010000
000000
001000
000000
000100
,
000000
000100
000000
000000
000100
000100
000100
000000
,
000100
000100
000100
000000
100000
000000
100000
100000
,
100000
010000
000000
000000
000000
011000
000000
100100
,
000000
110100
000000
000000
000000
000000
000000
000000
,
000000
010000
000000
000000
000000
011000
000000
100100
,
000000
110100
000000
000000
000000
000000
000000
000000
;

//---------------dance-single - ----------------
#NOTES:
     dance-single:
     :
     Easy:
     5:
     0.381,0.425,0.096,0.221,0.317,245.000,10.000,23.000,0.000,1.000:
1000
0000
0001
0000
,
2002
0000
0000
0000
,
3103
0000
0100
0000
,
1000
0100
0010
0001
,
0001
0010
0100
1000
,
0100
0010
1000
0100
,
0001
0010
0001
0100
,
1000
0010
0100
0010
,
0100
1000
0001
1000
,
0001
0100
1000
0100
,
0002
0000
0000
0003
,
1000
0010
0100
0010
,
1000
0001
0100
0010
,
1000
0001
0100
0010
,
1000
0100
0001
0020
,
0030
0100
0010
0001
,
0100
1000
0001
0100
,
0010
0100
1000
0100
,
0001
0010
0001
0200
,
0300
0100
0001
0010
,
0100
1000
0100
0010
,
0100
0001
1000
0100
,
0010
0100
0010
1000
,
0001
0100
0010
1000
,
0100
0010
0001
0100
,
1000
0010
0100
0010
,
0100
0000
0000
2002
0000
3003
0000
0220
,
0000
0330
0000
0001
0000
0010
0000
0100
,
0000
0010
0000
1000
0000
0100
0000
1000
,
0000
0100
0000
0001
0000
0010
0000
0001
,
0000
0010
0000
0100
0000
0010
0000
0001
,
0000
0100
0000
0010
0000
1000
0000
0100
,
0000
0010
0000
0001
0000
1000
0000
0100
,
0000
1000
0000
0010
0000
0001
0000
0100
,
0000
0001
0000
0010
0000
0100
0000
0010
,
0000
0200
0000
0000
0000
0000
0000
0000
,
0000
0302
0000
0000
0000
0000
0000
0000
,
0000
0103
0000
1000
0000
0010
0000
0100
,
0000
0001
0000
0010
0000
0100
0000
0001
,
0000
1000
0000
0100
0000
0010
0000
0001
,
0000
1000
0000
0100
0000
0010
0000
0100
,
0000
1000
0000
0100
0000
0010
0000
0001
,
0000
1000
0000
0200
0000
0320
0000
0030
,
0000
0001
0000
0001
0000
0010
0000
0010
,
0000
0100
0000
0100
0000
1001
0000
0000
,
0000
0010
0000
0100
0000
1000
0000
0100
,
0000
0010
0000
0001
0000
0010
0000
0001
,
0000
0010
0000
0100
0000
1000
0000
0100
,
0000
0010
0000
0100
0000
0110
0000
0000
,
0000
1000
0000
0100
0000
0001
0000
0010
,
0000
2002
0000
3003
0000
0220
0000
0330
,
0000
0000
0000
1001
0000
0000
0000
0100
0000
0000
0000
0010
0000
0000
0000
0100
,
0000
0000
0000
1000
0000
0000
0000
0100
0000
0000
0000
0001
0000
0000
0000
0000
,
0000
0000
0000
0010
0000
0000
0000
1000
0000
0000
0000
0100
0000
0000
0000
0010
,
0000
0000
0000
2000
0000
0000
0000
3200
0000
0000
0000
0320
0000
0000
0000
0032
,
0000
0000
0000
0103
0000
0000
0000
1000
0000
0000
0000
0010
0000
0000
0000
0100
,
0000
0000
0000
0001
0000
0000
0000
1000
0000
0000
0000
0100
0000
0000
0000
0000
,
0000
0000
0000
0001
0000
0000
0000
0010
0000
0000
0000
0100
0000
0000
0000
1000
,
0000
0000
0000
0100
0000
0000
0000
0002
0000
0000
0000
2000
0000
0000
0000
3003
,
0000
0000
0000
0100
0000
0000
0000
0010
0000
0000
0000
0100
0000
0000
0000
1000
,
0000
0000
0000
0100
0000
0000
0000
0001
0000
0000
0000
0010
0000
0000
0000
0100
,
0000
0000
0000
0001
0000
0000
0000
0010
0000
0000
0000
1000
0000
0000
0000
0010
,
0000
0000
0000
0001
0000
0000
0000
0100
0000
0000
0000
1000
0000
0000
0000
0100
,
0000
0000
0000
0010
0000
0000
0000
1000
0000
0000
0000
0010
0000
0000
0000
0100
,
0000
0000
0000
0001
0000
0000
0000
1000
0000
0000
0000
0100
0000
0000
0000
0010
,
0000
0000
0000
0001
0000
0000
0000
0100
0000
0000
0000
0010
0000
0000
0000
0100
,
0000
0000
0000
0101
0000
0000
0000
0001
0000
0000
0000
0010
0000
0000
0000
0100
,
0000
0000
0000
1000
0000
0000
0000
0100
0000
0000
0000
0010
0000
0000
0000
0100
,
0000
0000
0000
1010
0000
0000
0000
0000
0000
0000
0000
0000
0000
0000
0000
0000
;

//---------------dance-single - ----------------
#NOTES:
     dance-single:
     :
     Beginner:
     4:
     0.317,0.426,0.077,0.144,0.000,208.000,8.000,15.000,0.000,0.000:
1000
0000
1000
0000
,
2000
0000
0000
0000
,
3001
0000
0001
0000
,
0001
0001
0001
0000
,
0001
0000
0001
0001
,
0100
0000
0100
0000
,
0100
0100
0100
0000
,
0100
0000
0100
0000
,
0100
0100
0001
0000
,
0001
0000
0001
0001
,
0002
0000
0000
0003
,
1000
1000
1000
0000
,
1000
0000
1000
0100
,
0100
0000
0100
0000
,
0100
0001
0001
0000
,
0001
0000
0001
0000
,
0001
1000
1000
0000
,
1000
0000
1000
0010
,
0010
0000
0010
0000
,
0010
0000
0010
1000
,
1000
0000
1000
0000
,
1000
0001
0001
0000
,
0001
0000
0001
0010
,
0010
0000
0010
0000
,
0010
1000
1000
0000
,
1000
0000
1000
0010
,
0010
0002
0000
0000
,
0003
0001
0001
0001
,
0001
1000
1000
1000
,
1000
0001
0001
0001
,
0001
0010
0010
0010
,
0010
0100
0100
0100
,
0100
1000
1000
1000
,
1000
0010
0010
0010
,
0010
0100
0100
0100
,
0200
0000
0000
0000
,
0302
0000
0000
0000
,
0103
0100
0100
0010
,
0001
0001
0001
1000
,
0010
0010
0010
0100
,
1000
1000
1000
0001
,
0100
0100
0010
0010
,
1000
1000
0001
0001
,
0001
0000
0010
0000
,
0100
0000
1001
0000
,
0010
0000
1000
0000
,
0010
0001
0001
0001
,
0010
0000
1000
0000
,
0010
0000
0110
0000
,
1000
1000
0001
0001
,
2002
3003
0220
0330
,
1000
1000
0010
0010
,
0001
0001
0110
0000
,
0010
0010
0001
0001
,
2000
3200
0320
0032
,
0003
0100
1000
1000
,
0100
0001
0010
0010
,
0001
0001
1000
1000
,
0001
0110
0002
2000
,
3003
0100
1000
0100
,
1000
0100
0001
0100
,
0001
0001
0010
0001
,
0010
0001
0100
0001
,
0100
0010
1000
0010
,
1000
0001
1000
0001
,
1000
0010
0100
0010
,
0100
1001
0000
0000
,
0000
0010
0100
0010
,
0100
1001
0000
0000
;
