#TITLE:Disconnected Hazard;
#SUBTITLE:;
#ARTIST:DM Ashura VS Inspector K;
#TITLETRANSLIT:;
#SUBTITLETRANSLIT:;
#ARTISTTRANSLIT:;
#CREDIT:xjen0vax;
#BANNER:Hazard-bn.png;
#BACKGROUND:Hazard.png;
#LYRICSPATH:;
#CDTITLE:;
#MUSIC:Disconnected Hazard.ogg;
#OFFSET:-0.107;
#SAMPLESTART:36.626;
#SAMPLELENGTH:17.000;
#SELECTABLE:YES;
#DISPLAYBPM:*;
#BPMS:0.000=210.000,128.000=105.000,160.000=420.000,288.000=210.000,352.000=420.000,360.000=210.000,424.000=105.000,440.000=1680.000;
#STOPS:351.500=1.142
;
#BGCHANGES:;
// cache tags:
#FIRSTBEAT:0.000;
#LASTBEAT:539.500;
#SONGFILENAME:Songs/StepmaniaFreak's Favorites/Disconnected Hazard/Disconnected Hazard.sm;
#HASMUSIC:1;
#HASBANNER:1;
#MUSICLENGTH:128.522;
// end cache tags

//---------------dance-single - S. Marshall----------------
#NOTES:
     dance-single:
     S. Marshall:
     Challenge:
     14:
     0.997,1.000,0.903,0.171,0.346,759.000,116.000,22.000,595.000,10.000:
MM00
0MM0
M0M0
0M0M
,
0M0M
MM00
0MM0
0M0M
,
M0M0
0M0M
0MM0
0M0M
,
00MM
MM00
00MM
0M0M
,
1MM0
MM00
0MM0
MM01
,
M00M
0000
0000
0000
00MM
0000
0000
0000
000M
0000
1000
0000
M000
0000
0100
0010
,
0M01
1000
00M1
0100
001M
1000
01M0
1000
,
001M
0100
0010
0100
M010
0000
0000
0000
011M
0000
0000
0000
0M00
0000
0010
0000
,
100M
0100
M010
0001
0M10
0000
000M
0000
,
11M0
0000
0000
0000
M101
0000
0000
0000
110M
0000
0000
0000
00M0
0000
1000
0100
,
001M
0000
M001
0010
M100
0001
00M0
0001
,
M100
0000
0M10
0001
M100
0010
000M
0010
,
100M
0100
M010
0100
100M
0000
0M00
0000
,
101M
0000
0000
0000
M101
0000
0000
0000
0M11
0000
0000
0000
M000
0000
0001
0010
,
M100
0000
100M
0100
M010
0100
00M0
1000
,
0M10
0000
M100
0001
M100
0010
0M00
0000
,
10M1
0000
0000
0000
M001
0000
0101
0000
00M0
0000
0101
0000
M000
0000
0001
0100
,
M010
0000
100M
0010
M100
0001
01M0
0000
,
110M
0000
10M0
0100
110M
0100
M010
0001
,
01M1
0000
0100
0000
001M
0000
1000
0000
M010
0100
0001
0000
10M1
0000
0000
0000
,
1M10
0000
0000
0000
M100
0000
0101
0000
M000
0000
0011
0000
0M00
0000
0001
0010
,
M100
0000
100M
0100
11M0
0100
M110
0000
,
110M
0000
0000
0000
M010
0000
0100
0001
M010
0000
0100
0000
110M
0000
1000
0010
,
M100
0000
0001
0000
0M11
0000
0001
0010
M100
0000
0010
0000
011M
0000
0000
0000
,
1M01
0000
0000
0000
001M
0000
0110
0000
M000
0000
0101
0000
00M0
0000
0001
1000
,
0M10
0000
M100
0001
M010
0100
110M
0000
,
11M0
0000
010M
0010
M011
0001
M100
0010
,
101M
0000
1000
0000
010M
0000
0010
0000
0M01
1000
0001
0000
10M1
0000
0000
0000
,
M101
0000
0000
0000
010M
0000
0110
0000
M000
0000
0110
0000
000M
0000
0010
1000
,
010M
0000
M010
0001
M010
0100
110M
0000
,
0M11
0000
0000
0000
100M
0000
0100
0010
M001
0000
0100
0000
01M1
0000
0001
0100
,
M010
0000
1000
0000
101M
0000
1000
0100
M010
0000
0001
0000
0M11
0000
0000
0000
,
M220
0000
0000
0000
M001
0000
0330
0100
100M
0010
0100
0001
M011
0000
0000
0000
,
22M0
0000
0000
0000
001M
0000
3300
1000
001M
0000
0100
0001
M010
0100
0000
0000
,
220M
0000
0000
0000
00M1
0000
3300
1000
010M
0010
0001
0010
M110
0000
0000
0000
,
220M
0000
0000
0000
33M1
0000
0000
1100
110M
0000
1000
0100
M010
0001
0000
0000
,
20M2
0000
0000
0000
0M10
0000
3003
0001
M100
0010
1000
0100
110M
0000
0000
0000
,
02M2
0000
0000
0000
M010
0000
0303
0001
01M0
0000
0010
1000
001M
0100
0000
0000
,
M220
0000
0000
0000
100M
0000
0330
0010
M100
0001
0010
0100
11M0
0000
0000
0000
,
110M
0000
1000
0100
0010
0000
0001
0010
010M
0000
1000
0100
0010
0000
0001
0000
M100
0000
0000
0000
0010
0000
1000
0000
00M1
0000
0100
0000
0000
0000
0000
0000
,
001M
1000
0M10
1000
001M
1000
0M10
1000
,
00M1
0100
M001
0100
00M1
0100
M001
0100
,
M001
0010
0M01
0010
M001
0010
0M01
0010
,
010M
1000
01M0
1000
010M
1000
01M0
1000
,
010M
0010
M100
0010
010M
0010
M100
0010
,
0M01
1000
00M1
1000
0M01
1000
00M1
1000
,
0M10
1000
001M
1000
0M10
1000
001M
1000
,
00M1
0100
M001
0100
00M1
0100
M001
0100
,
M001
0010
M001
0100
001M
1000
01M0
1000
,
001M
0100
M001
0010
M001
0100
001M
1000
,
010M
0010
M001
0010
010M
1000
001M
0100
,
M001
0100
001M
1000
001M
0100
M001
0010
,
010M
1000
0M10
1000
010M
0010
M001
0010
,
0M01
0010
010M
1000
0M01
0010
010M
1000
,
010M
0010
M001
0100
M001
0010
010M
1000
,
001M
0100
M001
0010
M001
0100
001M
1000
,
010M
0010
M001
0010
M100
0010
M001
0100
,
001M
1000
010M
0010
M001
0010
010M
1000
,
010M
0010
010M
1000
001M
0100
M001
0010
,
M001
0100
001M
1000
01M0
1000
001M
0100
,
M001
0010
010M
1000
0M10
1000
010M
0010
,
0M01
0010
010M
0010
M001
0100
M001
0010
,
M001
0100
001M
1000
01M0
1000
0M10
1000
,
010M
0010
0M01
0010
M001
0100
001M
1000
,
001M
0100
00M1
0100
001M
1000
010M
0010
,
0M01
0010
M001
0100
001M
1000
01M0
1000
,
001M
0100
M001
0010
010M
0010
M001
0100
,
001M
1000
010M
0010
0M01
0010
010M
1000
,
01M0
1000
001M
0100
M001
0010
010M
1000
,
010M
0010
0M01
0010
M001
0100
001M
0100
,
M001
0010
010M
1000
0M10
1000
010M
0010
,
M001
0010
010M
1000
001M
0100
M001
0010
,
M11M
0000
0000
0000
010M
0000
1100
0000
00M0
0000
1100
0000
000M
0000
0100
0010
,
M001
0100
00M1
0000
M101
0000
0M11
0000
,
M101
0000
0000
0000
00M1
0000
0100
0000
001M
0000
1010
0000
0M00
0000
1000
0010
,
M100
0001
0M10
0000
011M
0000
0M00
0000
,
01M0
1000
001M
0100
M000
0001
0M00
0010
,
M000
0100
100M
0000
11M0
0000
1M10
0000
,
00M0
0000
0001
0000
M010
0000
0100
1000
001M
0000
0000
0000
011M
0000
0000
0000
,
M001
0010
0100
1000
010M
0000
0000
0000
11M0
0000
0000
0000
0M00
0000
0000
0000
,
M110
0000
0000
0000
0M10
0000
0011
0000
M000
0000
0101
0000
M000
0000
0010
1000
,
010M
0010
M001
0000
0M11
0000
M011
0000
,
011M
0000
0000
0000
01M0
0000
1000
0000
001M
0000
0100
0000
00M0
0000
0100
0001
,
M010
0100
001M
0000
M011
0000
00M0
0000
,
0M01
0010
010M
1000
00M0
1000
0M00
1000
,
000M
1000
01M0
0000
M110
0000
011M
0000
,
0M00
0000
0001
0000
M010
0000
0100
0010
M001
0000
0000
0000
01M0
0000
0000
0000
,
001M
0000
0000
0000
0000
0000
0000
0000
0000
0000
0000
0000
1000
0000
0000
0000
0000
0000
0000
0000
0000
0000
0000
0000
0100
0000
0000
0000
0000
0000
0000
0000
0000
0000
0000
0000
1000
0000
0000
0000
0000
0000
0000
0000
0000
0000
0000
0000
001M
0000
0000
0000
0000
0000
0000
0000
0000
0000
0000
0000
0000
0000
0000
0000
0000
0000
0000
0000
0000
0000
0000
0000
0000
0000
0000
0000
0000
0000
0000
0000
0000
0000
0000
0000
0000
0000
0000
0000
0000
0000
0000
0000
0000
0000
0000
0000
M22M
0000
0000
0000
0000
0000
0000
0000
0000
0000
0000
0000
0000
0000
0000
0000
0000
0000
0000
0000
0000
0000
0000
0000
0000
0000
0000
0000
0000
0000
0000
0000
0000
0000
0000
0000
0000
0000
0000
0000
0000
0000
0000
0000
0000
0000
0000
0000
M00M
0000
0000
0000
0000
0000
0000
0000
0000
0000
0000
0000
0000
0000
0000
0000
0000
0000
0000
0000
0000
0000
0000
0000
0000
0330
0000
0000
0000
0000
0000
0000
0000
0000
0000
0000
0000
0000
0000
0000
0000
0000
0000
0000
0000
0000
0000
0000
,
M11M
1MM1
M11M
1MM1
,
MM01
0010
010M
1000
0M01
0010
010M
1000
,
11MM
0000
0000
0000
M100
0000
0011
0000
0M00
0000
0011
0000
0M00
0000
0001
0010
,
M100
0000
0M10
0001
01M1
0001
M011
0000
,
110M
0000
10M0
0100
011M
0010
M001
0100
,
M110
0000
0010
0000
100M
0000
0100
0000
M010
0001
0010
0000
0M11
0000
0000
0000
,
01M1
0000
0000
0000
0M01
0000
1001
0000
M000
0000
0110
0000
000M
0000
0010
0100
,
M001
0000
00M1
0100
001M
1000
11M0
0000
,
110M
0000
0000
0000
M010
0000
0001
0010
010M
0000
1000
0000
001M
0000
0100
0001
,
M010
0000
0100
0000
100M
0000
0010
0100
00M1
0000
1000
0000
1M01
0000
0000
0000
,
110M
0000
0000
0000
M100
0000
0011
0000
0M00
0000
0011
0000
0M00
0000
0001
0010
,
M100
0000
010M
1000
0M10
1000
101M
0000
,
M101
0000
001M
1000
11M0
0100
M010
0001
,
M101
0000
0010
0000
100M
0000
0100
0000
100M
0010
0100
0000
M101
0000
0000
0000
,
110M
0000
0000
0000
M100
0000
0110
0000
000M
0000
0110
0000
M000
0000
0100
1000
,
001M
0000
M010
0100
M001
0010
011M
0000
,
11M0
0000
0000
0000
0M11
0000
0001
0010
M100
0000
1000
0000
001M
0000
0100
0001
,
M010
0000
0001
0000
010M
0000
0010
1000
010M
0000
0010
0000
0M11
0000
0000
0000
,
22M0
0000
0000
0000
00M1
0000
3300
1000
010M
1000
0010
0100
011M
0000
0000
0000
,
M202
0000
0000
0000
M010
0000
0303
0001
0100
0000
0010
1000
010M
0010
0000
0000
,
220M
0000
0000
0000
00M1
0000
3300
1000
001M
0100
0001
0010
M011
0000
0000
0000
,
01M1
0000
0001
0100
0010
0000
1000
0010
M100
0000
0001
0100
0010
0000
1000
0000
00M1
0000
0000
0000
0100
0000
0010
0000
1M00
0000
0001
0000
0010
0100
0010
0000
,
1M01
0000
0000
0000
,
0000
0000
0000
0000
,
0MM0
MM00
0M0M
MM00
,
0MM0
0000
0000
0000
,
MMMM
0M00
MM0M
0M00
,
MMMM
0000
0000
0000
,
MMMM
0M00
MM0M
0M00
,
MMMM
0000
0000
0000
,
0M00
0M00
0M00
0M00
,
MMMM
0000
0000
0000
,
0000
0000
0000
0000
,
0000
0000
0000
0000
,
0000
0000
0000
0000
,
MMMM
0MM0
MMMM
0MM0
,
0MM0
0000
0000
0000
,
MMMM
0M00
MMMM
00M0
,
MMMM
0000
0000
0000
,
0MM0
0MM0
MMMM
0MM0
,
0MM0
0000
0000
0000
,
0MM0
0MM0
0MM0
0MM0
,
MMMM
0000
0000
0000
,
MMMM
0MM0
MMMM
MM00
,
0MM0
0000
0000
0000
,
MMMM
0MM0
MMMM
0MM0
,
0MM0
0000
0000
0000
;

//---------------dance-single - S. Marshall----------------
#NOTES:
     dance-single:
     S. Marshall:
     Hard:
     12:
     0.830,1.000,0.303,0.140,0.296,690.000,39.000,18.000,214.000,4.000:





M000
0M00
00M0
0M00
,
000M
0M00
00M0
M000
,
0M00
000M
0M00
M000
,
00M0
0M00
000M
M000
,
011M
0M00
00M0
1M01
,
0000
0000
0000
0000
0000
0000
0000
0000
M000
0000
0011
0000
0000
0000
0001
0010
,
0100
1000
0010
0100
M001
0010
0001
0100
,
0010
1000
0010
1000
0010
0000
0000
0000
101M
0000
0000
0000
0000
0000
0010
0000
,
1000
0100
0010
0100
100M
0000
0000
0000
,
1100
0000
0000
0000
0011
0000
0000
0000
110M
0000
0000
0000
0000
0000
0100
1000
,
0010
0000
0100
0001
0M10
0001
0000
0001
,
0100
0000
0010
1000
010M
0010
0000
0010
,
0100
1000
0010
0100
M001
0000
0000
0000
,
0011
0000
0000
0000
1100
0000
0000
0000
0M11
0000
0000
0000
0000
0000
0001
0010
,
0100
0000
1000
0100
M010
0100
0000
1000
,
0010
0000
0100
0001
0M10
0001
0000
0000
,
0001
0000
0000
0000
0001
0000
1000
0000
00M0
0000
1000
0000
0000
0000
1000
0010
,
0100
0000
0100
0001
M010
0100
0010
0000
,
0001
0000
0010
0100
M010
0001
0100
0001
,
0010
0000
0100
0000
1000
0000
0010
0000
M100
0001
0100
0000
0010
0000
0000
0000
,
1000
0000
0000
0000
1000
0000
0100
0000
000M
0000
0100
0000
0000
0000
0100
0010
,
0001
0000
0010
0001
M010
0100
1000
0000
,
0010
0000
0000
0000
1000
0000
0010
0100
M001
0000
0010
0000
0001
0000
0100
0010
,
1000
0000
0100
0000
1000
0000
0010
0100
M001
0000
0010
0000
0100
0000
0000
0000
,
1000
0000
0000
0000
1000
0000
0100
0000
000M
0000
0100
0000
0000
0000
0100
0010
,
0001
0000
0010
0001
M100
0001
0010
0000
,
0100
0000
0010
0001
M100
0010
1000
0100
,
1000
0000
0010
0000
0100
0000
0001
0000
001M
0100
1000
0000
0010
0000
0000
0000
,
0100
0000
0000
0000
0100
0000
0001
0000
M000
0000
0001
0000
0000
0000
0001
0010
,
0100
0000
1000
0010
M100
0001
0010
0000
,
0100
0000
0000
0000
1000
0000
0010
0100
M001
0000
0010
0000
0100
0000
1000
0100
,
0010
0000
0001
0000
0010
0000
0100
1000
001M
0000
0100
0000
0001
0000
0000
0000
,
M102
0000
0000
0000
1000
0000
0000
0013
0100
1000
0100
0010
0001
0000
0000
0000
,
M021
0000
0000
0000
0100
0000
0000
0031
0010
0000
0100
1000
0010
0100
0000
0000
,
012M
0000
0000
0000
1000
0000
0000
0130
0001
0010
0100
0010
0001
0000
0000
0000
,
M201
0000
0000
0000
0010
0000
0000
0301
0010
0000
0100
1000
0100
0010
0000
0000
,
0M21
0000
0000
0000
1000
0000
0000
0130
1000
0010
1000
0100
0010
0000
0000
0000
,
021M
0000
0000
0000
1000
0000
0000
0310
0001
0000
0100
0010
1000
0010
0000
0000
,
102M
0000
0000
0000
0100
0000
0000
1030
0100
0010
0001
0010
0100
0000
0000
0000
,
M210
0000
0000
0000
1000
0000
0000
0310
0001
0000
0100
0010
0100
0001
0000
0000
,
M001
0100
0001
0000
1000
0010
1000
0000
,
0100
1000
0100
0000
0010
0001
0010
0000
,
0M01
1000
0001
0000
0100
0001
0100
0000
,
0010
1000
0010
0000
0100
0010
0100
0000
,
M001
0100
0001
0000
0010
0001
0010
0000
,
0100
0010
0100
0000
1000
0010
1000
0000
,
01M0
1000
0100
0000
0010
0100
0010
0000
,
0001
0010
0001
0000
0100
0001
0100
0000
,
0M10
1000
0100
0000
0010
0001
0100
0000
,
0010
0100
0001
0000
0010
0100
1000
0000
,
010M
0010
0001
0000
0100
0001
0010
0000
,
0001
0100
0010
0000
1000
0100
0010
0000
,
010M
1000
0010
0000
0100
0001
0010
0000
,
0001
0100
0010
0000
1000
0100
0010
0000
,
M001
0010
0100
0000
1000
0010
0100
0000
,
0010
0100
0001
0000
0010
0100
1000
0000
,
M100
0010
0001
0000
0001
0010
0100
0000
,
0100
1000
0010
0000
0010
0100
0001
0000
,
M001
0010
0100
0000
0100
0010
0001
0000
,
0001
0100
0010
0000
0010
1000
0100
0000
,
010M
1000
0010
0000
0010
0100
0001
0000
,
0001
0010
0100
0000
0100
0010
0001
0000
,
00M1
0100
0010
0000
0010
0100
0001
0000
,
0001
1000
0100
0000
0100
0010
0001
0000
,
M001
0010
0100
1000
0100
0010
0001
0000
,
1000
0100
0010
0001
0010
0100
1000
0000
,
001M
0100
0001
1000
0010
0100
0001
0000
,
0010
0100
1000
0100
0010
0001
0100
0000
,
M001
0010
0100
1000
0001
0010
0100
1000
,
0001
0100
0010
1000
0001
0100
0010
1000
,
0M01
0010
0001
0010
0100
0010
0100
0010
,
0100
1000
0100
1000
0010
1000
0010
1000
,
0M01
0000
0000
0000
0001
0000
0100
0000
M000
0000
0100
0000
0000
0000
0100
0010
,
1000
0100
0010
0000
011M
0000
0110
0000
,
0010
0000
0000
0000
0010
0000
0001
0000
M100
0000
0010
0000
0000
0000
0010
1000
,
0100
0010
0100
0000
11M0
0000
0000
0000
,
1000
0100
0010
0001
0M00
0001
0000
0001
,
0000
0001
0100
0000
M101
0000
0101
0000
,
0000
0000
0001
0000
0100
0000
0010
1000
010M
0000
0000
0000
0010
0000
0000
0000
,
0001
0010
0100
1000
0010
0000
0000
0000
1M10
0000
0000
0000
0000
0000
0000
0000
,
0010
0000
0000
0000
0010
0000
0100
0000
M000
0000
0100
0000
0000
0000
0100
0001
,
0010
0100
1000
0000
110M
0000
1100
0000
,
0100
0000
0000
0000
0010
0000
0001
0000
M100
0000
0010
0000
0000
0000
1000
0100
,
0010
0001
0100
0000
M101
0000
0000
0000
,
0001
0100
0010
1000
000M
1000
0000
1000
,
0000
1000
0100
0000
0M11
0000
0011
0000
,
0000
0000
0001
0000
0010
0000
0100
1000
001M
0000
0000
0000
0100
0000
0000
0000
,
0001
0000
0000
0000
0000
0000
0000
0000
0000
0000
0000
0000
0100
0000
0000
0000
0000
0000
0000
0000
0000
0000
0000
0000
0010
0000
0000
0000
0000
0000
0000
0000
0000
0000
0000
0000
1000
0000
0000
0000
0000
0000
0000
0000
0000
0000
0000
0000
0001
0000
0000
0000
0000
0000
0000
0000
0000
0000
0000
0000
0000
0000
0000
0000
0000
0000
0000
0000
0000
0000
0000
0000
0000
0000
0000
0000
0000
0000
0000
0000
0000
0000
0000
0000
0000
0000
0000
0000
0000
0000
0000
0000
0000
0000
0000
0000
20M2
0000
0000
0000
0000
0000
0000
0000
0000
0000
0000
0000
0000
0000
0000
0000
0000
0000
0000
0000
0000
0000
0000
0000
0000
0000
0000
0000
0000
0000
0000
0000
0000
0000
0000
0000
0000
0000
0000
0000
0000
0000
0000
0000
0000
0000
0000
0000
0000
0000
0000
0000
0000
0000
0000
0000
0000
0000
0000
0000
0000
0000
0000
0000
0000
0000
0000
0000
0000
0000
0000
0000
0000
3003
0000
0000
0000
0000
0000
0000
0000
0000
0000
0000
0000
0000
0000
0000
0000
0000
0000
0000
0000
0000
0000
0000
,
1M01
10M1
1M01
10M1
,
M010
0100
001M
0100
M010
0100
001M
0100
,
0001
0000
0000
0000
0001
0000
0100
0000
M000
0000
0100
0000
0000
0000
0100
0010
,
1000
0000
1000
0100
001M
0100
0010
0000
,
0001
0000
0010
0100
100M
0010
0100
0001
,
0100
0000
0010
0000
1000
0000
0100
0000
M010
0001
0010
0000
0100
0000
0000
0000
,
1000
0000
0000
0000
1000
0000
0010
0000
0M00
0000
0010
0000
0000
0000
0010
0100
,
0001
0000
0001
0010
M100
0010
0001
0000
,
1000
0000
0000
0000
1000
0000
0100
0010
M001
0000
1000
0000
0001
0000
0010
0100
,
1000
0000
0001
0000
1000
0000
0100
0010
M001
0000
0100
0000
0010
0000
0000
0000
,
1000
0000
0000
0000
1000
0000
0100
0000
000M
0000
0100
0000
0000
0000
0100
1000
,
0010
0000
0100
0001
M100
0010
1000
0000
,
0100
0000
0010
0001
M100
0001
0010
0100
,
0010
0000
0001
0000
0100
0000
0010
0000
100M
0100
1000
0000
0010
0000
0000
0000
,
0100
0000
0000
0000
0100
0000
0010
0000
M000
0000
0010
0000
0000
0000
0010
1000
,
0100
0000
1000
0010
010M
0010
1000
0000
,
0010
0000
0000
0000
0010
0000
1000
0100
001M
0000
0001
0000
0010
0000
0100
1000
,
0010
0000
0100
0000
0001
0000
0010
0100
100M
0000
0010
0000
0100
0000
0000
0000
,
02M2
0000
0000
0000
1000
0000
0303
0001
0100
0010
1000
0010
0100
0000
0000
0000
,
022M
0000
0000
0000
1000
0000
0330
0010
1000
0000
0100
0010
0001
0100
0000
0000
,
M202
0000
0000
0000
1000
0000
0303
0010
1000
0001
0100
0010
0100
0000
0000
0000
,
022M
0000
0000
0000
0001
0000
0330
1000
0010
0000
0100
0001
0010
0100
1000
0010
,
1M01
M000
0M00
00M0
,
000M
00M0
0M00
M000
,
0M00
00M0
000M
00M0
,
0M00
M000
0M00
00M0
,
000M
00M0
0M00
M000
,
0M00
00M0
000M
00M0
,
0M00
M000
0M00
00M0
,
000M
00M0
0M00
M000
,
0M00
00M0
000M
00M0
,
0M00
M000
0M00
00M0
,
000M
00M0
0M00
M000
,
0M00
00M0
000M
00M0
,
0M00
M000
0M00
00M0
,
000M
00M0
0M00
M000
,
0M00
00M0
000M
00M0
,
0M00
M000
0M00
00M0
,
000M
00M0
0M00
M000
,
0M00
00M0
000M
00M0
,
0M00
M000
0M00
00M0
,
000M
00M0
0M00
M000
,
0M00
00M0
000M
00M0
,
0M00
M000
0M00
00M0
,
000M
00M0
0M00
M000
,
0M00
00M0
000M
00M0
,
0M00
M000
0000
0000
;

//---------------dance-single - S. Marshall----------------
#NOTES:
     dance-single:
     S. Marshall:
     Medium:
     10:
     0.755,1.000,0.156,0.296,0.296,621.000,20.000,38.000,404.000,0.000:




M000
0M00
M000
00M0
0M00
000M
00M0
000M
,
0M00
00M0
M000
0M00
00M0
000M
00M0
0M00
,
M000
00M0
0M00
000M
00M0
0M00
00M0
000M
,
00M0
000M
0M00
000M
00M0
0M00
M000
0M00
,
0010
0001
0010
0001
0100
0010
0100
0001
,
0010
0100
1000
0010
0100
0001
0100
0010
,
1000
0100
1000
0010
0100
0001
0010
0100
,
1000
0100
1000
0100
1000
0000
0000
0000
1100
0000
0000
0000
0000
0000
0001
0000
,
0010
0001
0100
0001
0010
0000
0000
0000
,
1100
0000
0000
0000
0011
0000
0000
0000
1100
0000
0000
0000
0000
0000
0100
M000
,
0010
0000
0100
1000
0010
0100
0000
0100
,
0001
0000
0010
0001
0100
0010
0000
1000
,
0100
1000
0010
0100
0001
0000
0000
0000
,
1010
0000
0000
0000
0101
0000
0000
0000
1010
0000
0000
0000
0000
0000
1000
000M
,
0100
0000
0010
0001
0010
0001
0000
0100
,
M001
0M00
00M0
000M
1M00
0000
0010
0000
M10M
0000
0010
0000
0000
0000
0000
0000
,
1000
0000
0000
0000
0100
0000
0010
0000
0000
0000
0001
0000
0000
0000
0010
0100
,
0010
0000
0001
0010
0100
1000
0010
0000
,
1000
0000
0010
0100
0001
0100
0010
1000
,
0100
0000
0010
0000
0100
0000
0010
0000
0001
0010
0001
0000
0100
0000
0000
0000
,
0010
0000
0000
0000
1000
0000
0100
0000
0000
0000
0010
0000
0000
0000
0100
0010
,
0100
0000
1000
0010
0100
0001
1000
0000
,
0100
0000
0000
0000
0010
0000
0001
0M00
0010
0000
0100
0000
1000
0000
0010
M000
,
0100
0000
0001
0000
0010
0000
0100
1000
0100
0000
1000
0000
0010
0000
0000
0000
,
0100
0000
0000
0000
0010
0000
1000
0000
0000
0000
0001
0000
0000
0000
0010
0100
,
0010
0000
0001
0100
0010
0100
0010
0000
,
1000
0000
0100
0010
0001
0100
0010
1000
,
0100
0000
0010
0000
0001
0000
0010
0000
0100
0010
0100
0000
1000
0000
0000
0000
,
0010
0000
0000
0000
0100
0000
0001
0000
0000
0000
0010
0000
0000
0000
0001
0100
,
0001
0000
0010
0100
1000
0010
0100
0000
,
0001
0000
0000
0000
0010
0000
0100
00M0
1000
0000
0010
0000
0100
0000
0001
0M00
,
1000
0000
0100
0000
0010
0000
0100
1000
0100
0000
0010
0000
0001
0000
0000
0000
,
2100
0000
0000
0000
3010
0000
0000
0200
0001
00M0
0302
00M0
1003
0000
0000
0000
,
2001
0000
0000
0000
3010
0000
0000
0002
0100
0000
0203
M000
0310
M000
0000
0000
,
0120
0000
0000
0000
1030
0000
0000
0200
1000
000M
2300
000M
3010
0000
0000
0000
,
1020
0000
0000
0000
0130
0000
0000
0002
0100
0000
0203
M000
0310
M000
0000
0000
,
1002
0000
0000
0000
0103
0000
0000
0020
0100
M000
0230
M000
0301
0000
0000
0000
,
0102
0000
0000
0000
1003
0000
0000
0200
1000
0000
2300
000M
3010
000M
0000
0000
,
1020
0000
0000
0000
0130
0000
0000
0002
0100
M000
0203
M000
0310
0000
0000
0000
,
0120
0000
0000
0000
1030
0000
0000
0200
0010
0000
0320
000M
1030
000M
0000
0000
,
0010
1000
0010
M000
0100
00M0
0001
0M00
,
0010
0100
0010
M000
0001
00M0
0100
M000
,
0010
1000
0010
M000
0100
00M0
0001
M000
,
0010
0100
0010
M000
0100
000M
1000
0M00
,
0010
0100
0010
000M
1000
00M0
0100
000M
,
1000
0010
1000
0M00
0010
M000
0100
00M0
,
0001
0010
0001
00M0
0100
M000
0010
0M00
,
1000
0001
1000
00M0
0001
0M00
0010
000M
,
0100
1000
0100
M000
0010
0M00
0001
00M0
,
0100
0001
0100
M000
0010
0M00
1000
000M
,
0100
1000
0100
M000
0010
000M
0100
00M0
,
1000
0010
1000
0M00
0001
M000
0100
000M
,
0010
1000
0010
M000
0100
00M0
0001
0M00
,
0010
0100
0010
M000
0001
00M0
0100
000M
,
0010
1000
0010
M000
0100
000M
0010
0M00
,
1000
0100
1000
000M
0010
M000
0100
00M0
,
0001
0010
0001
M000
0100
000M
0010
0M00
,
1000
0100
1000
0M00
0010
M000
0100
00M0
,
0001
0010
0001
M000
0100
00M0
0001
0M00
,
0010
0100
0010
000M
0100
00M0
1000
0M00
,
0010
0100
0010
0M00
1000
000M
0100
M000
,
0010
0001
0010
000M
0100
M000
0010
0M00
,
0001
0100
0001
M000
0010
000M
0100
M000
,
0010
0001
0010
M000
0001
00M0
0100
000M
,
0010
1000
0010
000M
0100
M000
0010
000M
,
1000
0100
1000
0M00
0010
M000
0100
00M0
,
0001
0010
0001
M000
0100
000M
0010
0M00
,
1000
0100
1000
0M00
0010
000M
1000
00M0
,
0100
0010
0100
M000
0010
0M00
0001
00M0
,
0100
0010
0100
000M
0010
0M00
1000
00M0
,
0100
0010
0100
M000
0010
0M00
0001
00M0
,
0100
0010
0100
000M
0010
0M00
1000
00M0
,
0100
0000
0000
0000
0010
0000
0001
0000
0000
0000
0100
0000
0000
0000
0100
0010
,
0100
0001
0010
0000
01M0
0000
01M0
0000
,
1000
0000
0000
0000
0010
0000
0100
0000
0001
0000
0010
0000
0000
0000
0010
0100
,
0010
0100
1000
0000
0M10
0000
0000
0000
,
1000
0100
1000
0010
0000
0100
0000
0001
,
0000
0010
0100
0000
100M
0000
100M
0000
,
0000
0000
0010
0000
0100
0000
0010
1000
0010
0000
0000
0000
0100
0000
0000
0000
,
0010
1000
0010
1000
0010
0000
0000
0000
01M0
0000
0000
0000
0000
0000
0000
0000
,
0001
0000
0000
0000
0100
0000
0010
0000
0000
0000
1000
0000
0000
0000
0100
0010
,
0100
0010
0001
0000
M100
0000
M100
0000
,
0010
0000
0000
0000
1000
0000
0010
0000
0100
0000
0001
0000
0000
0000
0010
0100
,
0010
0100
1000
0000
0M10
0000
0000
0000
,
0100
0001
0100
0010
0000
1000
0000
0100
,
0000
0010
0001
0000
010M
0000
010M
0000
,
0000
0000
0010
0000
1000
0000
0100
0010
0100
0000
0000
0000
1000
0000
0000
0000
,
0010
0100
0010
0100
0010
0000
0000
0000
1M00
0000
0000
0000
0000
0000
0000
0000
,
M001
01M0
M001
01M0
,
0M10
100M
0M10
100M
0M10
100M
0M10
100M
,
0100
0000
0000
0000
0010
0000
0001
0000
0000
0000
0100
0000
0000
0000
0010
1000
,
0010
0000
0100
0010
1000
0010
0100
0000
,
0001
0000
0010
0100
0010
0001
0100
0010
,
1000
0000
0100
0000
1000
0000
0010
0000
0100
0010
0100
0000
0001
0000
0000
0000
,
0010
0000
0000
0000
0100
0000
1000
0000
0000
0000
0010
0000
0000
0000
0100
0001
,
0100
0000
0010
1000
0100
0010
0001
0000
,
0010
0000
0000
0000
0100
0000
1000
000M
0010
0000
1000
0000
0100
0000
0010
000M
,
0100
0000
1000
0000
0001
0000
0100
0010
0100
0000
0001
0000
0100
0000
0000
0000
,
0010
0000
0000
0000
1000
0000
0100
0000
0000
0000
0010
0000
0000
0000
0001
0100
,
0001
0000
0010
0100
0010
0001
0100
0000
,
0010
0000
1000
0100
1000
0010
0100
0001
,
0010
0000
0001
0000
0100
0000
0010
0000
1000
0100
1000
0000
0010
0000
0000
0000
,
1000
0000
0000
0000
0100
0000
0010
0000
0000
0000
0001
0000
0000
0000
0100
0001
,
0100
0000
0010
1000
0100
1000
0010
0000
,
0100
0000
0000
0000
0001
0000
0010
M000
0001
0000
0100
0000
0010
0000
1000
000M
,
0100
0000
1000
0000
0010
0000
0100
0001
0100
0000
0001
0000
0010
0000
0000
0000
,
0210
0000
0000
0000
1300
0000
0000
0020
1000
000M
2030
000M
3100
0000
0000
0000
,
1200
0000
0000
0000
0310
0000
0000
0002
0010
0000
0023
M000
0130
M000
0000
0000
,
0210
0000
0000
0000
1300
0000
0000
0020
1000
0M00
2030
0M00
3001
0000
0000
0000
,
1002
0000
0000
0000
0103
0000
0000
0020
0001
0000
0032
M000
0103
M000
0000
0000
,
20M2
0000
0000
0M00
0000
0000
00M0
0000
,
0000
0M00
0000
0000
00M0
0000
0000
0M00
,
0000
0000
00M0
0000
0000
0M00
0000
0000
,
00M0
0000
0000
0M00
0000
0000
00M0
0000
,
0000
0M00
0000
0000
00M0
0000
0000
0M00
,
0000
0000
00M0
0000
0000
0M00
0000
0000
,
00M0
0000
0000
0M00
0000
0000
00M0
0000
,
3003
MM0M
0000
M00M
00M0
M00M
0000
MM0M
,
0000
M00M
00M0
M00M
0000
MM0M
0000
M00M
,
00M0
M00M
0000
MM0M
0000
M00M
00M0
M00M
,
0000
MM0M
0000
M00M
00M0
M00M
0000
MM0M
,
0000
M00M
00M0
M00M
0000
MM0M
0000
M00M
,
00M0
M00M
0000
MM0M
0000
M00M
00M0
M00M
,
0000
MM0M
0000
M00M
00M0
M00M
0000
MM0M
,
0000
M00M
00M0
M00M
0000
MM0M
0000
M00M
,
00M0
M00M
0000
MM0M
0000
M00M
00M0
M00M
,
0000
MM0M
0000
M00M
00M0
M00M
0000
MM0M
,
0000
M00M
00M0
M00M
0000
MM0M
0000
M00M
,
00M0
M00M
0000
MM0M
0000
M00M
00M0
M00M
,
0000
MM0M
0000
M00M
00M0
M00M
0000
MM0M
,
0000
M00M
00M0
M00M
0000
MM0M
0000
M00M
,
00M0
M00M
0000
MM0M
0000
M00M
00M0
M00M
,
0000
MM0M
0000
M00M
00M0
M00M
0000
MM0M
,
0000
M00M
00M0
M00M
0000
MM0M
0000
M00M
,
00M0
M00M
0000
MM0M
0000
M00M
00M0
M00M
;

//---------------dance-single - S. Marshall----------------
#NOTES:
     dance-single:
     S. Marshall:
     Easy:
     8:
     0.600,0.691,0.008,0.187,0.000,513.000,1.000,24.000,16.000,0.000:



0000
0000
0000
0000
,
0000
0000
0000
0000
,
0000
0000
0000
0000
,
0000
0000
0000
0000
,
0000
0000
0000
0000
,
0000
0000
0000
0000
,
0000
0000
0000
0000
,
0000
0000
0000
0000
0000
0000
0000
1000
,
0100
0010
0001
0010
0001
0000
0000
0000
,
1000
0000
0001
0000
1000
0000
0000
0010
,
0100
0000
0001
0100
0010
1000
0000
1000
,
0100
0000
0010
0100
0010
0001
0000
0001
,
0100
0010
1000
0100
1000
0000
0000
0000
,
0001
0000
1000
0000
0001
0000
0000
0100
,
0010
0000
1000
0100
0010
0001
0000
0001
,
0010
0000
0100
1000
0010
1000
0000
0000
,
0010
0000
0010
0100
0000
0100
0000
0100
,
0001
0000
0001
0010
0001
0100
0010
0000
,
0010
0000
1000
0100
1000
0010
0100
0001
,
0010
0001
0100
0010
1000
0001
0010
0000
,
0001
0000
0001
0100
0000
0100
0000
0100
,
0010
0000
1000
0010
1000
0100
0010
0000
,
0001
0000
0010
0100
1000
0010
1000
0100
,
0010
0001
1000
0001
0100
0010
1000
0000
,
0100
0000
0100
1000
0000
1000
0000
1000
,
0010
0000
0100
0001
0010
0001
1000
0000
,
0100
0000
0010
0001
0010
0001
0100
0010
,
1000
0100
0010
0100
1000
0001
0100
0000
,
0010
0000
0010
0100
0000
0100
0000
0100
,
0001
0000
0001
0010
0001
0100
0010
0000
,
1000
0000
0100
0010
0100
0010
0001
0100
,
0010
1000
0001
0100
0001
1000
0100
0000
,
2000
0000
3001
0000
0002
1000
1003
0000
,
2000
0000
3010
0000
0020
0100
0130
0000
,
0200
0000
0301
0000
0002
0100
0103
0000
,
0200
0000
0310
0000
0020
1000
1030
0000
,
2000
0000
3100
0000
0200
1000
1300
0000
,
2000
0000
3010
0000
0020
0100
0130
0000
,
0200
0000
0301
0000
0002
1000
1003
0000
,
2000
0000
3010
0000
0020
0100
0130
0000
,
0010
1000
0100
1000
,
0010
0100
0001
0010
,
0001
1000
0100
1000
,
0001
0010
0001
0100
,
0010
0100
0001
1000
,
0100
1000
0001
0010
,
0100
0010
0001
0100
,
0010
1000
0100
1000
,
0100
0010
0100
1000
,
0010
0100
0001
0010
,
0001
0100
0010
1000
,
0100
1000
0001
0100
,
0001
0010
0001
0100
,
0010
1000
0100
0010
,
0100
1000
0001
0100
,
0001
0010
0001
0100
,
0010
1000
0100
1000
,
0001
0100
0001
1000
,
0010
1000
0001
0010
,
0001
0100
0010
1000
,
0100
1000
0010
0100
,
0001
0010
0100
1000
,
0100
0010
0001
0100
,
0010
1000
0100
1000
,
0100
0010
0001
0010
,
0001
0010
0100
1000
,
0010
0100
0001
0100
,
0010
1000
0100
1000
,
0010
0100
0010
1000
,
0001
0100
0001
0010
,
0100
0010
0001
0100
,
0010
1000
0100
1000
,
0010
0000
0010
0100
0000
0100
0000
0100
,
0001
0010
0100
0000
0010
0000
0010
0000
,
0001
0000
0001
0100
0010
0100
0000
0100
,
0001
0010
0100
0000
0010
0000
0000
0000
,
0001
0100
0010
0100
0000
0100
0000
0100
,
0000
0100
0001
0000
0010
0000
0010
0000
,
0000
0001
0100
0010
1000
0000
0100
0000
,
1000
0010
0100
0000
0001
0000
0000
0000
,
0010
0000
0010
0001
0000
0001
0000
0001
,
0100
0010
1000
0000
0100
0000
0100
0000
,
0010
0000
0100
1000
0010
0100
0000
0100
,
0001
0010
0001
0000
0100
0000
0000
0000
,
0010
0100
0001
0010
0000
0010
0000
0010
,
0000
0010
0001
0000
0100
0000
0100
0000
,
0000
0010
1000
0100
1000
0000
0010
0000
,
0100
0001
0010
0000
0100
0000
0000
0000
,
1000
0100
1000
0100
,
0040
0004
0000
0000
0000
0000
0030
0003
,
0010
0000
0010
0001
0000
0001
0000
0001
,
0100
0000
0010
1000
0100
0010
0100
0000
,
1000
0000
1000
0100
0010
0100
0010
0001
,
0100
0010
0100
0001
0010
0100
1000
0000
,
0100
0000
0100
0010
0000
0010
0000
0010
,
0001
0000
0001
0100
0010
1000
0010
0000
,
0100
0000
0100
0001
0010
0001
0100
0010
,
1000
0100
1000
0001
0100
0010
1000
0000
,
0010
0000
0010
0100
0000
0100
0000
0100
,
0001
0000
0001
0010
0001
0100
0010
0000
,
0010
0000
1000
0100
1000
0010
0100
0001
,
1000
0100
1000
0001
0100
0010
0100
0000
,
0010
0000
0010
1000
0000
1000
0000
1000
,
0100
0000
0010
0100
1000
0010
1000
0000
,
0010
0000
0100
0001
0010
0001
1000
0100
,
1000
0010
0100
0001
0010
0001
1000
0000
,
0200
0000
0310
0000
0020
0001
0031
0000
,
0002
0000
0103
0000
0200
0010
0310
0000
,
0020
0000
1030
0000
2000
0001
3001
0000
,
0002
0000
0103
0000
0200
0010
0310
0000
,
1001
M00M
M00M
M00M
M00M
M00M
M00M
M00M
,
M00M
0000
0000
0000
;

//---------------dance-single - S. Marshall----------------
#NOTES:
     dance-single:
     S. Marshall:
     Beginner:
     4:
     0.390,0.385,0.000,0.187,0.000,327.000,0.000,24.000,0.000,0.000:

0000
0000
0000
0000
,
0000
0000
0000
0000
,
0000
0000
0000
0000
,
0000
0000
0000
0000
,
0000
0000
0000
0000
,
0000
0000
0000
0000
,
0000
0000
0000
0000
,
0000
0000
0000
0000
,
1000
0001
0100
0010
,
1000
0100
1000
0000
,
0010
0100
0001
0100
,
0010
1000
0100
0000
,
0010
0001
0010
0001
,
0100
0010
1000
0000
,
0010
1000
0100
1000
,
0010
0100
0001
0000
,
0010
0001
0100
0010
,
0100
0001
1000
1000
,
0100
1000
0010
0100
,
0010
1000
0100
0100
,
0010
0100
0010
0001
,
0100
0010
1000
1000
,
0100
1000
0010
0100
,
0001
0010
0001
0001
,
0010
0001
0100
0010
,
0100
0001
1000
1000
,
0100
1000
0010
0100
,
0001
0010
0100
0100
,
0010
0001
0100
0010
,
1000
0100
1000
1000
,
0100
1000
0010
0100
,
0001
0010
0100
0100
,
2000
0000
3002
0000
,
0203
0000
0320
0000
,
2030
0000
3200
0000
,
2300
0000
3020
0000
,
0230
0000
0302
0000
,
0023
0000
0230
0000
,
2300
0000
3020
0000
,
0230
0000
0302
0000
,
0013
0000
0100
0000
,
1000
0010
1000
0000
,
0010
0000
0100
0000
,
0010
1000
0010
0000
,
0100
0000
0001
0000
,
0010
0100
0010
0000
,
0100
0000
1000
0000
,
0010
0100
0010
0000
,
0100
0000
0001
0000
,
0010
0001
0010
0000
,
0100
0000
1000
0000
,
0100
0010
0100
0000
,
1000
0000
0010
0000
,
0100
0001
0100
0000
,
0010
0000
1000
0000
,
0010
0100
0010
0000
,
1000
0000
0100
0000
,
1000
0100
1000
0000
,
0010
0000
0100
0000
,
0001
0100
0001
0000
,
0010
0000
0001
0000
,
0100
0010
0100
0000
,
0010
0000
1000
0000
,
0100
1000
0100
0000
,
0010
0000
0100
0000
,
0010
0001
0010
0000
,
0100
0000
1000
0000
,
0010
0100
0010
0000
,
0100
0000
0001
0000
,
0100
0010
0100
0000
,
0001
0000
1000
0000
,
0100
0010
0100
0000
,
0010
0001
0100
0010
,
1000
0100
1000
1000
,
0010
0100
0001
0100
,
0010
1000
0100
0000
,
0010
0001
0010
0100
,
1000
0010
0100
0100
,
0001
1000
0100
1000
,
0001
0100
0010
0000
,
1000
0001
0100
0010
,
1000
0100
0010
0010
,
0001
0100
0001
0010
,
0100
1000
0010
0000
,
0100
0001
0010
0001
,
0100
0010
1000
1000
,
0100
1000
0010
0100
,
0001
0010
0100
0000
,
0010
0000
0100
0000
,
1000
0001
1000
0001
,
0100
0010
1000
0100
,
1000
0001
0100
0100
,
0010
1000
0010
0100
,
0001
0010
0100
0100
,
0010
0100
1000
0001
,
0100
0001
1000
1000
,
0100
1000
0010
0100
,
0001
0010
0100
0100
,
1000
0100
1000
0010
,
0100
0001
0010
0010
,
0001
0100
0010
1000
,
0001
0100
0010
0010
,
1000
0100
1000
0010
,
0100
0001
0010
0010
,
0001
1000
0100
1000
,
0010
0100
0001
0001
,
0200
0000
0320
0000
,
2030
0000
3200
0000
,
0320
0000
0230
0000
,
2300
0000
3002
0000
,
1003
0000
0000
0000
;
