#TITLE:Set Fire to the Rain;
#SUBTITLE:Sexuality Violation;
#ARTIST:Adele;
#TITLETRANSLIT:;
#SUBTITLETRANSLIT:;
#ARTISTTRANSLIT:;
#CREDIT:;
#BANNER:Set Fire to the Rain-bn.png;
#BACKGROUND:Set Fire to the Rain-bg.png;
#LYRICSPATH:;
#CDTITLE:GazeboCD.png;
#MUSIC:Set Fire to the Rain.ogg;
#OFFSET:-0.389;
#SAMPLESTART:55.651;
#SAMPLELENGTH:17.500;
#SELECTABLE:YES;
#BPMS:0.000=229.000;
#STOPS:;
#BGCHANGES:;
// cache tags:
#FIRSTBEAT:30.500;
#LASTBEAT:849.000;
#SONGFILENAME:Songs/Sexuality Violation 2/Set Fire to the Rain - [Gazebo]/Set Fire to the Rain.sm;
#HASMUSIC:1;
#HASBANNER:1;
#MUSICLENGTH:229.355;
// end cache tags

//---------------dance-single - Gazebo----------------
#NOTES:
     dance-single:
     Gazebo:
     Challenge:
     20:
     1.000,1.000,0.122,0.140,1.000,2243.000,28.000,32.000,0.000,0.000:
0000
0000
0000
0000
,
0000
0000
0000
0000
,
0000
0000
0000
0000
,
0000
0000
0000
0000
,
0000
0000
0000
0000
,
0000
0000
0000
0000
,
0000
0000
0000
0000
,
0000
0000
0000
0000
0000
1000
0010
1000
,
0002
0000
1003
0010
,
1000
0000
0001
0020
,
0230
0000
1300
0100
,
1000
0001
0001
0001
,
0200
0000
0310
1000
,
1000
1000
2000
0000
,
0000
3001
0010
0100
,
0010
0000
0000
0000
0001
0000
1000
0001
,
0200
0000
0301
0100
,
0001
0000
0000
1000
0010
1000
0100
0000
,
1000
0001
0020
0000
0032
0000
0000
0000
,
1003
0010
0010
0010
,
0100
0100
0200
0000
,
0300
0001
0001
0002
,
0000
1003
0001
0010
,
0001
0000
1000
0002
,
0203
0000
0310
1000
,
0100
1000
0001
0200
,
0302
0000
0103
0001
,
0010
0002
0000
1003
,
2000
0000
3010
0100
,
0100
0000
0001
0000
0001
0010
0200
0000
,
0320
0000
0031
0010
,
0001
0100
0001
2000
,
3020
0000
0130
0001
,
0010
0001
0001
2000
,
0000
0000
3100
1000
,
0010
0100
0100
0002
,
0000
0000
0000
1003
,
1000
0100
0200
0000
,
0000
1300
0001
0010
,
0001
1000
1000
1000
,
0001
0100
0001
0100
0001
0000
1000
0000
,
0001
0100
0001
0100
0001
0000
1000
0000
,
0200
0010
1300
0200
,
0010
1300
1000
1000
,
0001
0010
0001
0010
0001
0000
1000
0000
,
0001
0010
0001
0010
0001
0000
1000
0000
,
0020
0100
1030
0020
,
0100
1030
1000
1000
,
0001
0100
0001
0100
0001
0000
1000
0000
,
0001
0100
0001
0100
0001
0000
1000
0000
,
0200
0010
1300
0200
,
0010
0310
0110
0110
,
1001
1001
1001
1001
,
1001
0000
0000
0000
,
0001
0100
0001
0100
0010
1000
0001
1000
0001
0010
0001
0010
0100
1000
0001
1000
,
0001
0100
0001
0100
0010
1000
0001
0100
0001
1000
0001
1000
0100
1000
0010
1000
,
0001
0010
0001
1000
0001
1000
0100
0010
0001
1000
0100
1000
0001
0100
0001
1000
,
0001
1000
0100
0010
0001
0100
0001
1000
0100
1000
0001
1000
0001
0100
0001
0100
,
0010
1000
0001
1000
0001
0100
0001
1000
0100
1000
0001
1000
0001
0010
0100
1000
,
0100
1000
0001
0010
0001
0100
0001
1000
0010
1000
0001
1000
0001
0010
0100
1000
,
0100
0010
0001
1000
0001
0100
0001
1000
0010
1000
0001
1000
0001
0010
0100
0010
,
0001
1000
0001
1000
0010
1000
0001
0100
0001
1000
0100
0010
0001
1000
0010
1000
,
0010
1000
0001
0100
0001
1000
0001
0010
0100
1000
0001
1000
0001
1000
0010
1000
,
0010
1000
0001
0100
0001
1000
0001
0010
0100
1000
0001
1000
0001
1000
0010
1000
,
0010
1000
0001
0100
0001
1000
0001
0010
0001
1000
0001
1000
0010
0100
0010
0100
,
0001
1000
0010
1000
0001
0010
0100
1000
0001
0010
0001
1000
0010
1000
0001
1000
,
0001
0010
0100
1000
0001
0010
0001
1000
0001
1000
0100
1000
0001
0100
0001
1000
,
0010
1000
0001
0100
0010
0100
0001
1000
0001
0010
0100
1000
0001
1000
0010
1000
,
0001
1000
0100
0010
0100
0010
0001
1000
0100
1000
0001
0100
0001
1000
0010
1000
,
0001
0010
0001
1000
0001
0100
0001
1000
0010
1000
0001
1000
0100
0010
0001
1000
,
0001
0100
0010
0100
,
0001
0100
0010
1000
,
0001
0010
0100
0010
,
0001
1000
0010
0100
,
0001
1000
0001
0100
,
0001
1000
0001
0010
,
0100
1000
0100
1000
,
0001
0100
0100
0010
,
1000
0001
0100
0001
,
1000
0001
0010
0010
,
0100
1000
0001
1000
,
0100
0010
0010
0010
,
0001
0100
0010
0010
,
1000
1000
0010
1000
,
0001
0010
0001
0100
,
0010
1000
0001
0001
,
1000
0100
1000
0100
1000
0001
0100
0010
,
1000
0100
1000
0100
1000
0001
0100
0010
,
1000
0010
1000
0001
1000
0100
1000
0001
0010
0100
0010
0100
1000
0010
1000
0001
,
1000
0100
1000
0001
0010
0100
0010
0100
1000
0000
0000
0000
1000
0000
0000
0000
,
0001
0100
0001
0100
0001
1000
0100
0010
,
0001
0100
0001
0100
0001
1000
0100
0010
,
0001
0010
0001
1000
0001
0100
0001
1000
0010
0100
0010
0100
0001
0010
0001
1000
,
0001
0100
0001
1000
0010
0100
0010
0100
0001
0000
0000
0000
0001
0000
0000
0000
,
1000
0100
1000
0100
1000
0001
0100
0010
,
1000
0100
1000
0100
1000
0001
0100
0010
,
1000
0010
1000
0001
1000
0100
1000
0001
0010
0100
0010
0100
1000
0010
1000
0001
,
1000
0100
1000
0001
0010
0001
1000
0001
1000
0100
1000
0001
0100
0001
1000
0010
,
1000
0001
1000
0100
0010
0001
1000
0001
1000
0100
1000
0001
1000
0010
0100
0001
,
2000
0000
0000
0000
3200
0000
0000
0300
,
1000
0100
1000
0100
0010
0001
1000
0001
1000
0010
1000
0010
0100
0001
1000
0001
,
1000
0100
1000
0100
0010
0001
1000
0100
1000
0001
1000
0001
0100
0001
0010
0001
,
1000
0010
1000
0001
1000
0001
0100
0010
1000
0001
0100
0001
1000
0100
1000
0001
,
1000
0001
0100
0010
1000
0100
1000
0001
0100
0001
1000
0001
1000
0100
1000
0100
,
0010
0001
1000
0001
1000
0100
1000
0001
0100
0001
1000
0001
1000
0010
0100
0001
,
0100
0001
1000
0010
1000
0100
1000
0001
0010
0001
1000
0001
1000
0010
0100
0001
,
0100
0010
1000
0001
1000
0100
1000
0001
0010
0001
1000
0001
1000
0010
0100
0010
,
1000
0001
1000
0001
0010
0001
1000
0100
1000
0001
0100
0010
1000
0001
0010
0001
,
0010
0001
1000
0100
1000
0001
1000
0010
0100
0001
1000
0001
1000
0001
0010
0001
,
0010
0001
1000
0100
1000
0001
1000
0010
0100
0001
1000
0001
1000
0001
0010
0001
,
0010
0001
1000
0100
1000
0001
1000
0010
1000
0001
1000
0001
0010
0100
0010
0100
,
1000
0001
0010
0001
1000
0010
0100
0001
1000
0010
1000
0001
0010
0001
1000
0001
,
1000
0010
0100
0001
1000
0010
1000
0001
1000
0001
0100
0001
1000
0100
1000
0001
,
0010
0001
1000
0100
0010
0100
1000
0001
1000
0010
0100
0001
1000
0001
0010
0001
,
1000
0001
0100
0010
0100
0010
1000
0001
0100
0001
1000
0100
1000
0001
0010
0001
,
1000
0010
1000
0010
0100
0001
1000
0001
1000
0010
1000
0010
0100
0001
1000
0001
,
1000
0010
1000
0010
0100
0001
1000
0001
1000
0100
1000
0100
0010
0001
1000
0001
,
1000
0010
1000
0010
0100
0001
1000
0010
1000
0001
1000
0001
0010
0001
0100
0001
,
1000
0100
1000
0001
1000
0001
0010
0100
1000
0001
0010
0001
1000
0010
1000
0001
,
1000
0001
0100
0010
1000
0001
0100
0001
1000
0010
0100
0001
0010
0001
0010
0100
,
1000
0001
1000
0010
0100
0010
1000
0001
1000
0100
1000
0001
0010
0001
1000
0100
,
1000
0010
0100
0010
0100
0001
1000
0001
1000
0010
0100
0001
1000
0100
1000
0100
,
0010
0001
1000
0001
0100
0001
1000
0010
1000
0001
1000
0001
0100
0001
1000
0001
,
0010
0001
1000
0010
0100
0001
1000
0010
1000
0001
0010
0100
1000
0001
0100
0001
,
0100
0001
1000
0010
1000
0001
1000
0100
0010
0001
1000
0001
1000
0001
0100
0001
,
0100
0001
1000
0010
1000
0001
1000
0100
0010
0001
1000
0001
1000
0001
0100
0001
,
0100
0001
1000
0010
1000
0001
1000
0100
1000
0001
1000
0001
0100
0010
0100
0010
,
1000
0001
0100
0001
1000
0100
0010
0001
1000
0100
1000
0001
0100
0001
1000
0001
,
1000
0100
0010
0001
1000
0100
1000
0001
1000
0001
0010
0001
1000
0010
1000
0001
,
0100
0001
1000
0010
0100
0010
1000
0001
1000
0100
0010
0001
1000
0001
0100
0001
,
1000
0001
0010
0100
0010
0100
1000
0001
0010
0001
1000
0010
1000
0001
0100
0001
,
1000
0001
1000
0010
1000
0100
0010
0001
1000
0001
0100
0001
1000
0010
1000
0001
,
1000
0010
1000
1001
,
0001
0010
0011
0001
,
1100
1000
0001
0101
,
0100
0000
0010
0000
1010
0000
1000
0001
,
1000
0100
0010
0011
,
0001
1000
1001
0001
,
1010
1000
0001
0101
,
0100
0000
0001
0000
1001
0000
1000
0001
,
0010
0100
1000
1001
,
0001
0100
0101
0001
,
1010
1000
0001
0011
,
0010
0100
1100
1000
,
1001
0001
0100
0110
,
0010
1000
1010
0001
,
1001
1000
1000
1100
,
1000
1000
1001
1000
,
0001
0010
0001
0010
0100
1000
0001
1000
0001
0100
0010
1000
0001
0010
0001
0010
,
0100
1000
0001
1000
0010
1000
0001
0100
0001
1000
0001
1000
0100
1000
0010
1000
,
0001
0010
0001
1000
0001
1000
0100
0010
0001
1000
0100
1000
0001
0100
0001
1000
,
0001
1000
0100
0010
0001
0100
0001
1000
0100
1000
0001
1000
0001
0100
0001
0100
,
0010
1000
0001
1000
0001
0100
0001
1000
0100
1000
0001
1000
0001
0010
0100
1000
,
0100
1000
0001
0010
0001
0100
0001
1000
0010
1000
0001
1000
0001
0010
0100
1000
,
0100
0010
0001
1000
0001
0100
0001
1000
0010
1000
0001
1000
0001
0010
0100
0010
,
0001
1000
0001
1000
0010
1000
0001
0100
0001
1000
0100
0010
0001
1000
0010
1000
,
0010
1000
0001
0100
0001
1000
0001
0010
0100
1000
0001
1000
0001
1000
0010
1000
,
0010
1000
0001
0100
0001
1000
0001
0010
0100
1000
0001
1000
0001
1000
0010
1000
,
0010
1000
0001
0100
0001
1000
0001
0010
0001
1000
0001
1000
0010
0100
0010
0100
,
0001
1000
0010
1000
0001
0010
0100
1000
0001
0010
0001
1000
0010
1000
0001
1000
,
0001
0010
0100
1000
0001
0010
0001
1000
0001
1000
0100
1000
0001
0100
0001
1000
,
0010
1000
0001
0100
0010
0100
0001
1000
0001
0010
0100
1000
0001
1000
0010
1000
,
0001
1000
0100
0010
0100
0010
0001
1000
0100
1000
0001
0100
0001
1000
0010
1000
,
0001
0010
0001
0010
0100
1000
0001
1000
0001
0010
0001
0010
0100
1000
0001
1000
,
0001
0010
0001
0010
0100
1000
0001
1000
0001
0100
0001
0100
0010
1000
0001
1000
,
0001
0010
0001
0010
0100
1000
0001
0010
0001
1000
0001
1000
0010
1000
0100
1000
,
0001
0100
0001
1000
0001
1000
0010
0100
0001
1000
0010
1000
0001
0010
0001
1000
,
0001
1000
0100
0010
0001
1000
0100
1000
0001
0010
0100
1000
0010
1000
0010
0100
,
0001
1000
0001
0010
0100
0010
0001
1000
0001
0100
0001
1000
0010
1000
0001
0100
,
0001
0010
0100
0010
0100
1000
0001
1000
0001
0010
0100
1000
0001
0100
0001
0100
,
0010
1000
0001
1000
0100
1000
0001
0010
0001
1000
0001
1000
0100
1000
0001
1000
,
0010
1000
0001
0010
0100
1000
0001
0010
0001
1000
0010
0100
0001
1000
0100
1000
,
0100
1000
0001
0010
0001
1000
0001
0100
0010
1000
0001
1000
0001
1000
0100
1000
,
0100
1000
0001
0010
0001
1000
0001
0100
0010
1000
0001
1000
0001
1000
0100
1000
,
0100
1000
0001
0010
0001
1000
0001
0100
0001
1000
0001
1000
0100
0010
0100
0010
,
0001
1000
0100
1000
0001
0100
0010
1000
0001
0100
0001
1000
0100
1000
0001
1000
,
0001
0100
0010
1000
0001
0100
0001
1000
0001
1000
0010
1000
0001
0010
0001
1000
,
0100
1000
0001
0010
0100
0010
0001
1000
0001
0100
0010
1000
0001
1000
0100
1000
,
0001
1000
0010
0100
0010
0100
0001
1000
0010
1000
0001
0010
0001
1000
0100
1000
,
0001
0100
0001
1000
0010
1000
0001
1000
0001
0010
0001
1000
0100
1000
0001
1000
,
0001
0010
0100
1000
0100
1000
0001
0100
0001
1000
0001
1000
0010
1000
0001
0100
,
0001
0010
0100
0010
0100
1000
0001
1000
0001
0100
0010
1000
0010
1000
0001
1000
,
0001
0010
0001
0010
0100
1000
0001
1000
0001
0010
0001
1000
0010
1000
0001
1000
,
0100
0010
0001
1000
0001
0100
0001
0100
0010
1000
0001
1000
0001
0100
0001
0100
,
0010
1000
0001
0010
0100
0010
0001
1000
0001
1000
0010
1000
0001
0100
0001
1000
,
0001
0010
0100
1000
0100
1000
0001
0010
0001
1000
0100
1000
0010
1000
0001
0100
,
0001
1000
0010
1000
0001
1000
0001
0100
0001
1000
0010
0100
0010
1000
0001
1000
,
0001
0010
0001
1000
0001
0010
0100
1000
0010
1000
0010
0100
0010
0100
0010
1000
,
0001
0010
0100
1000
0100
1000
0001
1000
0010
0100
0001
0100
0010
1000
0001
1000
,
0001
0010
0001
0010
0100
1000
0001
0010
0001
1000
0001
1000
0100
1000
0001
1000
,
0010
0100
0010
1000
0001
0100
0001
1000
0001
1000
0010
1000
0100
0010
0001
0010
,
0100
0010
0001
1000
0001
1000
0100
1000
0001
0100
0001
1000
0010
1000
0001
1000
,
0001
0010
0100
1000
0100
1000
0001
1000
0001
0010
0100
0010
0001
1000
0001
1000
,
0010
1000
0001
0100
0001
1000
0001
1000
0010
1000
0001
0010
0001
1000
0001
1000
,
0100
0010
0001
0010
0100
1000
0001
1000
0010
1000
0001
0100
0001
1000
0001
0010
,
0100
0010
0100
0010
0001
1000
0100
1000
0010
1000
0001
0100
0001
1000
0001
1000
,
0100
0010
0001
0010
0001
1000
0100
1000
0001
1000
0001
0010
0100
1000
0001
1000
,
0001
0100
0010
0100
0001
0100
0010
1000
0001
1000
0001
0100
0001
1000
0010
1000
,
0001
0010
0100
0010
0100
1000
0001
1000
0001
0010
0001
1000
0100
0010
0001
1000
,
0001
1000
0010
1000
0001
0100
0001
1000
0001
1000
0010
0100
0010
0100
0001
1000
,
0100
0010
0001
0010
0001
1000
0100
1000
0001
1000
0001
0010
0001
1000
0010
1000
,
0001
0100
0001
1000
0010
1000
0001
1000
0001
0100
0001
1000
0100
0010
0001
1000
,
0001
0100
0001
1000
0010
1000
0001
1000
0001
0100
0010
0100
0001
0100
0010
1000
,
0100
1000
0100
0010
0001
1000
0010
1000
0001
1000
0100
0010
0001
1000
0001
0100
,
0001
1000
0010
1000
0001
1000
0010
1000
0001
0100
0001
1000
0001
0100
0010
1000
,
0001
0010
0100
0010
0001
1000
0001
1000
0100
0010
0001
1000
0010
1000
0001
1000
,
0001
0100
0010
0100
0001
1000
0010
1000
0001
0100
0001
1000
0100
0010
0100
1000
,
0001
0010
0001
1000
0010
1000
0001
1000
0100
0010
0001
1000
0010
0100
0010
0100
,
0001
1000
0010
1000
0001
1000
0001
0100
0001
1000
0100
1000
0001
0010
0100
1000
,
0010
1000
0001
0100
0001
1000
0001
1000
0010
0100
0010
1000
0001
0100
0001
1000
,
0100
0010
0001
0010
0001
1000
0100
1000
0001
0010
0001
1000
0001
0100
0010
0100
,
0001
1000
0010
1000
0001
1000
0001
0010
0100
0010
0100
1000
0002
0000
0000
0000
,
0000
0003
0000
0000
;

//---------------dance-single - Gazebo----------------
#NOTES:
     dance-single:
     Gazebo:
     Hard:
     18:
     1.000,1.000,0.126,0.153,1.000,2067.000,29.000,35.000,0.000,0.000:
0000
0000
0000
0000
,
0000
0000
0000
0000
,
0000
0000
0000
0000
,
0000
0000
0000
0000
,
0000
0000
0000
0000
,
0000
0000
0000
0000
,
0000
0000
0000
0000
,
0000
0000
0000
0000
0000
1000
0010
1000
,
0002
0000
1003
0010
,
1000
0000
0001
0020
,
0230
0000
1300
0100
,
1000
0001
0001
0001
,
0200
0000
0310
1000
,
1000
1000
2000
0000
,
0000
3001
0010
0100
,
0010
0000
0000
0000
0001
0000
1000
0001
,
0200
0000
0301
0100
,
0001
0000
0000
1000
0010
1000
0100
0000
,
1000
0001
0020
0000
0032
0000
0000
0000
,
1003
0010
0010
0010
,
0100
0100
0200
0000
,
0300
0001
0001
0002
,
0000
1003
0001
0010
,
0001
0000
1000
0002
,
0203
0000
0310
1000
,
0100
1000
0001
0200
,
0302
0000
0103
0001
,
0010
0002
0000
1003
,
2000
0000
3010
0100
,
0100
0000
0001
0000
0001
0010
0200
0000
,
0320
0000
0031
0010
,
0001
0100
0001
2000
,
3020
0000
0130
0001
,
0010
0001
0001
2000
,
0000
0000
3100
1000
,
0010
0100
0100
0002
,
0000
0000
0000
1003
,
1000
0100
0200
0000
,
0000
1300
0001
0010
,
0001
1000
1000
1000
,
0001
0100
0001
0100
0001
0000
1000
0000
,
0001
0100
0001
0100
0001
0000
1000
0000
,
0200
0010
1300
0200
,
0010
1300
1000
1000
,
0001
0010
0001
0010
0001
0000
1000
0000
,
0001
0010
0001
0010
0001
0000
1000
0000
,
0020
0100
1030
0020
,
0100
1030
1000
1000
,
0001
0100
0001
0100
0001
0000
1000
0000
,
0001
0100
0001
0100
0001
0000
1000
0000
,
0200
0010
1300
0200
,
0010
0310
0110
0110
,
1001
1001
1001
1001
,
1001
0000
0000
0000
,
0001
0100
0001
0100
0010
1000
0001
1000
0001
0010
0001
0010
0100
1000
0001
1000
,
0001
0100
0001
0100
0010
1000
0001
0100
0001
1000
0001
1000
0100
1000
0010
1000
,
0001
0010
0001
1000
0001
1000
0100
0010
0001
1000
0100
1000
0001
0100
0001
1000
,
0001
1000
0100
0010
0001
0100
0001
1000
0100
1000
0001
1000
0001
0100
0001
0100
,
0010
1000
0001
1000
0001
0100
0001
1000
0100
1000
0001
1000
0001
0010
0100
1000
,
0100
1000
0001
0010
0001
0100
0001
1000
0010
1000
0001
1000
0001
0010
0100
1000
,
0100
0010
0001
1000
0001
0100
0001
1000
0010
1000
0001
1000
0001
0010
0100
0010
,
0001
1000
0001
1000
0010
1000
0001
0100
0001
1000
0100
0010
0001
1000
0010
1000
,
0010
1000
0001
0100
0001
1000
0001
0010
0100
1000
0001
1000
0001
1000
0010
1000
,
0010
1000
0001
0100
0001
1000
0001
0010
0100
1000
0001
1000
0001
1000
0010
1000
,
0010
1000
0001
0100
0001
1000
0001
0010
0001
1000
0001
1000
0010
0100
0010
0100
,
0001
1000
0010
1000
0001
0010
0100
1000
0001
0010
0001
1000
0010
1000
0001
1000
,
0001
0010
0100
1000
0001
0010
0001
1000
0001
1000
0100
1000
0001
0100
0001
1000
,
0010
1000
0001
0100
0010
0100
0001
1000
0001
0010
0100
1000
0001
1000
0010
1000
,
0001
1000
0100
0010
0100
0010
0001
1000
0100
1000
0001
0100
0001
1000
0010
1000
,
0002
0000
0023
0000
0230
0000
1300
1000
,
0001
0100
0010
0100
,
0001
0100
0010
1000
,
0001
0010
0100
0010
,
0001
1000
0010
0100
,
0001
1000
0001
0100
,
0001
1000
0001
0010
,
0100
1000
0100
1000
,
0001
0100
0100
0010
,
1000
0001
0100
0001
,
1000
0001
0010
0010
,
0100
1000
0001
1000
,
0100
0010
0010
0010
,
0001
0100
0010
0010
,
1000
1000
0010
1000
,
0001
0010
0001
0100
,
0010
1000
0001
0001
,
1000
0100
1000
0100
1000
0001
0100
0010
,
1000
0100
1000
0100
1000
0001
0100
0010
,
1000
0010
1000
0100
0010
0001
0100
0001
1000
0001
0010
0001
,
0100
0010
1000
0100
1000
0001
1000
0000
0000
1000
0000
0000
,
0001
0100
0001
0100
0001
1000
0100
0010
,
0001
0100
0001
0100
0001
1000
0100
0010
,
0001
0010
0001
0100
0010
1000
0100
1000
0001
1000
0010
1000
,
0100
0010
0001
0100
0001
1000
0001
0000
0000
0001
0000
0000
,
1000
0100
1000
0100
1000
0001
0100
0010
,
1000
0100
1000
0100
1000
0001
0100
0010
,
1000
0010
1000
0100
0010
0001
0100
0001
1000
0001
0010
0001
,
0100
0010
1000
0001
0100
0001
1000
0001
1000
0010
1000
0001
,
0010
0001
1000
0001
1000
0100
1000
0001
1000
0001
0100
0010
,
2000
0000
0000
0000
3200
0000
0000
0300
,
1000
0100
1000
0100
0010
0001
1000
0001
1000
0010
1000
0010
0100
0001
1000
0001
,
1000
0100
1000
0100
0010
0001
1000
0100
1000
0001
1000
0001
0100
0001
0010
0001
,
1000
0010
1000
0001
1000
0001
0100
0010
1000
0001
0100
0001
1000
0100
1000
0001
,
1000
0001
0100
0010
1000
0100
1000
0001
0100
0001
1000
0001
1000
0100
1000
0100
,
0010
0001
1000
0001
1000
0100
1000
0001
0100
0001
1000
0001
1000
0010
0100
0001
,
0100
0001
1000
0010
1000
0100
1000
0001
0010
0001
1000
0001
1000
0010
0100
0001
,
0100
0010
1000
0001
1000
0100
1000
0001
0010
0001
1000
0001
1000
0010
0100
0010
,
1000
0001
1000
0001
0010
0001
1000
0100
1000
0001
0100
0010
1000
0001
0010
0001
,
0010
0001
1000
0100
1000
0001
1000
0010
0100
0001
1000
0001
1000
0001
0010
0001
,
0010
0001
1000
0100
1000
0001
1000
0010
0100
0001
1000
0001
1000
0001
0010
0001
,
0010
0001
1000
0100
1000
0001
1000
0010
1000
0001
1000
0001
0010
0100
0010
0100
,
1000
0001
0010
0001
1000
0010
0100
0001
1000
0010
1000
0001
0010
0001
1000
0001
,
1000
0010
0100
0001
1000
0010
1000
0001
1000
0001
0100
0001
1000
0100
1000
0001
,
0010
0001
1000
0100
0010
0100
1000
0001
1000
0010
0100
0001
1000
0001
0010
0001
,
1000
0001
0100
0010
0100
0010
1000
0001
0100
0001
1000
0100
1000
0001
0010
0001
,
1000
0010
1000
0010
0100
0001
1000
0001
1000
0010
1000
0010
0100
0001
1000
0001
,
1000
0010
1000
0010
0100
0001
1000
0001
1000
0100
1000
0100
0010
0001
1000
0001
,
1000
0010
1000
0010
0100
0001
1000
0010
1000
0001
1000
0001
0010
0001
0100
0001
,
1000
0100
1000
0001
1000
0001
0010
0100
1000
0001
0010
0001
1000
0010
1000
0001
,
1000
0001
0100
0010
1000
0001
0100
0001
1000
0010
0100
0001
0010
0001
0010
0100
,
1000
0001
1000
0010
0100
0010
1000
0001
1000
0100
1000
0001
0010
0001
1000
0100
,
1000
0010
0100
0010
0100
0001
1000
0001
1000
0010
0100
0001
1000
0100
1000
0100
,
0010
0001
1000
0001
0100
0001
1000
0010
1000
0001
1000
0001
0100
0001
1000
0001
,
0010
0001
1000
0010
0100
0001
1000
0010
1000
0001
0010
0100
1000
0001
0100
0001
,
0100
0001
1000
0010
1000
0001
1000
0100
0010
0001
1000
0001
1000
0001
0100
0001
,
0100
0001
1000
0010
1000
0001
1000
0100
0010
0001
1000
0001
1000
0001
0100
0001
,
0100
0001
1000
0010
1000
0001
1000
0100
1000
0001
1000
0001
0100
0010
0100
0010
,
1000
0001
0100
0001
1000
0100
0010
0001
1000
0100
1000
0001
0100
0001
1000
0001
,
1000
0100
0010
0001
1000
0100
1000
0001
1000
0001
0010
0001
1000
0010
1000
0001
,
0100
0001
1000
0010
0100
0010
1000
0001
1000
0100
0010
0001
1000
0001
0100
0001
,
1000
0001
0010
0100
0010
0100
1000
0001
0010
0001
1000
0010
1000
0001
0100
0001
,
1000
0010
0100
0100
,
1010
0010
1000
1001
,
0001
0010
0011
0001
,
1100
1000
0001
0101
,
0100
0000
0010
0000
1010
0000
1000
0001
,
1000
0100
0010
0011
,
0001
1000
1001
0001
,
1010
1000
0001
0101
,
0100
0000
0001
0000
1001
0000
1000
0001
,
0010
0100
1000
1001
,
0001
0100
0101
0001
,
1010
1000
0001
0011
,
0010
0100
1100
1000
,
1001
0001
0100
0110
,
0010
1000
1010
0001
,
1001
1000
1000
1100
,
1000
1000
1001
1000
,
0001
0010
0001
0010
0100
1000
0001
1000
0001
0100
0010
1000
0001
0010
0001
0010
,
0100
1000
0001
1000
0010
1000
0001
0100
0001
1000
0001
1000
0100
1000
0010
1000
,
0001
0010
0001
1000
0001
1000
0100
0010
0001
1000
0100
1000
0001
0100
0001
1000
,
0001
1000
0100
0010
0001
0100
0001
1000
0100
1000
0001
1000
0001
0100
0001
0100
,
0010
1000
0001
1000
0001
0100
0001
1000
0100
1000
0001
1000
0001
0010
0100
1000
,
0100
1000
0001
0010
0001
0100
0001
1000
0010
1000
0001
1000
0001
0010
0100
1000
,
0100
0010
0001
1000
0001
0100
0001
1000
0010
1000
0001
1000
0001
0010
0100
0010
,
0001
1000
0001
1000
0010
1000
0001
0100
0001
1000
0100
0010
0001
1000
0010
1000
,
0010
1000
0001
0100
0001
1000
0001
0010
0100
1000
0001
1000
0001
1000
0010
1000
,
0010
1000
0001
0100
0001
1000
0001
0010
0100
1000
0001
1000
0001
1000
0010
1000
,
0010
1000
0001
0100
0001
1000
0001
0010
0001
1000
0001
1000
0010
0100
0010
0100
,
0001
1000
0010
1000
0001
0010
0100
1000
0001
0010
0001
1000
0010
1000
0001
1000
,
0001
0010
0100
1000
0001
0010
0001
1000
0001
1000
0100
1000
0001
0100
0001
1000
,
0010
1000
0001
0100
0010
0100
0001
1000
0001
0010
0100
1000
0001
1000
0010
1000
,
0001
1000
0100
0010
0100
0010
0001
1000
0100
1000
0001
0100
0001
1000
0010
1000
,
0001
0010
0001
0010
0100
1000
0001
1000
0001
0010
0001
0010
0100
1000
0001
1000
,
0001
0010
0001
0010
0100
1000
0001
1000
0001
0100
0001
0100
0010
1000
0001
1000
,
0001
0010
0001
0010
0100
1000
0001
0010
0001
1000
0001
1000
0010
1000
0100
1000
,
0001
0100
0001
1000
0001
1000
0010
0100
0001
1000
0010
1000
0001
0010
0001
1000
,
0001
1000
0100
0010
0001
1000
0100
1000
0001
0010
0100
1000
0010
1000
0010
0100
,
0001
1000
0001
0010
0100
0010
0001
1000
0001
0100
0001
1000
0010
1000
0001
0100
,
0001
0010
0100
0010
0100
1000
0001
1000
0001
0010
0100
1000
0001
0100
0001
0100
,
0010
1000
0001
1000
0100
1000
0001
0010
0001
1000
0001
1000
0100
1000
0001
1000
,
0010
1000
0001
0010
0100
1000
0001
0010
0001
1000
0010
0100
0001
1000
0100
1000
,
0100
1000
0001
0010
0001
1000
0001
0100
0010
1000
0001
1000
0001
1000
0100
1000
,
0100
1000
0001
0010
0001
1000
0001
0100
0010
1000
0001
1000
0001
1000
0100
1000
,
0100
1000
0001
0010
0001
1000
0001
0100
0001
1000
0001
1000
0100
0010
0100
0010
,
0001
1000
0100
1000
0001
0100
0010
1000
0001
0100
0001
1000
0100
1000
0001
1000
,
0001
0100
0010
1000
0001
0100
0001
1000
0001
1000
0010
1000
0001
0010
0001
1000
,
0100
1000
0001
0010
0100
0010
0001
1000
0001
0100
0010
1000
0001
1000
0100
1000
,
0001
1000
0010
0100
0010
0100
0001
1000
0010
1000
0001
0010
0001
1000
0100
1000
,
0001
0100
0001
1000
0010
1000
0001
1000
0001
0010
0001
1000
0100
1000
0001
1000
,
0001
0010
0001
1000
0001
1000
0010
1000
0001
0100
0001
0010
,
0100
0010
0100
1000
0001
0010
0001
1000
0010
0100
0001
0100
,
0001
1000
0100
1000
0001
0010
0100
0010
0001
1000
0010
1000
,
0001
0100
0001
0010
0100
1000
0001
0100
0001
0010
0100
0010
,
0100
1000
0001
0100
0001
1000
0010
1000
0001
1000
0001
0010
,
0100
1000
0100
1000
0001
0010
0001
1000
0001
0100
0010
0100
,
0001
0100
0010
1000
0001
0010
0100
1000
0001
0010
0001
1000
,
0010
1000
0010
1000
0001
0010
0100
0010
0100
0010
0001
1000
,
0001
0100
0001
1000
0010
1000
0001
0010
0100
1000
0001
0100
,
0001
0010
0100
1000
0100
1000
0001
0010
0001
1000
0010
1000
,
0001
0100
0010
1000
0001
1000
0001
0100
0001
0010
0100
0010
,
0100
1000
0001
0010
0001
1000
0010
1000
0001
0100
0001
1000
,
0001
1000
0100
0010
0001
0010
0001
1000
0100
1000
0001
1000
,
0010
0100
0001
1000
0001
0100
0001
1000
0010
1000
0100
1000
,
0001
0010
0100
1000
0001
1000
0001
0010
0100
0010
0001
1000
,
0010
1000
0001
0100
0001
0010
0100
0010
0100
1000
0001
0100
,
0001
0100
0001
1000
0010
1000
0001
1000
0001
0010
0100
1000
,
0001
0010
0001
1000
0001
0100
0010
1000
0001
1000
0001
0100
,
0001
0010
0100
1000
0100
1000
0001
0010
0001
1000
0010
1000
,
0001
1000
0001
0100
0001
1000
0100
0010
0001
1000
0010
1000
,
0100
0010
0100
0010
0100
1000
0001
0010
0001
1000
0010
1000
,
0001
0100
0001
1000
0001
1000
0100
0010
0100
1000
0001
0100
,
0001
1000
0010
0100
0010
1000
0001
1000
0001
0010
0100
1000
,
0010
1000
0001
0010
0100
1000
0010
1000
0001
0100
0001
1000
,
0001
0010
0100
1000
0100
1000
0001
0010
0001
1000
0010
1000
,
0001
0100
0010
0100
0001
1000
0100
1000
0001
0010
0100
1000
,
0001
0100
0001
1000
0010
1000
0001
1000
0001
0010
0100
0010
,
0001
1000
0001
0100
0001
1000
0010
1000
0100
0010
0001
0010
,
0001
1000
0100
1000
0001
1000
0001
0010
0001
1000
0010
1000
,
0001
0100
0001
1000
0001
1000
0100
0010
0001
1000
0010
0100
,
0001
0100
0001
1000
0010
1000
0001
0010
0100
1000
0001
0010
,
0001
1000
0001
1000
0010
1000
0001
0000
0000
0002
0000
0000
,
0000
0003
0000
0000
;

//---------------dance-single - Gazebo----------------
#NOTES:
     dance-single:
     Gazebo:
     Medium:
     14:
     1.000,1.000,0.126,0.153,1.000,1755.000,29.000,35.000,0.000,0.000:
0000
0000
0000
0000
,
0000
0000
0000
0000
,
0000
0000
0000
0000
,
0000
0000
0000
0000
,
0000
0000
0000
0000
,
0000
0000
0000
0000
,
0000
0000
0000
0000
,
0000
0000
0000
0000
0000
1000
0010
1000
,
0002
0000
1003
0010
,
1000
0000
0001
0020
,
0230
0000
1300
0100
,
1000
0001
0001
0001
,
0200
0000
0310
1000
,
1000
1000
2000
0000
,
0000
3001
0010
0100
,
0010
0000
0000
0000
0001
0000
1000
0001
,
0200
0000
0301
0100
,
0001
0000
0000
1000
0010
1000
0100
0000
,
1000
0001
0020
0000
0032
0000
0000
0000
,
1003
0010
0010
0010
,
0100
0100
0200
0000
,
0300
0001
0001
0002
,
0000
1003
0001
0010
,
0001
0000
1000
0002
,
0203
0000
0310
1000
,
0100
1000
0001
0200
,
0302
0000
0103
0001
,
0010
0002
0000
1003
,
2000
0000
3010
0100
,
0100
0000
0001
0000
0001
0010
0200
0000
,
0320
0000
0031
0010
,
0001
0100
0001
2000
,
3020
0000
0130
0001
,
0010
0001
0001
2000
,
0000
0000
3100
1000
,
0010
0100
0100
0002
,
0000
0000
0000
1003
,
1000
0100
0200
0000
,
0000
1300
0001
0010
,
0001
1000
1000
1000
,
0001
0100
0001
0100
0001
0000
1000
0000
,
0001
0100
0001
0100
0001
0000
1000
0000
,
0200
0010
1300
0200
,
0010
1300
1000
1000
,
0001
0010
0001
0010
0001
0000
1000
0000
,
0001
0010
0001
0010
0001
0000
1000
0000
,
0020
0100
1030
0020
,
0100
1030
1000
1000
,
0001
0100
0001
0100
0001
0000
1000
0000
,
0001
0100
0001
0100
0001
0000
1000
0000
,
0200
0010
1300
0200
,
0010
0310
0110
0110
,
1001
1001
1001
1001
,
1001
0000
0000
0000
,
0001
0100
0001
0100
0010
1000
0001
0010
0001
0010
0100
1000
,
0001
0100
0001
1000
0001
1000
0010
1000
0001
0010
0001
1000
,
0100
0010
0001
0010
0001
1000
0100
1000
0001
1000
0010
1000
,
0001
0100
0001
0010
0100
1000
0001
0010
0001
1000
0010
0100
,
0001
0100
0001
1000
0010
1000
0001
1000
0001
0010
0001
1000
,
0100
0010
0001
0100
0010
0100
0010
1000
0001
1000
0100
1000
,
0100
0010
0001
1000
0010
1000
0010
0100
0001
1000
0010
1000
,
0001
0100
0001
0010
0100
1000
0001
0100
0001
1000
0010
0100
,
0010
0100
0001
1000
0100
1000
0001
0010
0001
1000
0010
0100
,
0010
0100
0001
1000
0100
1000
0001
0010
0001
1000
0010
0100
,
0010
0100
0001
1000
0100
1000
0100
0010
0001
1000
0010
0100
,
0010
0100
0001
1000
0100
1000
0001
0010
0001
1000
0010
1000
,
0001
0010
0100
0010
0001
1000
0100
1000
0001
1000
0010
0100
,
0001
1000
0010
1000
0001
1000
0001
0010
0100
1000
0010
1000
,
0001
0100
0001
1000
0100
0010
0001
0100
0001
1000
0010
1000
,
0002
0000
0023
0000
0230
0000
1300
1000
,
0001
0100
0010
0100
,
0001
0100
0010
1000
,
0001
0010
0100
0010
,
0001
1000
0010
0100
,
0001
1000
0001
0100
,
0001
1000
0001
0010
,
0100
1000
0100
1000
,
0001
0100
0100
0010
,
1000
0001
0100
0001
,
1000
0001
0010
0010
,
0100
1000
0001
1000
,
0100
0010
0010
0010
,
0001
0100
0010
0010
,
1000
1000
0010
1000
,
0001
0010
0001
0100
,
0010
1000
0001
0001
,
1000
0100
1000
0100
1000
0001
0100
0010
,
1000
0100
1000
0100
1000
0001
0100
0010
,
1000
0010
1000
0100
0010
0001
0100
0001
1000
0001
0010
0001
,
0100
0010
1000
0100
1000
0001
1000
0000
0000
1000
0000
0000
,
0001
0100
0001
0100
0001
1000
0100
0010
,
0001
0100
0001
0100
0001
1000
0100
0010
,
0001
0010
0001
0100
0010
1000
0100
1000
0001
1000
0010
1000
,
0100
0010
0001
0100
0001
1000
0001
0000
0000
0001
0000
0000
,
1000
0100
1000
0100
1000
0001
0100
0010
,
1000
0100
1000
0100
1000
0001
0100
0010
,
1000
0010
1000
0100
0010
0001
0100
0001
1000
0001
0010
0001
,
0100
0010
1000
0001
0100
0001
1000
0001
1000
0010
1000
0001
,
0010
0001
1000
0001
1000
0100
1000
0001
1000
0001
0100
0010
,
2000
0000
0000
0000
3200
0000
0000
0300
,
1000
0100
1000
0100
0010
0001
1000
0010
1000
0010
0100
0001
,
1000
0100
1000
0001
1000
0001
0010
0001
1000
0010
1000
0001
,
0100
0010
1000
0010
1000
0001
0100
0001
1000
0001
0010
0001
,
1000
0100
1000
0010
0100
0001
1000
0010
1000
0001
0010
0100
,
1000
0100
1000
0001
0010
0001
1000
0001
1000
0010
1000
0001
,
0100
0010
1000
0100
0010
0100
0010
0001
1000
0001
0100
0001
,
0100
0010
1000
0001
0010
0001
0010
0100
1000
0001
0010
0001
,
1000
0100
1000
0010
0100
0001
1000
0100
1000
0001
0010
0100
,
0010
0100
1000
0001
0100
0001
1000
0010
1000
0001
0010
0100
,
0010
0100
1000
0001
0100
0001
1000
0010
1000
0001
0010
0100
,
0010
0100
1000
0001
0100
0001
0100
0010
1000
0001
0010
0100
,
0010
0100
1000
0001
0100
0001
1000
0010
1000
0001
0010
0001
,
1000
0010
0100
0010
1000
0001
0100
0001
1000
0001
0010
0100
,
1000
0001
0010
0001
1000
0001
1000
0010
0100
0001
0010
0001
,
1000
0100
1000
0001
0100
0010
1000
0100
1000
0001
0010
0001
,
1000
0010
1000
0010
0100
0001
1000
0010
1000
0010
0100
0001
,
1000
0010
1000
0010
0100
0001
1000
0100
1000
0100
0010
0001
,
1000
0010
1000
0001
1000
0001
0100
0001
1000
0100
1000
0001
,
0010
0100
1000
0100
1000
0001
0010
0001
1000
0001
0100
0001
,
1000
0010
1000
0100
0010
0001
1000
0100
1000
0010
0100
0010
,
1000
0001
1000
0001
0100
0001
1000
0001
1000
0100
0010
0001
,
0100
0001
1000
0010
1000
0001
0100
0001
1000
0001
0010
0001
,
0010
0100
1000
0001
0100
0001
0100
0010
1000
0001
0100
0001
,
1000
0010
1000
0100
0010
0001
1000
0010
1000
0001
0100
0010
,
0100
0010
1000
0001
0010
0001
1000
0100
1000
0001
0100
0010
,
0100
0010
1000
0001
0010
0001
1000
0100
1000
0001
0100
0010
,
0100
0010
1000
0001
0010
0001
0010
0100
1000
0001
0100
0010
,
0100
0010
1000
0001
0010
0001
1000
0100
1000
0001
0100
0001
,
1000
0100
0010
0100
1000
0001
0010
0001
1000
0001
0100
0010
,
1000
0001
0100
0001
1000
0001
1000
0100
0010
0001
1000
0010
,
1000
0001
0100
0001
1000
0100
0010
0100
1000
0001
0100
0001
,
1000
0010
0100
0100
,
1010
0010
1000
1001
,
0001
0010
0011
0001
,
1100
1000
0001
0101
,
0100
0000
0010
0000
1010
0000
1000
0001
,
1000
0100
0010
0011
,
0001
1000
1001
0001
,
1010
1000
0001
0101
,
0100
0000
0001
0000
1001
0000
1000
0001
,
0010
0100
1000
1001
,
0001
0100
0101
0001
,
1010
1000
0001
0011
,
0010
0100
1100
1000
,
1001
0001
0100
0110
,
0010
1000
1010
0001
,
1001
1000
1000
1100
,
1000
1000
1001
1000
,
0001
0010
0001
0010
0100
1000
0001
0100
0001
0100
0010
1000
,
0001
0010
0001
1000
0001
1000
0100
1000
0001
0100
0001
1000
,
0010
0100
0001
0100
0001
1000
0010
1000
0001
1000
0100
1000
,
0001
0010
0001
0100
0010
1000
0001
0100
0001
1000
0100
0010
,
0001
0010
0001
1000
0100
1000
0001
1000
0001
0100
0001
1000
,
0010
0100
0001
0010
0100
0010
0100
1000
0001
1000
0010
1000
,
0010
0100
0001
1000
0100
1000
0100
0010
0001
1000
0100
1000
,
0001
0010
0001
0100
0010
1000
0001
0010
0001
1000
0100
0010
,
0100
0010
0001
1000
0010
1000
0001
0100
0001
1000
0100
0010
,
0100
0010
0001
1000
0010
1000
0001
0100
0001
1000
0100
0010
,
0100
0010
0001
1000
0010
1000
0010
0100
0001
1000
0100
0010
,
0100
0010
0001
1000
0010
1000
0001
0100
0001
1000
0100
1000
,
0001
0100
0010
0100
0001
1000
0010
1000
0001
1000
0100
0010
,
0001
1000
0100
1000
0001
1000
0001
0100
0010
1000
0100
1000
,
0001
0010
0001
1000
0010
0100
0001
0010
0001
1000
0100
1000
,
0001
0100
0001
0100
0010
1000
0001
0100
0001
0100
0010
1000
,
0001
0100
0001
0100
0010
1000
0001
0010
0001
0010
0100
1000
,
0001
0100
0001
1000
0001
1000
0010
1000
0001
0010
0001
1000
,
0100
0010
0001
0010
0001
1000
0100
1000
0001
1000
0010
1000
,
0001
0100
0001
0010
0100
1000
0001
0010
0001
0100
0010
0100
,
0001
1000
0001
1000
0010
1000
0001
1000
0001
0010
0100
1000
,
0010
1000
0001
0100
0001
1000
0010
1000
0001
1000
0100
1000
,
0100
0010
0001
1000
0010
1000
0010
0100
0001
1000
0010
1000
,
0001
0100
0001
0010
0100
1000
0001
0100
0001
1000
0010
0100
,
0010
0100
0001
1000
0100
1000
0001
0010
0001
1000
0010
0100
,
0010
0100
0001
1000
0100
1000
0001
0010
0001
1000
0010
0100
,
0010
0100
0001
1000
0100
1000
0100
0010
0001
1000
0010
0100
,
0010
0100
0001
1000
0100
1000
0001
0010
0001
1000
0010
1000
,
0001
0010
0100
0010
0001
1000
0100
1000
0001
1000
0010
0100
,
0001
1000
0010
1000
0001
1000
0001
0010
0100
1000
0001
0100
,
0001
1000
0010
1000
0001
0010
0100
0010
0001
1000
0010
1000
,
0001
0100
0010
0100
0001
0100
0010
0100
0001
1000
0010
1000
,
0001
0010
0001
1000
0001
1000
0010
1000
0001
0100
0001
0010
,
0100
0010
0100
1000
0001
0010
0001
1000
0010
0100
0001
0100
,
0001
1000
0100
1000
0001
0010
0100
0010
0001
1000
0010
1000
,
0001
0100
0001
0010
0100
1000
0001
0100
0001
0010
0100
0010
,
0100
1000
0001
0100
0001
1000
0010
1000
0001
1000
0001
0010
,
0100
1000
0100
1000
0001
0010
0001
1000
0001
0100
0010
0100
,
0001
0100
0010
1000
0001
0010
0100
1000
0001
0010
0001
1000
,
0010
1000
0010
1000
0001
0010
0100
0010
0100
0010
0001
1000
,
0001
0100
0001
1000
0010
1000
0001
0010
0100
1000
0001
0100
,
0001
0010
0100
1000
0100
1000
0001
0010
0001
1000
0010
1000
,
0001
0100
0010
1000
0001
1000
0001
0100
0001
0010
0100
0010
,
0100
1000
0001
0010
0001
1000
0010
1000
0001
0100
0001
1000
,
0001
1000
0100
0010
0001
0010
0001
1000
0100
1000
0001
1000
,
0010
0100
0001
1000
0001
0100
0001
1000
0010
1000
0100
1000
,
0001
0010
0100
1000
0001
1000
0001
0010
0100
0010
0001
1000
,
0010
1000
0001
0100
0001
0010
0100
0010
0100
1000
0001
0100
,
0001
0100
0001
1000
0010
1000
0001
1000
0001
0010
0100
1000
,
0001
0010
0001
1000
0001
0100
0010
1000
0001
1000
0001
0100
,
0001
0010
0100
1000
0100
1000
0001
0010
0001
1000
0010
1000
,
0001
1000
0001
0100
0001
1000
0100
0010
0001
1000
0010
1000
,
0100
0010
0100
0010
0100
1000
0001
0010
0001
1000
0010
1000
,
0001
0100
0001
1000
0001
1000
0100
0010
0100
1000
0001
0100
,
0001
1000
0010
0100
0010
1000
0001
1000
0001
0010
0100
1000
,
0010
1000
0001
0010
0100
1000
0010
1000
0001
0100
0001
1000
,
0001
0010
0100
1000
0100
1000
0001
0010
0001
1000
0010
1000
,
0001
0100
0010
0100
0001
1000
0100
1000
0001
0010
0100
1000
,
0001
0100
0001
1000
0010
1000
0001
1000
0001
0010
0100
0010
,
0001
1000
0001
0100
0001
1000
0010
1000
0100
0010
0001
0010
,
0001
1000
0100
1000
0001
1000
0001
0010
0001
1000
0010
1000
,
0001
0100
0001
1000
0001
1000
0100
0010
0001
1000
0010
0100
,
0001
0100
0001
1000
0010
1000
0001
0010
0100
1000
0001
0010
,
0001
1000
0001
1000
0010
1000
0001
0000
0000
0002
0000
0000
,
0000
0003
0000
0000
;

//---------------dance-single - Gazebo----------------
#NOTES:
     dance-single:
     Gazebo:
     Easy:
     13:
     0.973,1.000,0.126,0.157,1.000,1497.000,29.000,36.000,0.000,0.000:

0000
0000
0000
0000
,
0000
0000
0000
0000
,
0000
0000
0000
0000
,
0000
0000
0000
0000
,
0000
0000
0000
0000
,
0000
0000
0000
0000
,
0000
0000
0000
0000
,
0000
0000
0000
0000
0000
1000
0010
1000
,
0002
0000
1003
0010
,
1000
0000
0001
0020
,
0230
0000
1300
0100
,
1000
0001
0001
0001
,
0200
0000
0310
1000
,
1000
1000
2000
0000
,
0000
3001
0010
0100
,
0010
0000
0000
0000
0001
0000
1000
0001
,
0200
0000
0301
0100
,
0001
0000
0000
1000
0010
1000
0100
0000
,
1000
0001
0020
0000
0032
0000
0000
0000
,
1003
0010
0010
0010
,
0100
0100
0200
0000
,
0300
0001
0001
0002
,
0000
1003
0001
0010
,
0001
0000
1000
0002
,
0203
0000
0310
1000
,
0100
1000
0001
0200
,
0302
0000
0103
0001
,
0010
0002
0000
1003
,
2000
0000
3010
0100
,
0100
0000
0001
0000
0001
0010
0200
0000
,
0320
0000
0031
0010
,
0001
0100
0001
2000
,
3020
0000
0130
0001
,
0010
0001
0001
2000
,
0000
0000
3100
1000
,
0010
0100
0100
0002
,
0000
0000
0000
1003
,
1000
0100
0200
0000
,
0000
1300
0001
0010
,
0001
1000
1000
1000
,
0001
0100
0001
0100
0001
0000
1000
0000
,
0001
0100
0001
0100
0001
0000
1000
0000
,
0200
0010
1300
0200
,
0010
1300
1000
1000
,
0001
0010
0001
0010
0001
0000
1000
0000
,
0001
0010
0001
0010
0001
0000
1000
0000
,
0020
0100
1030
0020
,
0100
1030
1000
1000
,
0001
0100
0001
0100
0001
0000
1000
0000
,
0001
0100
0001
0100
0001
0000
1000
0000
,
0200
0010
1300
0200
,
0010
0310
0110
0110
,
1001
1001
1001
1001
,
1001
0000
0000
0000
,
0001
0100
0001
0100
0010
1000
0001
0010
0001
0010
0100
1000
,
0001
0100
0001
1000
0001
1000
0010
1000
0001
0010
0001
1000
,
0100
0010
0001
0010
0001
1000
0100
1000
0001
1000
0010
1000
,
0001
0100
0001
0010
0100
1000
0001
0010
0001
1000
0010
0100
,
0001
0100
0001
1000
0010
1000
0001
1000
0001
0010
0001
1000
,
0100
0010
0001
0100
0010
0100
0010
1000
0001
1000
0100
1000
,
0100
0010
0001
1000
0010
1000
0010
0100
0001
1000
0010
1000
,
0001
0100
0001
0010
0100
1000
0001
0100
0001
1000
0010
0100
,
0010
0100
0001
1000
0100
1000
0001
0010
0001
1000
0010
0100
,
0010
0100
0001
1000
0100
1000
0001
0010
0001
1000
0010
0100
,
0010
0100
0001
1000
0100
1000
0100
0010
0001
1000
0010
0100
,
0010
0100
0001
1000
0100
1000
0001
0010
0001
1000
0010
1000
,
0001
0010
0100
0010
0001
1000
0100
1000
0001
1000
0010
0100
,
0001
1000
0010
1000
0001
1000
0001
0010
0100
1000
0010
1000
,
0001
0100
0001
1000
0100
0010
0001
0100
0001
1000
0010
1000
,
0002
0000
0023
0000
0230
0000
1300
1000
,
0001
0100
0010
0100
,
0001
0100
0010
1000
,
0001
0010
0100
0010
,
0001
1000
0010
0100
,
0001
1000
0001
0100
,
0001
1000
0001
0010
,
0100
1000
0100
1000
,
0001
0100
0100
0010
,
1000
0001
0100
0001
,
1000
0001
0010
0010
,
0100
1000
0001
1000
,
0100
0010
0010
0010
,
0001
0100
0010
0010
,
1000
1000
0010
1000
,
0001
0010
0001
0100
,
0010
1000
0001
0001
,
1000
0100
1000
0100
1000
0001
0100
0010
,
1000
0100
1000
0100
1000
0001
0100
0010
,
1000
0010
1000
0100
0010
0001
0100
0001
1000
0001
0010
0001
,
0100
0010
1000
0100
1000
0001
1000
0000
0000
1000
0000
0000
,
0001
0100
0001
0100
0001
1000
0100
0010
,
0001
0100
0001
0100
0001
1000
0100
0010
,
0001
0010
0001
0100
0010
1000
0100
1000
0001
1000
0010
1000
,
0100
0010
0001
0100
0001
1000
0001
0000
0000
0001
0000
0000
,
1000
0100
1000
0100
1000
0001
0100
0010
,
1000
0100
1000
0100
1000
0001
0100
0010
,
1000
0010
1000
0100
0010
0001
0100
0001
1000
0001
0010
0001
,
0100
0010
1000
0001
0100
0001
1000
0001
1000
0010
1000
0001
,
0010
0001
1000
0001
1000
0100
1000
0001
1000
0001
0100
0010
,
2000
0000
0000
0000
3200
0000
0000
0300
,
1000
0100
1000
0100
0010
0001
1000
0010
1000
0010
0100
0001
,
1000
0100
1000
0001
1000
0001
0010
0001
1000
0010
1000
0001
,
0100
0010
1000
0010
1000
0001
0100
0001
1000
0001
0010
0001
,
1000
0100
1000
0010
0100
0001
1000
0010
1000
0001
0010
0100
,
1000
0100
1000
0001
0010
0001
1000
0001
1000
0010
1000
0001
,
0100
0010
1000
0100
0010
0100
0010
0001
1000
0001
0100
0001
,
0100
0010
1000
0001
0010
0001
0010
0100
1000
0001
0010
0001
,
1000
0100
1000
0010
0100
0001
1000
0100
1000
0001
0010
0100
,
0010
0100
1000
0001
0100
0001
1000
0010
1000
0001
0010
0100
,
0010
0100
1000
0001
0100
0001
1000
0010
1000
0001
0010
0100
,
0010
0100
1000
0001
0100
0001
0100
0010
1000
0001
0010
0100
,
0010
0100
1000
0001
0100
0001
1000
0010
1000
0001
0010
0001
,
1000
0010
0100
0010
1000
0001
0100
0001
1000
0001
0010
0100
,
1000
0001
0010
0001
1000
0001
1000
0010
0100
0001
0010
0001
,
1000
0100
1000
0001
0100
0010
1000
0100
1000
0001
0010
0001
,
1000
0010
1000
0010
0100
0001
1000
0010
1000
0010
0100
0001
,
1000
0010
1000
0010
0100
0001
1000
0100
1000
0100
0010
0001
,
1000
0010
1000
0001
1000
0001
0100
0001
1000
0100
1000
0001
,
0010
0100
1000
0100
1000
0001
0010
0001
1000
0001
0100
0001
,
1000
0010
1000
0100
0010
0001
1000
0100
1000
0010
0100
0010
,
1000
0001
1000
0001
0100
0001
1000
0001
1000
0100
0010
0001
,
0100
0001
1000
0010
1000
0001
0100
0001
1000
0001
0010
0001
,
0010
0100
1000
0001
0100
0001
0100
0010
1000
0001
0100
0001
,
1000
0010
1000
0100
0010
0001
1000
0010
1000
0001
0100
0010
,
0100
0010
1000
0001
0010
0001
1000
0100
1000
0001
0100
0010
,
0100
0010
1000
0001
0010
0001
1000
0100
1000
0001
0100
0010
,
0100
0010
1000
0001
0010
0001
0010
0100
1000
0001
0100
0010
,
0100
0010
1000
0001
0010
0001
1000
0100
1000
0001
0100
0001
,
1000
0100
0010
0100
1000
0001
0010
0001
1000
0001
0100
0010
,
1000
0001
0100
0001
1000
0001
1000
0100
0010
0001
1000
0010
,
1000
0001
0100
0001
1000
0100
0010
0100
1000
0001
0100
0001
,
1000
0010
0100
0100
,
1010
0010
1000
1001
,
0001
0010
0011
0001
,
1100
1000
0001
0101
,
0100
0000
0010
0000
1010
0000
1000
0001
,
1000
0100
0010
0011
,
0001
1000
1001
0001
,
1010
1000
0001
0101
,
0100
0000
0001
0000
1001
0000
1000
0001
,
0010
0100
1000
1001
,
0001
0100
0101
0001
,
1010
1000
0001
0011
,
0010
0100
1100
1000
,
1001
0001
0100
0110
,
0010
1000
1010
0001
,
1001
1000
1000
1100
,
1000
1000
1001
1000
,
0001
0010
0001
0010
0100
1000
0001
0100
0001
0100
0010
1000
,
0001
0010
0001
1000
0001
1000
0100
1000
0001
0100
0001
1000
,
0010
0100
0001
0100
0001
1000
0010
1000
0001
1000
0100
1000
,
0001
0010
0001
0100
0010
1000
0001
0100
0001
1000
0100
0010
,
0001
0010
0001
1000
0100
1000
0001
1000
0001
0100
0001
1000
,
0010
0100
0001
0010
0100
0010
0100
1000
0001
1000
0010
1000
,
0010
0100
0001
1000
0100
1000
0100
0010
0001
1000
0100
1000
,
0001
0010
0001
0100
0010
1000
0001
0010
0001
1000
0100
0010
,
0100
0010
0001
1000
0010
1000
0001
0100
0001
1000
0100
0010
,
0100
0010
0001
1000
0010
1000
0001
0100
0001
1000
0100
0010
,
0100
0010
0001
1000
0010
1000
0010
0100
0001
1000
0100
0010
,
0100
0010
0001
1000
0010
1000
0001
0100
0001
1000
0100
1000
,
0001
0100
0010
0100
0001
1000
0010
1000
0001
1000
0100
0010
,
0001
1000
0100
1000
0001
1000
0001
0100
0010
1000
0100
1000
,
0001
0010
0001
1000
0010
0100
0001
0010
0001
1000
0100
1000
,
0001
0100
0001
0100
0010
1000
0001
0100
0001
0100
0010
1000
,
0001
0100
0001
0100
0010
1000
0001
0010
0001
0010
0100
1000
,
0001
0100
0001
1000
0001
1000
0010
1000
0001
0010
0001
1000
,
0100
0010
0001
0010
0001
1000
0100
1000
0001
1000
0010
1000
,
0001
0100
0001
0010
0100
1000
0001
0010
0001
0100
0010
0100
,
0001
1000
0001
1000
0010
1000
0001
1000
0001
0010
0100
1000
,
0010
1000
0001
0100
0001
1000
0010
1000
0001
1000
0100
1000
,
0100
0010
0001
1000
0010
1000
0010
0100
0001
1000
0010
1000
,
0001
0100
0001
0010
0100
1000
0001
0100
0001
1000
0010
0100
,
0010
0100
0001
1000
0100
1000
0001
0010
0001
1000
0010
0100
,
0010
0100
0001
1000
0100
1000
0001
0010
0001
1000
0010
0100
,
0010
0100
0001
1000
0100
1000
0100
0010
0001
1000
0010
0100
,
0010
0100
0001
1000
0100
1000
0001
0010
0001
1000
0010
1000
,
0001
0010
0100
0010
0001
1000
0100
1000
0001
1000
0010
0100
,
0001
1000
0010
1000
0001
1000
0001
0010
0100
1000
0001
0100
,
0001
1000
0010
1000
0001
0010
0100
0010
0001
1000
0010
1000
,
0002
0100
0100
0103
,
0001
1000
0100
1000
,
0010
1000
0100
1000
,
0001
0100
0001
1000
,
0100
0000
0010
0000
0100
0000
1000
0001
,
1000
0010
1000
0001
,
1000
0100
1000
0001
,
0100
0010
0100
0001
,
0010
0100
1000
0010
,
1000
0001
0100
0001
,
0010
0001
1000
0001
,
0100
0010
1000
0100
,
1000
0010
1000
0001
,
0100
0001
1000
0001
,
0010
0001
1000
0100
,
1000
0010
1000
0001
,
0100
0010
0100
0001
,
1000
0001
0010
0001
,
0100
0001
0010
0001
,
1000
0010
1000
0001
,
0010
0000
0100
0000
0010
0000
0001
1000
,
0001
0100
0001
1000
,
0001
0010
0001
1000
,
0010
0100
0010
1000
,
0100
0010
0001
0100
,
0001
1000
0010
1000
,
0100
1000
0001
1000
,
0010
0100
0001
0010
,
0001
0100
0001
1000
,
0010
1000
0001
1000
,
0100
1000
0001
0010
,
0001
0100
0001
1000
,
0100
0010
0001
2000
,
0000
3000
0000
0000
;
